osu file format v14

[General]
AudioFilename: audio.mp3
AudioLeadIn: 0
PreviewTime: 38243
Countdown: 1
SampleSet: Soft
StackLeniency: 0.7
Mode: 0
LetterboxInBreaks: 0
WidescreenStoryboard: 0

[Editor]
DistanceSpacing: 0.7
BeatDivisor: 8
GridSize: 4
TimelineZoom: 1

[Metadata]
Title:DRWNING
TitleUnicode:DRWNING
Artist:brothel.
ArtistUnicode:brothel.
Creator:Dashyy-
Version:NRML
Source:
Tags:cloud trap rap hip hop soundcloud drowning cut
BeatmapID:1382440
BeatmapSetID:651946

[Difficulty]
HPDrainRate:3.5
CircleSize:5
OverallDifficulty:4
ApproachRate:5.7
SliderMultiplier:1
SliderTickRate:1

[Events]
//Background and Video events
0,0,"wallpaper 1.jpg",0,0
//Break Periods
2,33201,37306
//Storyboard Layer 0 (Background)
//Storyboard Layer 1 (Fail)
//Storyboard Layer 2 (Pass)
//Storyboard Layer 3 (Foreground)
//Storyboard Sound Samples

[TimingPoints]
3601,600,4,2,0,10,1,0
19201,600,4,2,0,10,1,0
19201,-142.857142857143,4,2,0,10,0,0
38401,-83.3333333333333,4,2,0,80,0,1
46801,-83.3333333333333,4,2,0,5,0,1
47401,-83.3333333333333,4,2,0,5,0,1
48001,-83.3333333333333,4,2,0,80,0,1
60001,-83.3333333333333,4,2,0,5,0,1
60601,-83.3333333333333,4,2,0,80,0,1
66001,-83.3333333333333,4,2,0,5,0,1
67201,-83.3333333333333,4,2,0,80,0,1
76801,-100,4,2,0,80,0,0

[HitObjects]
63,334,19201,6,0,P|101:338|135:334,1,69.9999978637696
197,280,20401,2,0,P|234:276|273:284,1,69.9999978637696
326,340,21601,2,0,P|360:345|403:341,1,69.9999978637696
457,285,22801,1,0,0:0:0:0:
429,205,23401,1,0,0:0:0:0:
457,126,24001,6,0,P|467:88|467:48,1,69.9999978637696
394,16,25201,2,0,L|394:93,1,69.9999978637696
315,114,26401,2,0,P|305:76|305:36,1,69.9999978637696
223,20,27601,1,0,0:0:0:0:
150,62,28201,1,0,0:0:0:0:
67,45,28801,6,0,B|58:85|58:85|68:123,1,69.9999978637696
106,186,30001,2,0,B|115:226|115:226|105:264,1,69.9999978637696
48,313,31201,2,0,B|39:353|39:353|49:391,1,69.9999978637696
126,355,32401,1,0,0:0:0:0:
207,374,33001,1,0,0:0:0:0:
129,57,38401,6,0,L|118:181,1,119.999996337891,12|0,0:0|0:0,0:0:0:0:
139,254,39601,2,0,P|163:277|254:286,1,119.999996337891,2|0,0:0|0:0,0:0:0:0:
285,275,40501,1,4,0:0:0:0:
321,255,40801,2,0,P|362:248|433:309,1,119.999996337891,0|8,0:0|0:0,0:0:0:0:
417,372,42001,2,0,L|349:375,1,59.9999981689454,2|4,0:0|0:0,0:0:0:0:
322,355,42601,2,0,L|254:358,1,59.9999981689454,0|8,0:0|0:0,0:0:0:0:
221,369,43201,6,0,P|171:360|136:301,1,119.999996337891,12|0,0:0|0:0,0:0:0:0:
155,222,44401,2,0,L|145:92,1,119.999996337891,2|8,0:0|0:0,0:0:0:0:
159,62,45301,1,8,0:0:0:0:
187,31,45601,2,0,P|217:11|305:28,1,119.999996337891,8|8,0:0|0:0,0:0:0:0:
329,98,46801,1,0,0:0:0:0:
329,98,47101,1,0,0:0:0:0:
366,79,47401,2,0,L|432:84,1,59.9999981689454
460,108,48001,6,0,P|478:151|464:229,1,119.999996337891,12|0,0:0|0:0,0:0:0:0:
421,292,49201,2,0,L|299:301,1,119.999996337891,2|0,0:0|0:0,0:0:0:0:
263,297,50101,1,0,0:0:0:0:
228,273,50401,2,0,P|194:266|125:332,1,119.999996337891
182,369,51601,2,0,L|249:361,1,59.9999981689454,4|0,0:0|0:0,0:0:0:0:
276,338,52201,2,0,L|343:330,1,59.9999981689454,0|8,0:0|0:0,0:0:0:0:
369,306,52801,6,0,P|383:272|335:199,1,119.999996337891,2|12,0:0|0:0,0:0:0:0:
263,190,54001,2,0,P|223:175|198:98,1,119.999996337891,2|12,0:0|0:0,0:0:0:0:
204,65,54901,1,8,0:0:0:0:
223,28,55201,2,0,L|348:21,1,119.999996337891,2|12,0:0|0:0,0:0:0:0:
400,85,56401,2,0,L|408:152,1,59.9999981689454,2|0,0:0|0:0,0:0:0:0:
431,178,57001,2,0,L|439:245,1,59.9999981689454,4|0,0:0|0:0,0:0:0:0:
442,279,57601,6,0,P|426:324|356:343,1,119.999996337891,12|2,0:0|0:0,0:0:0:0:
305,281,58801,2,0,P|252:255|187:279,1,119.999996337891,0|2,0:0|0:0,0:0:0:0:
65,332,60001,2,0,L|62:298,2,29.9999990844727
28,349,60601,1,0,0:0:0:0:
0,260,61201,2,0,P|-1:230|9:201,1,59.9999981689454,8|0,0:0|0:0,0:0:0:0:
48,180,61801,2,0,L|112:175,1,59.9999981689454,4|8,0:0|0:0,0:0:0:0:
149,180,62401,6,0,L|273:169,1,119.999996337891
391,129,63601,2,0,P|412:88|379:27,1,119.999996337891
298,7,64801,2,0,L|304:68,1,59.9999981689454
296,108,65401,1,0,0:0:0:0:
287,191,66001,2,0,L|292:255,3,59.9999981689454
275,289,67201,6,0,P|236:301|159:269,1,119.999996337891
117,204,68401,2,0,P|76:184|13:224,1,119.999996337891
58,290,69601,2,0,L|120:294,1,59.9999981689454
152,321,70201,2,0,L|214:325,1,59.9999981689454
251,339,70801,2,0,L|377:330,1,119.999996337891
427,268,72001,6,0,P|439:236|415:153,1,119.999996337891
345,112,73201,2,0,L|226:107,1,119.999996337891
145,133,74401,2,0,L|141:197,1,59.9999981689454
161,229,75001,2,0,L|157:293,1,59.9999981689454
172,328,75601,2,0,P|140:352|59:334,1,119.999996337891
32,277,76801,5,0,0:0:0:0:
