osu file format v14

[General]
AudioFilename: audio.mp3
AudioLeadIn: 0
PreviewTime: 24130
Countdown: 0
SampleSet: Soft
StackLeniency: 0.7
Mode: 0
LetterboxInBreaks: 0
WidescreenStoryboard: 0

[Editor]
Bookmarks: 24130,72130
DistanceSpacing: 1.3
BeatDivisor: 4
GridSize: 4
TimelineZoom: 1

[Metadata]
Title:timmy.
TitleUnicode:timmy.
Artist:brothel
ArtistUnicode:brothel
Creator:-Space-
Version:normal.
Source:
Tags:chill rap bass freestyle
BeatmapID:1503954
BeatmapSetID:711445

[Difficulty]
HPDrainRate:5
CircleSize:3.5
OverallDifficulty:4
ApproachRate:5
SliderMultiplier:2.4
SliderTickRate:1

[Events]
//Background and Video events
0,0,"bgbr1.jpg",0,0
//Break Periods
//Storyboard Layer 0 (Background)
//Storyboard Layer 1 (Fail)
//Storyboard Layer 2 (Pass)
//Storyboard Layer 3 (Foreground)
//Storyboard Sound Samples

[TimingPoints]
20130,1000,4,2,1,40,1,0
24130,-100,4,2,1,40,0,1
25130,-100,4,2,2,40,0,1
25630,-100,4,2,1,40,0,1
27130,-100,4,2,2,40,0,1
28130,-100,4,2,1,40,0,1
29130,-100,4,2,2,40,0,1
32130,-100,4,2,1,40,0,0
33130,-100,4,2,2,40,0,1
34130,-100,4,2,1,40,0,1
35130,-100,4,2,2,40,0,1
36130,-100,4,2,1,40,0,1
37130,-100,4,2,2,40,0,1
40130,-100,4,2,1,40,0,0
41130,-100,4,2,2,40,0,0
48130,-100,4,2,1,40,0,1
49130,-100,4,2,2,40,0,1
56130,-100,4,2,1,40,0,0
57130,-100,4,2,2,40,0,0
64130,-100,4,2,1,40,0,0
65130,-100,4,2,2,40,0,0
71630,-100,4,2,1,40,0,0
73130,-100,4,2,1,20,0,0
74130,-100,4,2,1,5,0,0

[HitObjects]
76,96,24130,6,0,P|96:152|176:172,1,120,4|0,0:0|0:0,0:0:0:0:
216,140,24880,1,0,0:0:0:0:
152,100,25130,1,8,0:0:0:0:
308,104,25630,2,0,P|384:120|296:180,1,240,4|0,0:0|0:0,0:0:0:0:
232,48,27130,1,8,0:0:0:0:
124,160,27630,2,0,P|120:200|136:232,1,60,2|0,0:0|0:0,0:0:0:0:
188,264,28130,6,0,P|156:288|60:260,1,120,4|0,0:0|0:0,0:0:0:0:
126,218,28880,1,0,0:0:0:0:
197,187,29130,1,8,0:0:0:0:
324,292,29630,1,0,0:0:0:0:
448,196,30130,2,0,L|456:124,1,60,4|0,0:0|0:0,0:0:0:0:
400,80,30630,1,8,0:0:0:0:
244,80,31130,1,4,0:0:0:0:
188,136,31380,2,0,L|194:195,1,60
316,296,32130,6,0,B|344:312|376:296|376:296|412:276|460:304,2,120,4|0|8,0:0|0:0|0:0,0:0:0:0:
172,236,33630,2,0,L|88:244,1,60,4|0,0:0|0:0,0:0:0:0:
40,208,34130,2,0,P|20:120|36:72,1,120,2|0,0:0|0:0,0:0:0:0:
176,136,35130,2,0,L|235:130,1,60,8|0,0:0|0:0,0:0:0:0:
300,172,35630,2,0,L|359:177,1,60,2|0,0:0|0:0,0:0:0:0:
432,148,36130,5,4,0:0:0:0:
328,264,36630,1,0,0:0:0:0:
252,256,36880,1,0,0:0:0:0:
184,292,37130,2,0,L|60:276,1,120,8|0,0:0|0:0,0:0:0:0:
156,148,38130,2,0,L|215:157,1,60,4|0,0:0|0:0,0:0:0:0:
264,96,38629,1,8,0:0:0:0:
332,236,39130,1,4,0:0:0:0:
380,297,39380,2,0,L|439:287,1,60,8|8,0:0|0:0,0:0:0:0:
284,300,40130,5,4,0:0:0:0:
284,300,41130,1,8,0:0:0:0:
176,188,41630,1,0,0:0:0:0:
284,76,42130,2,0,B|312:68|340:88|340:88|364:108|396:100,2,120,4|0|8,0:0|0:0|0:0,0:0:0:0:
176,188,43630,2,0,L|200:268,1,60
268,264,44130,6,0,P|327:265|376:233,1,120,4|0,0:0|0:0,0:0:0:0:
336,80,45130,2,0,P|276:78|227:110,1,120,8|0,0:0|0:0,0:0:0:0:
116,232,46130,2,0,P|80:240|40:224,1,60,4|0,0:0|0:0,0:0:0:0:
84,160,46630,1,8,0:0:0:0:
220,240,47130,2,0,P|200:300|132:336,1,120,8|8,0:0|0:0,0:0:0:0:
180,176,48130,6,0,P|268:180|296:240,1,120,4|0,0:0|0:0,0:0:0:0:
340,348,49130,1,8,0:0:0:0:
436,224,49630,2,0,P|440:196|432:160,1,60,2|0,0:0|0:0,0:0:0:0:
388,100,50130,2,0,L|252:76,1,120,4|0,0:0|0:0,0:0:0:0:
156,184,51130,1,8,0:0:0:0:
168,260,51380,1,0,0:0:0:0:
212,324,51630,2,0,P|256:348|292:348,1,60,2|0,0:0|0:0,0:0:0:0:
328,304,52130,6,0,P|316:240|332:176,1,120,4|0,0:0|0:0,0:0:0:0:
472,244,53130,1,8,0:0:0:0:
380,120,53630,2,0,P|348:104|296:108,1,60,2|0,0:0|0:0,0:0:0:0:
260,144,54130,2,0,B|232:148|232:148|208:144|208:144|128:144,1,120,4|0,0:0|0:0,0:0:0:0:
68,284,55130,2,0,B|96:288|96:288|120:284|120:284|200:284,1,120,8|0,0:0|0:0,0:0:0:0:
264,284,55880,1,0,0:0:0:0:
224,216,56130,5,4,0:0:0:0:
224,216,57130,2,0,P|360:164|432:248,2,240,8|2|8,0:0|0:0|0:0,0:0:0:0:
320,340,59630,1,2,0:0:0:0:
372,280,59880,1,0,0:0:0:0:
420,215,60130,6,0,L|420:147,1,60,4|0,0:0|0:0,0:0:0:0:
352,120,60630,1,2,0:0:0:0:
292,264,61130,1,8,0:0:0:0:
196,140,61630,1,0,0:0:0:0:
136,284,62130,2,0,P|64:300|0:284,1,120,2|0,0:0|0:0,0:0:0:0:
68,144,63130,1,8,0:0:0:0:
96,72,63380,2,0,L|164:64,1,60,2|8,0:0|0:0,0:0:0:0:
232,56,63880,1,8,0:0:0:0:
284,112,64130,5,4,0:0:0:0:
284,112,65130,2,0,P|260:208|372:304,2,240,8|2|8,0:0|0:0|0:0,0:0:0:0:
420,40,67630,1,2,0:0:0:0:
352,80,67880,1,0,0:0:0:0:
284,112,68130,6,0,L|176:104,1,60,4|0,0:0|0:0,0:0:0:0:
164,164,68630,1,2,0:0:0:0:
320,180,69130,1,8,0:0:0:0:
228,304,69630,1,0,0:0:0:0:
164,164,70130,6,0,P|220:100|320:180,1,240,4|8,0:0|0:0,0:0:0:0:
316,260,71380,2,0,L|312:328,2,60,2|0|2,0:0|0:0|0:0,0:0:0:0:
256,192,72130,12,0,74130,0:0:0:0:
