osu file format v14

[General]
AudioFilename: audio.mp3
AudioLeadIn: 0
PreviewTime: -1
Countdown: 1
SampleSet: None
StackLeniency: 0.7
Mode: 0
LetterboxInBreaks: 0
WidescreenStoryboard: 0

[Editor]
Bookmarks: 5992
DistanceSpacing: 2.6
BeatDivisor: 4
GridSize: 32
TimelineZoom: 1.9

[Metadata]
Title:GUITAR
TitleUnicode:GUITAR
Artist:broken MIDI
ArtistUnicode:broken MIDI
Creator:Ali-
Version:DEMONSEX
Source:
Tags:
BeatmapID:1499667
BeatmapSetID:709408

[Difficulty]
HPDrainRate:10
CircleSize:4.5
OverallDifficulty:10
ApproachRate:10
SliderMultiplier:2.6
SliderTickRate:1

[Events]
//Background and Video events
0,0,"mqdefault.jpg",0,0
//Break Periods
//Storyboard Layer 0 (Background)
//Storyboard Layer 1 (Fail)
//Storyboard Layer 2 (Pass)
//Storyboard Layer 3 (Foreground)
//Storyboard Sound Samples

[TimingPoints]
-10,500,4,3,0,50,1,0

[HitObjects]
152,256,240,6,0,P|192:264|248:256,1,65
320,224,490,1,0,0:0:0:0:
136,120,615,1,0,0:0:0:0:
256,344,740,1,0,0:0:0:0:
240,72,865,1,0,0:0:0:0:
424,144,990,6,0,P|384:136|328:144,1,65
160,168,1240,1,0,0:0:0:0:
392,296,1365,1,0,0:0:0:0:
320,56,1490,1,0,0:0:0:0:
208,304,1615,1,0,0:0:0:0:
432,104,1740,1,0,0:0:0:0:
376,344,1865,1,0,0:0:0:0:
104,272,1990,6,0,P|144:304|168:312,2,65
32,176,2365,1,0,0:0:0:0:
224,272,2490,1,0,0:0:0:0:
56,112,2615,1,0,0:0:0:0:
224,168,2740,2,0,P|272:184|304:184,1,65
256,352,2990,5,0,0:0:0:0:
344,96,3115,1,0,0:0:0:0:
336,336,3240,1,0,0:0:0:0:
280,24,3365,1,0,0:0:0:0:
352,264,3490,1,0,0:0:0:0:
176,40,3615,1,0,0:0:0:0:
320,200,3740,1,0,0:0:0:0:
88,112,3865,1,0,0:0:0:0:
290,24,3990,6,0,B|375:1|337:122|337:122|441:57|441:57|506:125|321:265|321:265|514:210|514:210|255:188,1,975
40,96,5990,2,0,L|24:144,1,32.5
8,240,6115,2,0,L|48:216,1,32.5
134,302,6240,2,0,L|102:254,1,32.5
264,41,6365,2,0,L|296:89,1,32.5
211,294,6490,2,0,L|243:310,1,32.5
368,32,6615,2,0,L|400:0,1,32.5
479,74,6740,2,0,L|519:90,3,32.5
90,253,6990,2,0,L|122:221,1,32.5
483,5,7115,2,0,L|435:13,1,32.5
116,347,7240,2,0,L|156:315,1,32.5
466,37,7365,2,0,L|490:61,1,32.5
429,356,7490,2,0,L|453:308,1,32.5
45,36,7615,2,0,L|61:76,1,32.5
512,266,7740,2,0,L|472:282,1,32.5
384,160,7865,2,0,L|416:120,1,32.5
152,160,7990,5,0,0:0:0:0:
248,280,8115,1,0,0:0:0:0:
192,32,8240,1,0,0:0:0:0:
456,304,8365,1,0,0:0:0:0:
0,384,8490,1,0,0:0:0:0:
248,175,8615,1,0,0:0:0:0:
432,88,8740,1,0,0:0:0:0:
248,175,8865,1,0,0:0:0:0:
392,189,8990,5,0,0:0:0:0:
205,326,9115,1,0,0:0:0:0:
379,26,9240,1,0,0:0:0:0:
56,304,9365,1,0,0:0:0:0:
64,192,9490,1,0,0:0:0:0:
416,112,9615,1,0,0:0:0:0:
80,88,9740,1,0,0:0:0:0:
312,224,9865,1,0,0:0:0:0:
64,80,9990,5,0,0:0:0:0:
360,56,10115,1,0,0:0:0:0:
32,144,10240,1,0,0:0:0:0:
440,232,10365,1,0,0:0:0:0:
0,208,10490,1,0,0:0:0:0:
464,384,10615,1,0,0:0:0:0:
88,16,10740,1,0,0:0:0:0:
408,144,10865,1,0,0:0:0:0:
448,304,10990,5,0,0:0:0:0:
152,328,11115,1,0,0:0:0:0:
480,240,11240,1,0,0:0:0:0:
72,152,11365,1,0,0:0:0:0:
512,176,11490,1,0,0:0:0:0:
0,59,11615,1,0,0:0:0:0:
424,368,11740,1,0,0:0:0:0:
104,240,11865,1,0,0:0:0:0:
472,352,11990,5,0,0:0:0:0:
56,64,12115,1,0,0:0:0:0:
472,352,12240,5,0,0:0:0:0:
56,64,12365,1,0,0:0:0:0:
472,352,12490,5,0,0:0:0:0:
56,64,12615,1,0,0:0:0:0:
472,352,12740,5,0,0:0:0:0:
56,64,12865,1,0,0:0:0:0:
0,265,12990,5,0,0:0:0:0:
512,264,13115,1,0,0:0:0:0:
0,265,13240,5,0,0:0:0:0:
512,264,13365,1,0,0:0:0:0:
0,265,13490,5,0,0:0:0:0:
456,64,13615,1,0,0:0:0:0:
40,352,13740,5,0,0:0:0:0:
456,64,13865,1,0,0:0:0:0:
416,384,13990,5,0,0:0:0:0:
256,192,14115,1,0,0:0:0:0:
128,0,14240,1,0,0:0:0:0:
0,192,14365,5,0,0:0:0:0:
256,192,14490,1,0,0:0:0:0:
512,192,14615,1,0,0:0:0:0:
56,336,14740,5,0,0:0:0:0:
256,192,14865,1,0,0:0:0:0:
464,40,14990,1,0,0:0:0:0:
456,336,15115,5,0,0:0:0:0:
256,192,15240,1,0,0:0:0:0:
48,40,15365,1,0,0:0:0:0:
128,384,15490,5,0,0:0:0:0:
256,192,15615,1,0,0:0:0:0:
384,0,15740,1,0,0:0:0:0:
256,192,15865,1,0,0:0:0:0:
32,288,15990,5,0,0:0:0:0:
512,200,16115,1,0,0:0:0:0:
104,360,16240,1,0,0:0:0:0:
472,96,16365,1,0,0:0:0:0:
192,384,16490,1,0,0:0:0:0:
400,40,16615,1,0,0:0:0:0:
264,384,16740,1,0,0:0:0:0:
328,0,16865,1,0,0:0:0:0:
328,384,16990,1,0,0:0:0:0:
248,0,17115,1,0,0:0:0:0:
392,384,17240,1,0,0:0:0:0:
184,0,17365,1,0,0:0:0:0:
448,384,17490,1,0,0:0:0:0:
120,0,17615,1,0,0:0:0:0:
480,384,17740,1,0,0:0:0:0:
40,0,17865,1,0,0:0:0:0:
512,384,17990,1,0,0:0:0:0:
0,0,18115,1,0,0:0:0:0:
512,384,18240,1,0,0:0:0:0:
0,0,18365,1,0,0:0:0:0:
512,384,18490,1,0,0:0:0:0:
0,0,18615,1,0,0:0:0:0:
512,384,18740,1,0,0:0:0:0:
0,0,18865,1,0,0:0:0:0:
512,360,18990,1,0,0:0:0:0:
0,32,19115,1,0,0:0:0:0:
512,328,19240,1,0,0:0:0:0:
0,72,19365,1,0,0:0:0:0:
512,280,19490,1,0,0:0:0:0:
0,136,19615,1,0,0:0:0:0:
512,200,19740,1,0,0:0:0:0:
0,200,19865,1,0,0:0:0:0:
189,359,19990,5,0,0:0:0:0:
13,255,20115,1,0,0:0:0:0:
512,368,20240,1,0,0:0:0:0:
24,80,20365,1,0,0:0:0:0:
380,175,20490,1,0,0:0:0:0:
488,104,20615,1,0,0:0:0:0:
451,252,20740,1,0,0:0:0:0:
310,209,20865,1,0,0:0:0:0:
0,70,20990,5,0,0:0:0:0:
161,181,21115,1,0,0:0:0:0:
512,11,21240,1,0,0:0:0:0:
64,384,21365,1,0,0:0:0:0:
124,258,21490,1,0,0:0:0:0:
192,96,21615,1,0,0:0:0:0:
272,240,21740,1,0,0:0:0:0:
290,57,21865,1,0,0:0:0:0:
188,357,21990,5,0,0:0:0:0:
12,253,22115,1,0,0:0:0:0:
512,368,22240,1,0,0:0:0:0:
24,80,22365,1,0,0:0:0:0:
273,311,22490,1,0,0:0:0:0:
488,104,22615,1,0,0:0:0:0:
480,328,22740,1,0,0:0:0:0:
400,216,22865,1,0,0:0:0:0:
416,182,22990,5,0,0:0:0:0:
512,374,23115,1,0,0:0:0:0:
0,50,23240,1,0,0:0:0:0:
250,378,23365,1,0,0:0:0:0:
512,152,23490,1,0,0:0:0:0:
192,96,23615,1,0,0:0:0:0:
368,192,23740,1,0,0:0:0:0:
112,120,23865,1,0,0:0:0:0:
416,192,23990,5,0,0:0:0:0:
512,360,24115,1,0,0:0:0:0:
8,8,24240,1,0,0:0:0:0:
232,352,24365,1,0,0:0:0:0:
216,104,24490,1,0,0:0:0:0:
344,248,24615,1,0,0:0:0:0:
344,48,24740,1,0,0:0:0:0:
179,234,24865,1,0,0:0:0:0:
0,184,24990,5,0,0:0:0:0:
133,73,25115,1,0,0:0:0:0:
494,375,25240,1,0,0:0:0:0:
4,77,25365,1,0,0:0:0:0:
116,157,25490,1,0,0:0:0:0:
0,208,25615,1,0,0:0:0:0:
358,206,25740,1,0,0:0:0:0:
200,82,25865,1,0,0:0:0:0:
108,375,25990,5,0,0:0:0:0:
3,204,26115,1,0,0:0:0:0:
496,376,26240,1,0,0:0:0:0:
3,204,26365,1,0,0:0:0:0:
512,96,26490,1,0,0:0:0:0:
370,156,26615,1,0,0:0:0:0:
192,192,26740,1,0,0:0:0:0:
392,272,26865,1,0,0:0:0:0:
115,365,26990,5,0,0:0:0:0:
23,278,27115,1,0,0:0:0:0:
512,368,27240,1,0,0:0:0:0:
24,80,27365,1,0,0:0:0:0:
256,176,27490,1,0,0:0:0:0:
488,104,27615,1,0,0:0:0:0:
480,328,27740,1,0,0:0:0:0:
400,216,27865,1,0,0:0:0:0:
0,39,27990,5,0,0:0:0:0:
390,328,28115,1,0,0:0:0:0:
360,0,28240,1,0,0:0:0:0:
56,330,28365,1,0,0:0:0:0:
467,173,28490,1,0,0:0:0:0:
0,32,28615,1,0,0:0:0:0:
512,384,28740,1,0,0:0:0:0:
0,264,28865,1,0,0:0:0:0:
512,93,28990,5,0,0:0:0:0:
0,72,29115,1,0,0:0:0:0:
512,24,29240,1,0,0:0:0:0:
0,384,29365,1,0,0:0:0:0:
512,384,29490,1,0,0:0:0:0:
8,8,29615,1,0,0:0:0:0:
512,384,29740,1,0,0:0:0:0:
8,0,29865,1,0,0:0:0:0:
256,192,29990,12,0,30490,0:0:0:0:
120,64,30740,5,0,0:0:0:0:
384,344,30865,1,0,0:0:0:0:
88,288,30990,1,0,0:0:0:0:
368,144,31115,1,0,0:0:0:0:
208,384,31240,1,0,0:0:0:0:
168,96,31365,1,0,0:0:0:0:
488,304,31490,1,0,0:0:0:0:
160,320,31615,1,0,0:0:0:0:
376,80,31740,1,0,0:0:0:0:
352,384,31865,1,0,0:0:0:0:
35,162,31990,6,0,L|59:90,1,65
483,138,32240,2,0,L|454:222,1,65
52,149,32490,2,0,L|89:80,1,65
444,167,32740,2,0,L|399:246,1,65
8,358,32990,1,0,0:0:0:0:
65,269,33115,1,0,0:0:0:0:
511,111,33240,1,0,0:0:0:0:
11,114,33365,1,0,0:0:0:0:
505,380,33490,1,0,0:0:0:0:
432,282,33615,1,0,0:0:0:0:
294,367,33740,1,0,0:0:0:0:
506,314,33865,1,0,0:0:0:0:
0,99,33990,5,0,0:0:0:0:
449,97,34115,1,0,0:0:0:0:
0,159,34240,1,0,0:0:0:0:
464,159,34365,1,0,0:0:0:0:
1,224,34490,1,0,0:0:0:0:
481,225,34615,1,0,0:0:0:0:
0,288,34740,1,0,0:0:0:0:
511,289,34865,1,0,0:0:0:0:
512,99,34990,5,0,0:0:0:0:
63,97,35115,1,0,0:0:0:0:
512,159,35240,1,0,0:0:0:0:
48,159,35365,1,0,0:0:0:0:
511,224,35490,1,0,0:0:0:0:
31,225,35615,1,0,0:0:0:0:
512,288,35740,1,0,0:0:0:0:
