osu file format v14

[General]
AudioFilename: audio.mp3
AudioLeadIn: 0
PreviewTime: -1
Countdown: 1
SampleSet: None
StackLeniency: 0.2
Mode: 0
LetterboxInBreaks: 0
WidescreenStoryboard: 1

[Editor]
Bookmarks: 5992
DistanceSpacing: 2.6
BeatDivisor: 4
GridSize: 32
TimelineZoom: 3.399999

[Metadata]
Title:GUITAR
TitleUnicode:GUITAR
Artist:broken MIDI
ArtistUnicode:broken MIDI
Creator:Ali-
Version:DEMONSEX V1.0
Source:
Tags:
BeatmapID:1499666
BeatmapSetID:709408

[Difficulty]
HPDrainRate:10
CircleSize:3.8
OverallDifficulty:10
ApproachRate:10
SliderMultiplier:3.4
SliderTickRate:1

[Events]
//Background and Video events
0,0,"mqdefault.jpg",0,0
//Break Periods
//Storyboard Layer 0 (Background)
//Storyboard Layer 1 (Fail)
//Storyboard Layer 2 (Pass)
//Storyboard Layer 3 (Foreground)
//Storyboard Sound Samples

[TimingPoints]
-10,500,4,3,0,50,1,0
3990,-166.666666666667,4,3,0,50,0,0
4490,-100,4,3,0,50,0,0
4990,-166.666666666667,4,3,0,50,0,0
5990,250,4,3,0,50,1,0
5990,-25,4,3,0,50,0,0
7865,-166.666666666667,4,3,0,50,0,0
7990,500,4,3,0,50,1,0

[HitObjects]
85,250,115,5,0,0:0:0:0:
35,82,240,1,0,0:0:0:0:
199,169,365,1,0,0:0:0:0:
4,191,490,1,0,0:0:0:0:
204,74,615,1,0,0:0:0:0:
190,266,740,1,0,0:0:0:0:
122,145,865,1,0,0:0:0:0:
264,128,990,5,0,0:0:0:0:
151,211,1115,1,0,0:0:0:0:
311,216,1240,1,0,0:0:0:0:
191,83,1365,1,0,0:0:0:0:
263,284,1490,1,0,0:0:0:0:
367,147,1615,1,0,0:0:0:0:
233,192,1740,1,0,0:0:0:0:
368,295,1865,1,0,0:0:0:0:
281,114,1990,5,0,0:0:0:0:
265,265,2115,1,0,0:0:0:0:
156,185,2240,1,0,0:0:0:0:
366,221,2365,1,0,0:0:0:0:
162,298,2490,1,0,0:0:0:0:
183,95,2615,1,0,0:0:0:0:
260,252,2740,1,0,0:0:0:0:
85,220,2865,1,0,0:0:0:0:
268,154,2990,5,0,0:0:0:0:
171,282,3115,1,0,0:0:0:0:
68,133,3240,1,0,0:0:0:0:
237,229,3365,1,0,0:0:0:0:
77,313,3490,1,0,0:0:0:0:
161,135,3615,1,0,0:0:0:0:
184,289,3740,1,0,0:0:0:0:
70,220,3865,1,0,0:0:0:0:
268,154,3990,5,0,0:0:0:0:
314,174,4052,1,0,0:0:0:0:
339,217,4115,1,0,0:0:0:0:
335,267,4177,1,0,0:0:0:0:
278,299,4240,1,0,0:0:0:0:
324,280,4302,1,0,0:0:0:0:
373,293,4365,1,0,0:0:0:0:
405,331,4427,1,0,0:0:0:0:
410,381,4490,6,0,L|455:353,3,42.5
278,299,4740,2,0,L|233:270,3,42.5
0,223,4990,5,0,0:0:0:0:
21,257,5052,1,0,0:0:0:0:
54,282,5115,1,0,0:0:0:0:
93,296,5177,1,0,0:0:0:0:
135,297,5240,1,0,0:0:0:0:
174,283,5302,1,0,0:0:0:0:
207,258,5365,1,0,0:0:0:0:
230,224,5427,1,0,0:0:0:0:
213,171,5490,1,0,0:0:0:0:
240,127,5553,1,0,0:0:0:0:
279,97,5615,1,0,0:0:0:0:
326,80,5678,1,0,0:0:0:0:
377,80,5740,1,0,0:0:0:0:
424,96,5803,1,0,0:0:0:0:
464,125,5865,1,0,0:0:0:0:
492,169,5928,1,0,0:0:0:0:
504,218,5990,6,0,L|502:232,1,12.7499996109009
320,259,6115,2,0,L|317:246,1,12.7499996109009
438,344,6240,2,0,L|435:356,1,12.7499996109009
438,344,6302,2,0,L|431:333,1,12.7499996109009
438,344,6365,6,0,L|450:346,1,12.7499996109009
375,183,6490,2,0,L|378:171,1,12.7499996109009
293,339,6615,2,0,L|296:352,1,12.7499996109009
444,252,6740,2,0,L|441:239,1,12.7499996109009
230,224,6865,2,0,L|232:236,1,12.7499996109009
296,98,6990,6,0,L|294:112,1,12.7499996109009
112,139,7115,2,0,L|109:126,1,12.7499996109009
230,224,7240,2,0,L|227:236,1,12.7499996109009
230,224,7302,2,0,L|223:213,1,12.7499996109009
230,224,7365,6,0,L|242:226,1,12.7499996109009
167,63,7490,2,0,L|170:51,1,12.7499996109009
85,219,7615,2,0,L|88:232,1,12.7499996109009
236,132,7740,2,0,L|233:119,1,12.7499996109009
236,132,7802,2,0,L|238:144,1,12.7499996109009
236,132,7865,2,0,L|322:117,1,50.9999984436036
152,284,7990,5,0,0:0:0:0:
19,155,8115,1,0,0:0:0:0:
240,58,8240,1,0,0:0:0:0:
101,218,8365,1,0,0:0:0:0:
69,64,8490,1,0,0:0:0:0:
201,214,8615,1,0,0:0:0:0:
22,248,8740,1,0,0:0:0:0:
150,117,8865,1,0,0:0:0:0:
98,324,8990,5,0,0:0:0:0:
23,160,9115,1,0,0:0:0:0:
237,220,9240,1,0,0:0:0:0:
22,325,9365,1,0,0:0:0:0:
150,177,9490,1,0,0:0:0:0:
159,365,9615,1,0,0:0:0:0:
72,239,9740,1,0,0:0:0:0:
205,293,9865,1,0,0:0:0:0:
1,332,9990,5,0,0:0:0:0:
137,267,10115,1,0,0:0:0:0:
362,368,10240,5,0,0:0:0:0:
226,303,10365,1,0,0:0:0:0:
446,197,10490,5,0,0:0:0:0:
310,262,10615,1,0,0:0:0:0:
415,39,10740,5,0,0:0:0:0:
350,175,10865,1,0,0:0:0:0:
144,78,10990,5,0,0:0:0:0:
280,143,11115,1,0,0:0:0:0:
70,244,11240,5,0,0:0:0:0:
206,179,11365,1,0,0:0:0:0:
105,384,11490,5,0,0:0:0:0:
170,248,11615,1,0,0:0:0:0:
376,350,11740,5,0,0:0:0:0:
240,285,11865,1,0,0:0:0:0:
352,128,11990,5,0,0:0:0:0:
256,384,12115,1,0,0:0:0:0:
160,128,12240,5,0,0:0:0:0:
256,384,12365,1,0,0:0:0:0:
415,162,12490,5,0,0:0:0:0:
256,384,12615,1,0,0:0:0:0:
97,162,12740,5,0,0:0:0:0:
256,384,12865,1,0,0:0:0:0:
468,211,12990,5,0,0:0:0:0:
256,384,13115,1,0,0:0:0:0:
44,211,13240,5,0,0:0:0:0:
256,384,13365,1,0,0:0:0:0:
506,272,13490,5,0,0:0:0:0:
256,384,13615,1,0,0:0:0:0:
6,272,13740,5,0,0:0:0:0:
256,384,13865,1,0,0:0:0:0:
256,0,13990,5,0,0:0:0:0:
256,192,14115,1,0,0:0:0:0:
256,384,14240,1,0,0:0:0:0:
102,268,14365,1,0,0:0:0:0:
448,192,14490,5,0,0:3:0:0:
256,192,14615,1,0,0:3:0:0:
63,192,14740,1,0,0:3:0:0:
179,38,14865,1,0,0:3:0:0:
256,384,14990,5,0,0:3:0:0:
256,192,15115,1,0,0:3:0:0:
256,0,15240,1,0,0:3:0:0:
409,115,15365,1,0,0:3:0:0:
63,192,15490,5,0,0:3:0:0:
256,192,15615,1,0,0:3:0:0:
448,192,15740,1,0,0:3:0:0:
332,345,15865,1,0,0:3:0:0:
256,0,15990,5,0,0:0:0:0:
511,200,16115,1,0,0:0:0:0:
256,0,16240,5,0,0:0:0:0:
1,200,16365,1,0,0:0:0:0:
256,0,16490,5,0,0:0:0:0:
484,228,16615,1,0,0:0:0:0:
256,0,16740,5,0,0:0:0:0:
29,228,16865,1,0,0:0:0:0:
256,0,16990,5,0,0:0:0:0:
455,255,17115,1,0,0:0:0:0:
256,0,17240,5,0,0:0:0:0:
57,255,17365,1,0,0:0:0:0:
256,0,17490,5,0,0:0:0:0:
422,276,17615,1,0,0:0:0:0:
256,0,17740,5,0,0:0:0:0:
90,276,17865,1,0,0:0:0:0:
256,0,17990,5,0,0:0:0:0:
386,296,18115,1,0,0:0:0:0:
256,0,18240,5,0,0:0:0:0:
126,296,18365,1,0,0:0:0:0:
256,0,18490,5,0,3:0:0:0:
349,309,18615,1,0,3:0:0:0:
256,0,18740,5,0,3:0:0:0:
163,309,18865,1,0,3:0:0:0:
256,0,18990,5,0,3:0:0:0:
310,317,19115,1,0,3:0:0:0:
256,0,19240,5,0,3:0:0:0:
201,317,19365,1,0,3:0:0:0:
256,0,19490,5,0,3:0:0:0:
271,320,19615,1,0,3:0:0:0:
256,0,19740,5,0,3:0:0:0:
240,320,19865,1,0,3:0:0:0:
400,158,19990,5,0,0:0:0:0:
243,123,20115,1,0,0:0:0:0:
369,267,20240,1,0,0:0:0:0:
434,61,20365,1,0,0:0:0:0:
290,196,20490,1,0,0:0:0:0:
464,237,20615,1,0,0:0:0:0:
338,115,20740,1,0,0:0:0:0:
374,292,20865,1,0,0:0:0:0:
465,144,20990,5,0,0:0:0:0:
305,210,21115,1,0,0:0:0:0:
342,35,21240,1,0,0:0:0:0:
367,250,21365,1,0,0:0:0:0:
185,195,21490,1,0,0:0:0:0:
308,130,21615,1,0,0:0:0:0:
230,279,21740,1,0,0:0:0:0:
149,126,21865,1,0,0:0:0:0:
301,198,21990,5,0,3:0:0:0:
141,260,22115,1,0,3:0:0:0:
289,337,22240,1,0,3:0:0:0:
139,141,22365,1,0,3:0:0:0:
104,346,22490,1,0,3:0:0:0:
245,274,22615,1,0,3:0:0:0:
108,197,22740,1,0,3:0:0:0:
182,337,22865,1,0,3:0:0:0:
204,205,22990,5,0,0:0:0:0:
56,195,23115,1,0,0:0:0:0:
201,102,23240,1,0,0:0:0:0:
114,293,23365,1,0,0:0:0:0:
12,104,23490,1,0,0:0:0:0:
187,194,23615,1,0,0:0:0:0:
14,277,23740,1,0,0:0:0:0:
108,128,23865,1,0,0:0:0:0:
114,279,23990,5,0,0:0:0:0:
3,189,24115,1,0,0:0:0:0:
60,353,24240,1,0,0:0:0:0:
101,163,24365,1,0,0:0:0:0:
17,371,24490,1,0,0:0:0:0:
188,358,24615,1,0,0:0:0:0:
64,228,24740,1,0,0:0:0:0:
143,376,24865,1,0,0:0:0:0:
267,258,24990,5,0,0:0:0:0:
114,279,25115,1,0,0:0:0:0:
272,357,25240,1,0,0:0:0:0:
329,154,25365,1,0,0:0:0:0:
190,269,25490,1,0,0:0:0:0:
344,307,25615,1,0,0:0:0:0:
244,184,25740,1,0,0:0:0:0:
269,329,25865,1,0,0:0:0:0:
435,219,25990,5,0,0:0:0:0:
264,111,26115,1,0,0:0:0:0:
293,253,26240,1,0,0:0:0:0:
370,72,26365,1,0,0:0:0:0:
150,117,26490,1,0,0:0:0:0:
280,181,26615,1,0,0:0:0:0:
208,45,26740,1,0,0:0:0:0:
181,223,26865,1,0,0:0:0:0:
295,111,26990,5,0,0:0:0:0:
129,47,27115,1,0,0:0:0:0:
96,204,27240,1,0,0:0:0:0:
239,51,27365,1,0,0:0:0:0:
34,0,27490,1,0,0:0:0:0:
169,153,27615,1,0,0:0:0:0:
182,1,27740,1,0,0:0:0:0:
75,89,27865,1,0,0:0:0:0:
186,289,27990,5,0,0:0:0:0:
434,199,28115,1,0,0:0:0:0:
148,375,28240,5,0,0:0:0:0:
260,136,28365,1,0,0:0:0:0:
354,367,28490,5,0,0:0:0:0:
115,255,28615,1,0,0:0:0:0:
432,99,28740,5,0,0:0:0:0:
193,211,28865,1,0,0:0:0:0:
450,293,28990,5,0,0:3:0:0:
338,54,29115,1,0,0:3:0:0:
222,384,29240,5,0,0:3:0:0:
311,135,29365,1,0,0:3:0:0:
35,136,29490,5,0,0:3:0:0:
284,225,29615,1,0,0:3:0:0:
459,81,29740,5,0,0:3:0:0:
210,170,29865,1,0,0:3:0:0:
512,278,29990,5,0,0:3:0:0:
406,310,30115,1,0,0:0:0:0:
424,204,30240,1,0,0:0:0:0:
474,347,30365,1,0,0:0:0:0:
332,241,30490,1,0,0:0:0:0:
512,181,30615,1,0,0:0:0:0:
455,281,30740,1,0,0:0:0:0:
399,178,30865,1,0,0:0:0:0:
512,278,30990,5,0,0:3:0:0:
388,342,31115,1,0,0:0:0:0:
397,210,31240,1,0,0:0:0:0:
491,382,31365,1,0,0:0:0:0:
295,290,31490,1,0,0:0:0:0:
440,258,31615,1,0,0:0:0:0:
377,364,31740,1,0,0:0:0:0:
309,191,31865,1,0,0:0:0:0:
512,278,31990,5,0,0:0:0:0:
367,384,32115,1,0,0:0:0:0:
291,153,32240,1,0,0:0:0:0:
441,330,32365,1,0,0:0:0:0:
243,323,32490,1,0,0:0:0:0:
400,185,32615,1,0,0:0:0:0:
296,375,32740,1,0,0:0:0:0:
154,230,32865,1,0,0:0:0:0:
339,287,32990,5,0,0:0:0:0:
142,359,33115,1,0,0:0:0:0:
155,118,33240,1,0,0:0:0:0:
243,323,33365,1,0,0:0:0:0:
59,290,33490,1,0,0:0:0:0:
247,195,33615,1,0,0:0:0:0:
162,328,33740,1,0,0:0:0:0:
81,189,33865,1,0,0:0:0:0:
422,245,33990,5,0,0:0:0:0:
248,108,34115,1,0,0:0:0:0:
356,324,34240,5,0,0:0:0:0:
329,104,34365,1,0,0:0:0:0:
257,321,34490,5,0,0:0:0:0:
393,146,34615,1,0,0:0:0:0:
196,245,34740,5,0,0:0:0:0:
415,217,34865,1,0,0:0:0:0:
160,108,34990,5,0,0:0:0:0:
334,245,35115,1,0,0:0:0:0:
226,29,35240,5,0,0:0:0:0:
253,249,35365,1,0,0:0:0:0:
325,32,35490,5,0,0:0:0:0:
189,207,35615,1,0,0:0:0:0:
388,106,35740,5,0,0:0:0:0:
