osu file format v14

[General]
AudioFilename: audio.mp3
AudioLeadIn: 0
PreviewTime: 136882
Countdown: 0
SampleSet: Soft
StackLeniency: 0.5
Mode: 0
LetterboxInBreaks: 0
WidescreenStoryboard: 1

[Editor]
Bookmarks: 235,19717,39209,58702,78194,87940,97686,107416,117179,135131,135150,135169,135188,135208,135227,135246,135265,135284,135303,135322,135341,135360,135379,135398,135417,135436,136654,146400,156128,156174,181257
DistanceSpacing: 0.5
BeatDivisor: 4
GridSize: 32
TimelineZoom: 2.4

[Metadata]
Title:prozac
TitleUnicode:prozac
Artist:brakence
ArtistUnicode:brakence
Creator:Mimari
Version:sing's punk
Source:
Tags:punk2 english hyper pop emo rap hyperpop glitchpop digicore trap jamesjan3 jamesjan riffy bakari hhjkl wetdog123 schoolboy komore mayflower i love ganyu sing
BeatmapID:3486043
BeatmapSetID:1573985

[Difficulty]
HPDrainRate:5
CircleSize:4
OverallDifficulty:8.4
ApproachRate:9
SliderMultiplier:1.97
SliderTickRate:1

[Events]
//Background and Video events
0,0,"i hate myself for it.jpeg",0,0
//Break Periods
//Storyboard Layer 0 (Background)
//Storyboard Layer 1 (Fail)
//Storyboard Layer 2 (Pass)
//Storyboard Layer 3 (Foreground)
//Storyboard Layer 4 (Overlay)
//Storyboard Sound Samples

[TimingPoints]
1806,304.568527918782,4,2,80,50,1,0
2719,-200,4,2,80,50,0,0
3937,-200,4,2,80,50,0,0
7516,-200,4,2,80,50,0,0
7592,-200,4,2,80,50,0,0
17338,-100,4,2,80,50,0,0
18557,-200,4,2,80,50,0,0
19775,-133.333333333333,4,2,80,50,0,0
20384,-200,4,2,80,50,0,0
20993,-200,4,2,13,45,0,0
21069,-200,4,2,13,30,0,0
21146,-200,4,2,13,15,0,0
21298,-200,4,2,30,60,0,0
21907,-133.333333333333,4,2,30,60,0,0
25638,-133.333333333333,4,2,13,45,0,0
25714,-133.333333333333,4,2,13,30,0,0
25790,-133.333333333333,4,2,13,15,0,0
25866,-133.333333333333,4,2,30,60,0,0
30740,-133.333333333333,4,2,13,60,0,0
30816,-133.333333333333,4,2,13,45,0,0
30892,-133.333333333333,4,2,13,30,0,0
30968,-133.333333333333,4,2,13,15,0,0
31044,-133.333333333333,4,2,30,60,0,0
35384,-133.333333333333,4,2,13,45,0,0
35460,-133.333333333333,4,2,13,30,0,0
35536,-133.333333333333,4,2,13,15,0,0
35613,-133.333333333333,4,2,30,60,0,0
40257,-133.333333333333,4,2,13,45,0,0
40333,-133.333333333333,4,2,13,30,0,0
40410,-133.333333333333,4,2,13,15,0,0
40486,-133.333333333333,4,2,30,60,0,0
40790,-80,4,2,12,60,0,0
43227,-100,4,2,13,60,0,0
45435,-100,4,2,13,45,0,0
45511,-100,4,2,13,30,0,0
45587,-100,4,2,13,15,0,0
45663,-100,4,2,12,60,0,0
48100,-100,4,2,13,60,0,0
50080,-100,4,2,13,45,0,0
50156,-100,4,2,13,30,0,0
50232,-100,4,2,13,15,0,0
50536,-100,4,2,12,60,0,0
52973,-100,4,2,13,60,0,0
55181,-100,4,2,13,45,0,0
55257,-100,4,2,13,30,0,0
55333,-100,4,2,13,15,0,0
55410,-100,4,2,12,60,0,0
57846,-100,4,2,13,60,0,0
59826,-100,4,2,13,45,0,0
59902,-100,4,2,13,30,0,0
59978,-100,4,2,13,15,0,0
60283,-100,4,2,12,60,0,0
60587,-133.333333333333,4,2,12,60,0,0
60930,-133.333333333333,4,2,12,60,0,0
61044,-80,4,2,12,60,0,0
62719,-80,4,2,13,60,0,0
64585,-80,4,2,13,60,0,0
64851,-80,4,2,13,60,0,0
64928,-80,4,2,13,45,0,0
65004,-80,4,2,13,30,0,0
65080,-80,4,2,13,15,0,0
65156,-80,4,2,12,60,0,0
67592,-80,4,2,13,60,0,0
69800,-80,4,2,13,45,0,0
69877,-80,4,2,13,30,0,0
69953,-80,4,2,13,15,0,0
70029,-80,4,2,12,60,0,0
72465,-80,4,2,13,60,0,0
74331,-80,4,2,13,60,0,0
74597,-80,4,2,13,60,0,0
74674,-80,4,2,13,45,0,0
74750,-80,4,2,13,30,0,0
74826,-80,4,2,13,15,0,0
74902,-80,4,2,12,60,0,0
77338,-80,4,2,13,60,0,0
78861,-133.333333333333,4,2,13,60,0,0
79166,-333.333333333333,4,2,1,60,0,0
79204,-333.333333333333,4,2,1,60,0,0
79242,-333.333333333333,4,2,1,5,0,0
79319,-333.333333333333,4,2,13,45,0,0
79395,-333.333333333333,4,2,13,30,0,0
79471,-333.333333333333,4,2,13,15,0,0
79775,-50,4,2,40,60,0,0
80308,-50,4,2,40,5,0,0
80384,-50,4,2,40,60,0,0
81222,-50,4,2,40,5,0,0
81298,-50,4,2,40,60,0,0
81602,-250,4,2,40,60,0,0
81907,-250,4,2,13,60,0,0
82212,-50,4,2,40,60,0,0
82745,-50,4,2,40,5,0,0
82821,-50,4,2,40,60,0,0
83658,-50,4,2,40,5,0,0
83734,-50,4,2,40,60,0,0
84077,-50,4,2,40,60,0,0
84115,-50,4,2,40,60,0,0
84344,-50,4,2,13,60,0,0
84420,-50,4,2,13,45,0,0
84496,-50,4,2,13,30,0,0
84572,-50,4,2,13,15,0,0
84648,-50,4,2,40,60,0,0
85181,-50,4,2,40,5,0,0
85257,-50,4,2,40,60,0,0
86095,-50,4,2,40,5,0,0
86171,-50,4,2,40,60,0,0
86476,-250,4,2,40,60,0,0
86780,-250,4,2,13,60,0,0
87085,-50,4,2,40,60,0,0
87618,-50,4,2,40,5,0,0
87694,-50,4,2,40,60,0,0
88531,-50,4,2,40,5,0,0
88608,-50,4,2,40,60,0,0
88912,-250,4,2,40,60,0,0
88950,-250,4,2,40,60,0,0
88988,-250,4,2,40,60,0,0
89217,-66.6666666666667,4,2,40,60,0,0
89293,-66.6666666666667,4,2,40,45,0,0
89369,-66.6666666666667,4,2,40,30,0,0
89445,-66.6666666666667,4,2,40,15,0,0
89521,-50,4,2,41,60,0,1
89826,-200,4,2,41,60,0,0
90435,-50,4,2,41,60,0,1
90740,-200,4,2,41,60,0,0
91273,-200,4,2,41,5,0,0
91349,-200,4,2,41,60,0,0
91958,-50,4,2,41,60,0,1
92567,-200,4,2,41,60,0,0
92871,-50,4,2,41,60,0,1
93176,-200,4,2,41,60,0,0
93481,-50,4,2,41,60,0,1
93709,-50,4,2,41,5,0,1
93785,-200,4,2,41,60,0,0
93823,-200,4,2,41,60,0,0
93861,-200,4,2,41,60,0,0
94090,-200,4,2,13,60,0,0
94166,-200,4,2,13,45,0,0
94242,-200,4,2,13,30,0,0
94318,-200,4,2,13,15,0,0
94394,-50,4,2,41,60,0,1
94699,-200,4,2,41,60,0,0
94927,-200,4,2,41,5,0,0
95003,-200,4,2,41,60,0,0
95308,-50,4,2,41,60,0,1
95613,-200,4,2,41,60,0,0
96146,-200,4,2,41,5,0,0
96222,-200,4,2,41,60,0,0
96831,-50,4,2,41,60,0,1
97440,-200,4,2,41,60,0,0
97745,-50,4,2,41,60,0,1
98049,-200,4,2,41,60,0,0
98354,-50,4,2,41,60,0,1
98658,-200,4,2,41,60,0,0
99267,-50,4,2,40,60,0,0
99572,-200,4,2,40,60,0,0
99648,-200,4,2,40,5,0,0
99724,-200,4,2,40,60,0,0
99800,-200,4,2,40,5,0,0
99877,-200,4,2,40,60,0,0
100562,-200,4,2,40,5,0,0
100638,-200,4,2,40,60,0,0
100714,-200,4,2,40,5,0,0
100790,-200,4,2,40,60,0,0
100866,-200,4,2,40,5,0,0
100943,-200,4,2,40,60,0,0
101704,-50,4,2,40,60,0,0
102085,-50,4,2,40,5,0,0
102161,-50,4,2,40,60,0,0
102237,-50,4,2,40,5,0,0
102313,-200,4,2,40,60,0,0
103151,-200,4,2,40,5,0,0
103227,-200,4,2,40,60,0,0
103569,-200,4,2,40,60,0,0
103608,-200,4,2,40,60,0,0
103836,-200,4,2,13,60,0,0
103912,-200,4,2,13,45,0,0
103988,-200,4,2,13,30,0,0
104064,-200,4,2,13,15,0,0
104141,-50,4,2,40,60,0,0
104445,-200,4,2,40,60,0,0
104521,-200,4,2,40,5,0,0
104597,-200,4,2,40,60,0,0
104674,-200,4,2,40,5,0,0
104750,-200,4,2,40,60,0,0
105435,-200,4,2,40,5,0,0
105511,-200,4,2,40,60,0,0
105587,-200,4,2,40,5,0,0
105663,-200,4,2,40,60,0,0
105740,-200,4,2,40,5,0,0
105816,-200,4,2,40,60,0,0
106577,-50,4,2,40,60,0,0
106958,-50,4,2,40,5,0,0
107034,-50,4,2,40,60,0,0
107110,-50,4,2,40,5,0,0
107186,-200,4,2,40,60,0,0
108024,-200,4,2,40,5,0,0
108100,-200,4,2,40,60,0,0
108709,-200,4,2,13,60,0,0
108785,-200,4,2,13,45,0,0
108861,-200,4,2,13,30,0,0
108937,-200,4,2,13,15,0,0
109014,-200,4,2,40,60,0,0
109623,-100,4,2,40,60,0,0
109927,-50,4,2,40,60,0,0
110232,-200,4,2,41,60,0,0
110308,-200,4,2,41,5,0,0
110384,-200,4,2,41,60,0,0
110460,-200,4,2,41,5,0,0
110536,-200,4,2,41,60,0,0
111450,-50,4,2,41,60,0,0
111831,-50,4,2,41,5,0,0
111907,-50,4,2,41,60,0,0
111983,-50,4,2,41,5,0,0
112059,-200,4,2,41,60,0,0
112745,-200,4,2,41,5,0,0
112821,-200,4,2,41,60,0,0
112897,-200,4,2,41,5,0,0
112973,-200,4,2,41,60,0,0
113316,-200,4,2,41,60,0,0
113354,-200,4,2,41,60,0,0
113582,-200,4,2,13,60,0,0
113658,-200,4,2,13,45,0,0
113734,-200,4,2,13,30,0,0
113811,-200,4,2,13,15,0,0
113887,-50,4,2,41,60,0,0
114267,-50,4,2,41,5,0,0
114344,-50,4,2,41,60,0,0
114420,-50,4,2,41,5,0,0
114496,-200,4,2,41,60,0,0
115181,-200,4,2,41,5,0,0
115257,-200,4,2,41,60,0,0
115333,-200,4,2,41,5,0,0
115410,-200,4,2,41,60,0,0
116323,-50,4,2,41,60,0,0
116704,-50,4,2,41,5,0,0
116780,-50,4,2,41,60,0,0
116856,-50,4,2,41,5,0,0
116932,-200,4,2,41,60,0,0
117542,-500,4,2,41,60,0,0
118760,-50,4,2,12,60,0,0
120663,-50,4,2,12,5,0,0
120892,-50,4,2,12,60,0,0
121196,-50,4,2,13,60,0,0
121577,-50,4,2,13,5,0,0
121653,-50,4,2,13,60,0,0
121729,-50,4,2,13,5,0,0
121806,-50,4,2,13,60,0,0
121844,-50,4,2,13,60,0,0
121882,-50,4,2,13,60,0,0
122491,-50,4,2,13,5,0,0
122567,-50,4,2,13,60,0,0
122643,-50,4,2,13,5,0,0
122719,-50,4,2,13,60,0,0
123405,-50,4,2,13,45,0,0
123481,-50,4,2,13,30,0,0
123557,-50,4,2,13,15,0,0
123633,-50,4,2,12,60,0,0
124014,-50,4,2,12,5,0,0
124090,-50,4,2,12,60,0,0
124166,-50,4,2,12,5,0,0
124242,-50,4,2,12,60,0,0
124623,-50,4,2,12,5,0,0
124699,-50,4,2,12,60,0,0
124775,-50,4,2,12,5,0,0
124851,-50,4,2,12,60,0,0
124927,-50,4,2,12,5,0,0
125003,-50,4,2,12,60,0,0
125080,-50,4,2,12,5,0,0
125156,-50,4,2,12,60,0,0
126069,-50,4,2,13,60,0,0
126450,-50,4,2,13,5,0,0
126526,-50,4,2,13,60,0,0
126602,-50,4,2,13,5,0,0
126679,-50,4,2,13,60,0,0
127364,-50,4,2,13,5,0,0
127440,-50,4,2,13,60,0,0
127516,-50,4,2,13,5,0,0
127592,-50,4,2,13,60,0,0
128050,-50,4,2,13,45,0,0
128126,-50,4,2,13,30,0,0
128202,-50,4,2,13,60,0,0
128278,-50,4,2,13,45,0,0
128354,-50,4,2,13,30,0,0
128430,-50,4,2,13,15,0,0
128506,-50,4,2,12,60,0,0
128887,-50,4,2,12,5,0,0
128963,-50,4,2,12,60,0,0
129039,-50,4,2,12,5,0,0
129115,-50,4,2,12,60,0,0
129800,-50,4,2,12,5,0,0
129877,-50,4,2,12,60,0,0
129953,-50,4,2,12,5,0,0
130029,-50,4,2,12,60,0,0
130943,-50,4,2,13,60,0,0
131323,-50,4,2,13,5,0,0
131399,-50,4,2,13,60,0,0
131476,-50,4,2,13,5,0,0
131552,-50,4,2,13,60,0,0
131932,-50,4,2,13,5,0,0
132009,-50,4,2,13,60,0,0
132085,-50,4,2,13,5,0,0
132161,-50,4,2,13,60,0,0
133151,-50,4,2,13,45,0,0
133227,-50,4,2,13,30,0,0
133303,-50,4,2,13,15,0,0
133379,-50,4,2,12,60,0,0
133455,-50,4,2,12,5,0,0
133531,-50,4,2,12,60,0,0
133608,-50,4,2,12,5,0,0
133684,-50,4,2,12,60,0,0
133760,-50,4,2,12,5,0,0
133836,-50,4,2,12,60,0,0
133912,-50,4,2,12,5,0,0
133988,-50,4,2,12,60,0,0
134674,-50,4,2,12,5,0,0
134750,-50,4,2,12,60,0,0
134826,-50,4,2,12,5,0,0
134902,-50,4,2,12,60,0,0
135816,-50,4,2,13,60,0,0
135892,-50,4,2,13,5,0,0
135968,-50,4,2,13,60,0,0
136044,-50,4,2,13,5,0,0
136120,-50,4,2,13,60,0,0
137491,-50,4,2,13,60,0,0
137643,-50,4,2,13,60,0,0
137796,-50,4,2,13,45,0,0
137871,-50,4,2,13,30,0,0
137948,-50,4,2,99,75,0,0
138252,-33.3333333333333,4,2,1,75,0,1
138328,-33.3333333333333,4,2,1,5,0,1
138404,-33.3333333333333,4,2,1,75,0,1
138481,-33.3333333333333,4,2,1,5,0,1
138557,-33.3333333333333,4,2,1,75,0,1
138633,-33.3333333333333,4,2,1,5,0,1
138709,-33.3333333333333,4,2,1,75,0,1
138785,-33.3333333333333,4,2,1,5,0,1
138861,-33.3333333333333,4,2,1,75,0,1
139547,-33.3333333333333,4,2,1,5,0,1
139623,-33.3333333333333,4,2,1,75,0,1
139699,-33.3333333333333,4,2,1,5,0,1
139775,-33.3333333333333,4,2,1,75,0,1
140003,-33.3333333333333,4,2,1,5,0,1
140080,-33.3333333333333,4,2,1,75,0,1
140156,-33.3333333333333,4,2,1,5,0,1
140232,-33.3333333333333,4,2,1,75,0,1
140308,-33.3333333333333,4,2,1,5,0,1
140384,-33.3333333333333,4,2,1,75,0,1
140765,-33.3333333333333,4,2,1,5,0,1
140841,-33.3333333333333,4,2,1,75,0,1
140917,-33.3333333333333,4,2,1,5,0,1
140993,-33.3333333333333,4,2,1,75,0,1
141526,-33.3333333333333,4,2,1,5,0,1
141602,-33.3333333333333,4,2,1,75,0,1
142440,-33.3333333333333,4,2,1,5,0,1
142516,-33.3333333333333,4,2,1,75,0,1
142592,-33.3333333333333,4,2,1,5,0,1
142668,-33.3333333333333,4,2,1,75,0,1
142745,-33.3333333333333,4,2,1,5,0,1
142821,-33.3333333333333,4,2,1,75,0,1
143201,-33.3333333333333,4,2,1,5,0,1
143278,-33.3333333333333,4,2,1,75,0,1
143354,-33.3333333333333,4,2,1,5,0,1
143430,-33.3333333333333,4,2,1,75,0,1
143963,-33.3333333333333,4,2,1,5,0,1
144039,-33.3333333333333,4,2,1,75,0,1
144115,-33.3333333333333,4,2,1,5,0,1
144191,-33.3333333333333,4,2,1,75,0,1
144267,-33.3333333333333,4,2,1,5,0,1
144344,-33.3333333333333,4,2,1,75,0,1
144572,-33.3333333333333,4,2,1,5,0,1
144648,-33.3333333333333,4,2,2,75,0,1
144877,-33.3333333333333,4,2,2,5,0,1
144953,-33.3333333333333,4,2,1,75,0,1
145029,-33.3333333333333,4,2,1,5,0,1
145105,-33.3333333333333,4,2,2,75,0,1
145181,-33.3333333333333,4,2,2,5,0,1
145257,-33.3333333333333,4,2,1,75,0,1
145638,-33.3333333333333,4,2,1,5,0,1
145714,-33.3333333333333,4,2,1,75,0,1
145790,-33.3333333333333,4,2,1,5,0,1
145866,-33.3333333333333,4,2,1,75,0,1
146399,-33.3333333333333,4,2,1,5,0,1
146476,-33.3333333333333,4,2,1,75,0,1
147085,-33.3333333333333,4,2,2,75,0,1
147313,-33.3333333333333,4,2,2,5,0,1
147389,-33.3333333333333,4,2,1,75,0,1
147465,-33.3333333333333,4,2,1,5,0,1
147542,-33.3333333333333,4,2,1,75,0,1
147618,-33.3333333333333,4,2,1,5,0,1
147694,-33.3333333333333,4,2,1,75,0,1
147770,-33.3333333333333,4,2,1,5,0,1
147846,-33.3333333333333,4,2,1,75,0,1
147998,-25,4,2,2,83,0,1
148227,-25,4,2,2,5,0,1
148303,-25,4,2,2,83,0,1
148379,-25,4,2,2,5,0,1
148455,-25,4,2,2,83,0,1
148836,-25,4,2,2,5,0,1
148912,-25,4,2,2,83,0,1
149141,-25,4,2,2,5,0,1
149217,-25,4,2,2,83,0,1
149293,-25,4,2,2,5,0,1
149369,-25,4,2,2,83,0,1
149597,-25,4,2,2,5,0,1
149674,-25,4,2,2,83,0,1
149750,-25,4,2,2,5,0,1
149826,-25,4,2,2,83,0,1
150359,-25,4,2,2,5,0,1
150397,-25,4,2,2,5,0,1
150435,-25,4,2,2,83,0,1
150663,-25,4,2,2,5,0,1
150740,-25,4,2,2,83,0,1
150816,-25,4,2,2,5,0,1
150892,-25,4,2,2,83,0,1
151425,-25,4,2,2,5,0,1
151501,-25,4,2,2,83,0,1
151577,-25,4,2,2,5,0,1
151653,-25,4,2,2,83,0,1
152186,-25,4,2,2,5,0,1
152262,-25,4,2,2,83,0,1
152338,-25,4,2,2,5,0,1
152415,-25,4,2,2,83,0,1
152529,-25,4,2,2,83,0,1
152567,-25,4,2,2,83,0,1
152795,-25,4,2,2,5,0,1
152871,-25,4,2,2,83,0,1
153252,-25,4,2,2,5,0,1
153328,-25,4,2,2,83,0,1
153404,-25,4,2,2,5,0,1
153481,-25,4,2,2,83,0,1
153861,-25,4,2,2,5,0,1
153937,-25,4,2,2,83,0,1
154014,-25,4,2,2,5,0,1
154090,-25,4,2,2,83,0,1
154166,-25,4,2,2,5,0,1
154242,-25,4,2,2,83,0,1
155232,-25,4,2,2,5,0,1
155308,-25,4,2,2,83,0,1
155689,-25,4,2,2,5,0,1
155765,-25,4,2,2,83,0,1
155841,-25,4,2,2,5,0,1
155917,-25,4,2,2,83,0,1
156146,-25,4,2,2,5,0,1
156222,-25,4,2,2,83,0,1
156298,-25,4,2,2,5,0,1
156374,-25,4,2,2,83,0,1
156450,-25,4,2,2,5,0,1
156526,-25,4,2,2,83,0,1
156602,-25,4,2,2,5,0,1
156679,-25,4,2,2,83,0,1
157212,-25,4,2,2,5,0,1
157440,-25,4,2,2,83,0,0
182852,-25,4,2,98,30,0,0

[Colours]
Combo1 : 219,129,68
Combo2 : 156,211,211
Combo3 : 204,165,138

[HitObjects]
214,366,1806,5,2,0:2:0:0:
202,291,1958,1,2,0:2:0:0:
306,281,2110,5,2,0:2:0:0:
294,356,2262,1,2,0:2:0:0:
24,159,2567,5,2,0:1:0:0:
77,103,2719,2,0,P|111:99|139:102,1,49.25,2|2,0:1|0:1,0:0:0:0:
173,167,3024,2,0,P|224:164|270:139,2,98.5,2|2|2,0:1|0:1|0:1,0:0:0:0:
324,199,3785,1,0,0:0:0:0:
293,68,3937,2,0,P|344:71|390:96,1,98.5,2|2,0:1|0:2,0:0:0:0:
445,38,4394,1,2,0:1:0:0:
464,117,4547,2,0,L|452:222,1,98.5,2|0,0:1|0:0,0:0:0:0:
462,347,5003,5,2,0:1:0:0:
383,358,5156,1,2,0:1:0:0:
305,369,5308,1,2,0:1:0:0:
324,199,5460,6,0,L|212:188,1,98.5,2|0,0:1|0:0,0:0:0:0:
252,279,5917,1,0,0:0:0:0:
252,279,6069,2,0,L|140:290,2,98.5,2|2|2,0:1|0:1|0:0,0:0:0:0:
145,202,6831,5,2,0:0:0:0:
154,123,6983,1,2,0:0:0:0:
133,199,7135,1,2,0:1:0:0:
64,144,7288,6,0,P|61:96|48:44,1,98.5,2|2,0:1|0:1,0:0:0:0:
225,189,7897,2,0,P|250:148|287:109,1,98.5,2|2,0:1|0:1,0:0:0:0:
162,241,8354,2,0,P|113:238|61:226,1,98.5,2|2,0:1|0:2,0:0:0:0:
238,269,8811,2,0,P|260:311|275:362,1,98.5,2|0,0:1|0:0,0:0:0:0:
356,338,9267,1,2,0:1:0:0:
356,338,9420,2,0,L|470:350,1,98.5,2|0,0:1|0:0,0:0:0:0:
512,130,9877,5,2,0:2:0:0:
437,140,10029,2,0,L|375:148,1,49.25,2|0,0:1|0:0,0:0:0:0:
424,48,10333,2,0,L|309:36,1,98.5,2|2,0:1|0:1,0:0:0:0:
488,203,10943,1,10,0:1:0:0:
278,103,11247,2,0,L|163:115,1,98.5,2|2,0:1|0:2,0:0:0:0:
109,152,11704,5,0,0:0:0:0:
97,74,11856,1,2,0:2:0:0:
36,125,12009,1,0,0:0:0:0:
183,190,12161,6,0,P|196:228|202:288,1,98.5,10|2,0:1|0:1,0:0:0:0:
362,103,12770,2,0,P|349:141|343:201,2,98.5,2|2|10,0:1|0:1|0:1,0:0:0:0:
407,278,13684,2,0,L|302:289,1,98.5,2|2,0:1|0:0,0:0:0:0:
263,350,14141,1,2,0:0:0:0:
258,186,14293,2,0,L|153:175,1,98.5,2|10,0:1|0:1,0:0:0:0:
97,362,14902,2,0,L|-8:373,1,98.5,2|0,0:1|0:0,0:0:0:0:
67,218,15511,6,0,P|54:168|27:108,1,98.5,2|10,0:1|0:1,0:0:0:0:
130,97,15968,1,0,0:0:0:0:
130,97,16120,2,0,P|143:47|170:-13,1,98.5,2|0,0:1|0:0,0:0:0:0:
429,191,16729,6,0,B|384:212|384:212|319:193,1,98.5,2|10,0:1|0:1,0:0:0:0:
0,220,17338,2,0,B|38:282|38:282|96:260|96:260|97:134|97:134|160:107|160:107|193:212|193:212|249:227|249:227|273:131,1,591,2|10,0:1|0:1,0:0:0:0:
510,214,18557,2,0,B|504:147|504:147|460:115|460:115|449:27,1,197,2|2,0:1|0:1,0:0:0:0:
450,40,19470,5,10,0:1:0:0:
374,84,19623,1,0,0:0:0:0:
304,37,19775,2,0,P|230:19|154:24,1,147.750005636215,2|0,0:1|0:0,0:0:0:0:
241,177,20384,6,0,P|287:193|351:197,1,98.5,2|2,0:1|0:1,0:0:0:0:
185,114,20993,2,0,L|160:116,4,16.4166666666667,8|0|0|0|0,1:3|0:0|0:0|0:0|0:0,0:0:0:0:
427,339,21450,5,2,0:2:0:0:
439,261,21602,1,2,0:2:0:0:
188,379,21907,6,0,L|177:291,1,73.8750028181077,8|0,0:0|0:0,0:0:0:0:
260,337,22212,1,0,3:0:0:0:
108,352,22364,1,2,0:2:0:0:
407,244,22516,5,2,0:2:0:0:
255,229,22668,1,2,0:2:0:0:
336,197,22821,2,0,L|326:270,1,73.8750028181077,2|0,0:2|0:0,0:0:0:0:
73,237,23125,6,0,P|28:240|-20:257,1,73.8750028181077,8|0,0:0|0:0,0:0:0:0:
0,247,23430,1,2,0:2:0:0:
246,63,23734,5,0,3:0:0:0:
317,107,23887,1,2,0:0:0:0:
370,44,24039,2,0,B|460:37|417:85|535:71,2,147.750005636215,2|8|0,0:0|0:0|3:0,0:0:0:0:
317,107,24800,5,2,0:2:0:0:
246,63,24953,1,2,0:2:0:0:
196,136,25105,1,2,0:2:0:0:
140,18,25257,2,0,L|130:108,1,73.8750028181077,0|0,3:0|0:0,0:0:0:0:
5,232,25562,6,0,L|-2:189,2,36.9375014090539,8|0|8,0:0|0:0|1:3,0:0:0:0:
75,201,25866,2,0,P|128:199|201:240,1,110.812504227162
240,307,26171,5,0,3:0:0:0:
230,153,26323,1,2,0:2:0:0:
197,231,26476,2,0,L|292:225,1,73.8750028181077,2|0,0:2|0:0,0:0:0:0:
462,180,26780,6,0,L|388:175,1,73.8750028181077,8|0,0:0|0:0,0:0:0:0:
418,255,27085,1,0,3:0:0:0:
428,101,27237,1,2,0:2:0:0:
220,137,27389,5,2,0:2:0:0:
209,60,27542,1,2,0:2:0:0:
147,111,27694,2,0,P|105:126|52:128,1,73.8750028181077,2|0,0:2|0:0,0:0:0:0:
291,200,27998,2,0,P|355:212|438:255,2,147.750005636215,8|2|0,0:0|0:2|3:0,0:0:0:0:
165,205,28760,5,2,0:0:0:0:
228,258,28912,2,0,P|162:291|90:306,1,147.750005636215,2|8,0:0|0:0,0:0:0:0:
90,306,29369,1,0,0:0:0:0:
7,339,29521,2,0,L|13:247,1,73.8750028181077,0|2,3:0|0:2,0:0:0:0:
291,200,29826,5,2,0:2:0:0:
299,117,29978,1,2,0:2:0:0:
388,175,30130,2,0,L|382:83,1,73.8750028181077,0|0,3:0|0:0,0:0:0:0:
127,35,30435,5,8,0:0:0:0:
467,139,30740,2,0,L|470:98,3,36.9375014090539,8|0|0|0,1:3|0:0|0:0|0:0,0:0:0:0:
429,34,31044,5,0,3:0:0:0:
429,34,31196,1,2,0:2:0:0:
409,201,31349,2,0,B|472:262|409:263|489:338,2,147.750005636215,2|8|0,0:2|0:0|3:0,0:0:0:0:
336,233,32110,1,2,0:2:0:0:
290,168,32262,2,0,P|241:183|210:202,1,73.8750028181077,2|0,0:2|0:0,0:0:0:0:
2,272,32567,2,0,P|51:287|82:306,1,73.8750028181077,2|0,0:2|0:0,0:0:0:0:
154,132,32871,1,8,0:0:0:0:
140,338,33024,1,0,0:0:0:0:
146,260,33176,2,0,L|154:133,1,110.812504227162,2|0,0:2|0:0,0:0:0:0:
64,41,33481,6,0,P|65:85|72:126,1,73.8750028181077,0|2,3:0|0:0,0:0:0:0:
242,194,33785,2,0,P|241:119|227:34,1,147.750005636215,2|8,0:0|0:0,0:0:0:0:
149,48,34242,1,0,0:0:0:0:
320,118,34394,1,0,3:0:0:0:
160,232,34547,1,2,0:2:0:0:
320,118,34699,5,2,0:2:0:0:
149,48,34851,1,2,0:2:0:0:
242,194,35003,1,0,3:0:0:0:
500,97,35308,2,0,L|461:90,4,24.6250009393692,8|0|0|8|0,0:0|0:0|0:0|1:3|0:0,0:0:0:0:
395,63,35613,2,0,L|400:160,1,73.8750028181077
146,327,35917,5,0,3:0:0:0:
153,251,36069,1,2,0:2:0:0:
235,362,36222,2,0,B|231:304|231:304|251:277|251:277|247:210,2,147.750005636215,2|8|0,0:2|0:0|3:0,0:0:0:0:
318,331,36983,5,2,0:2:0:0:
330,251,37135,2,0,P|368:258|407:262,1,73.8750028181077,2|2,0:2|0:2,0:0:0:0:
146,327,37440,2,0,P|108:320|-15:317,1,147.750005636215,2|8,0:2|0:0,0:0:0:0:
0,315,37897,1,0,0:0:0:0:
12,236,38049,1,2,0:2:0:0:
396,115,38354,6,0,P|415:165|421:204,1,73.8750028181077,0|2,3:0|0:0,0:0:0:0:
422,372,38658,2,0,P|430:336|484:234,2,147.750005636215,2|8|0,0:0|0:0|3:0,0:0:0:0:
355,316,39420,1,2,0:2:0:0:
286,361,39572,2,0,L|201:349,1,73.8750028181077,2|2,0:2|0:2,0:0:0:0:
296,167,39877,1,0,3:0:0:0:
306,245,40029,1,0,0:0:0:0:
128,343,40181,2,0,L|130:367,4,24.6250009393692,8|0|0|8|0,0:0|0:0|0:0|1:3|0:0,0:0:0:0:
46,364,40486,2,0,P|43:323|27:238,1,110.812504227162
24,233,40790,6,0,B|65:192|65:192|116:207|116:207|140:263|140:263|208:276|208:276|211:157|211:157|256:127|256:127|311:186,1,492.5,4|0,3:0|0:0,0:0:0:0:
461,284,41704,2,0,B|434:321|434:321|338:360|338:360|376:229|376:229|476:190|476:190|509:66|509:66|406:97|406:97|382:144,1,677.1875,6|0,3:1|0:0,0:0:0:0:
367,142,42618,5,10,0:0:0:0:
145,126,42922,1,2,0:0:0:0:
145,126,43227,5,4,3:0:0:0:
256,134,43379,1,8,0:3:0:0:
367,142,43531,2,0,P|375:92|375:29,1,98.5,2|8,0:0|0:3,0:0:0:0:
145,126,43836,2,0,P|133:194|127:311,1,147.75,10|0,0:0|0:0,0:0:0:0:
26,277,44141,6,0,B|96:282|96:282|129:327|129:327|232:340,1,197,6|2,3:1|0:0,0:0:0:0:
55,360,44597,1,8,0:3:0:0:
439,164,44750,2,0,B|369:169|369:169|336:214|336:214|233:227,1,197,6|10,3:1|0:0,0:0:0:0:
265,222,45359,2,0,L|262:183,3,32.8333333333333,8|0|0|8,1:3|0:0|0:0|1:3,0:0:0:0:
58,26,45663,5,6,3:0:0:0:
80,165,45816,1,8,0:3:0:0:
55,360,45968,2,0,P|58:308|73:254,1,98.5,2|8,0:0|0:3,0:0:0:0:
125,90,46273,1,10,0:0:0:0:
125,90,46577,2,0,B|217:89|178:51|281:51,1,147.75,6|0,3:1|0:0,0:0:0:0:
280,48,46882,5,2,0:0:0:0:
300,128,47034,1,8,0:3:0:0:
80,165,47338,2,0,L|65:294,1,98.5,0|10,0:0|0:0,0:0:0:0:
364,70,47795,1,2,0:0:0:0:
175,331,48100,5,4,3:0:0:0:
329,344,48252,1,8,0:3:0:0:
482,358,48404,2,0,B|478:285|478:285|436:258|436:258|427:170,1,197,2|10,0:0|0:0,0:0:0:0:
68,262,49014,2,0,B|111:242|111:242|119:138,1,147.75,6|0,3:1|0:0,0:0:0:0:
109,134,49318,5,2,0:0:0:0:
199,111,49470,1,8,0:3:0:0:
190,333,49623,2,0,B|259:364|259:364|348:338,1,147.75,6|0,3:1|0:0,0:0:0:0:
404,312,49927,2,0,L|408:352,3,32.8333333333333,10|0|0|0,0:0|0:0|0:0|0:0,0:0:0:0:
498,379,50232,2,0,P|492:308|491:201,1,147.75,2|0,1:2|0:0,0:0:0:0:
500,213,50536,5,6,3:0:0:0:
401,201,50689,1,8,0:3:0:0:
303,190,50841,2,0,P|307:134|311:71,1,98.5,2|8,0:0|0:3,0:0:0:0:
490,231,51146,2,0,P|486:287|482:350,1,98.5,10|0,0:0|0:0,0:0:0:0:
237,247,51450,2,0,B|146:241|190:286|61:271,1,147.75,6|0,3:1|0:0,0:0:0:0:
81,285,51755,5,2,0:0:0:0:
54,205,51907,1,8,0:3:0:0:
3,267,52059,1,2,0:0:0:0:
395,299,52364,2,0,L|402:179,1,98.5,10|0,0:0|0:0,0:0:0:0:
485,196,52668,2,0,L|479:294,1,98.5,2|0,0:0|0:0,0:0:0:0:
2,50,52973,6,0,B|49:39|49:39|110:67,1,98.5,4|8,3:0|0:3,0:0:0:0:
41,122,53278,1,2,0:0:0:0:
218,34,53430,1,8,0:3:0:0:
256,105,53583,2,0,B|209:116|209:116|163:95,1,98.5,10|0,0:0|0:0,0:0:0:0:
298,176,53887,6,0,B|370:168|370:168|412:200|412:200|513:194,1,197,6|2,3:1|0:0,0:0:0:0:
438,118,54344,1,8,0:3:0:0:
267,265,54496,2,0,B|194:257|194:257|153:289|153:289|51:283,1,197,6|10,3:1|0:0,0:0:0:0:
218,339,55105,2,0,L|222:374,3,32.8333333333333,8|0|0|8,1:3|0:0|0:0|1:3,0:0:0:0:
353,90,55410,5,4,3:0:0:0:
364,188,55562,1,8,0:3:0:0:
375,286,55714,2,0,P|427:276|504:271,1,98.5,2|8,0:0|0:3,0:0:0:0:
353,90,56019,2,0,P|301:100|224:105,1,98.5,10|0,0:0|0:0,0:0:0:0:
305,357,56323,6,0,B|180:327|180:327|104:363,1,197,6|2,3:1|0:0,0:0:0:0:
108,265,56780,1,8,0:3:0:0:
38,382,56932,2,0,B|17:337|17:337|29:265,1,98.5
106,171,57237,5,10,0:0:0:0:
406,213,57542,1,2,0:0:0:0:
406,213,57846,6,0,B|420:164|420:164|396:94,1,98.5,6|0,3:0|0:0,0:0:0:0:
106,171,58151,2,0,B|92:220|92:220|116:290,1,98.5,2|8,0:0|0:3,0:0:0:0:
251,74,58455,1,10,0:0:0:0:
259,295,58760,6,0,L|251:73,1,197,6|2,3:1|0:0,0:0:0:0:
341,259,59217,1,8,0:3:0:0:
343,66,59369,2,0,L|336:179,1,98.5,6|2,3:1|0:0,0:0:0:0:
164,106,59674,1,8,0:0:0:0:
200,356,60587,6,0,L|122:351,1,73.8750028181077
440,289,60892,1,8,0:0:0:0:
440,289,61044,6,0,B|447:262|447:262|435:220,1,61.5625,2|0,0:0|0:0,0:0:0:0:
357,211,61196,2,0,L|364:360,1,123.125,6|2,3:1|0:0,0:0:0:0:
109,45,61501,5,2,0:0:0:0:
102,130,61653,1,8,0:3:0:0:
95,216,61806,2,0,B|151:248|151:248|245:233,1,123.125,10|0,0:3|0:0,0:0:0:0:
403,45,62110,1,10,0:0:0:0:
403,45,62415,2,0,B|347:13|347:13|253:28,1,123.125,10|0,0:3|0:0,0:0:0:0:
102,130,62719,5,6,3:0:0:0:
188,95,62871,1,8,0:3:0:0:
417,216,63024,1,2,0:0:0:0:
331,251,63176,1,10,0:3:0:0:
504,75,63328,1,10,0:0:0:0:
493,273,63481,5,2,0:0:0:0:
404,301,63633,2,0,B|281:307|281:307|206:249,1,184.6875,6|0,3:1|0:0,0:0:0:0:
188,340,63937,5,2,0:0:0:0:
324,44,64090,1,8,0:3:0:0:
108,83,64242,2,0,B|231:77|231:77|306:135,1,184.6875,6|0,3:1|0:0,0:0:0:0:
154,262,64547,5,10,0:0:0:0:
29,49,64851,2,0,L|23:97,3,41.0416666666667,8|0|0|8,1:3|0:0|0:0|1:3,0:0:0:0:
60,159,65156,5,6,3:0:0:0:
71,244,65308,1,8,0:3:0:0:
83,329,65460,1,2,0:0:0:0:
279,114,65613,1,10,0:3:0:0:
267,313,65765,2,0,L|275:180,1,123.125,10|0,0:0|0:0,0:0:0:0:
449,27,66069,6,0,B|423:26|384:9|384:9|337:56|337:56|292:30|292:30|259:42|203:45,1,246.25,6|10,3:1|0:3,0:0:0:0:
404,101,66526,1,8,0:3:0:0:
161,0,66679,2,0,B|143:47|143:47|176:141,1,123.125,10|0,0:3|0:0,0:0:0:0:
442,181,66983,5,8,0:0:0:0:
70,203,67288,1,2,0:0:0:0:
70,203,67592,6,0,L|198:217,1,123.125,6|0,3:0|0:0,0:0:0:0:
442,181,67897,2,0,L|314:167,1,123.125,2|8,0:0|0:3,0:0:0:0:
177,371,68201,1,10,0:0:0:0:
177,371,68506,6,0,B|232:350|232:350|209:186,1,184.6875,6|0,3:1|0:0,0:0:0:0:
323,143,68811,5,2,0:0:0:0:
74,222,68963,1,8,0:3:0:0:
463,197,69115,2,0,B|398:196|398:196|356:229|356:229|286:229,1,184.6875,6|0,3:1|0:0,0:0:0:0:
214,225,69420,1,10,0:0:0:0:
83,52,69724,6,0,L|89:0,3,41.0416666666667,8|0|0|8,1:3|0:0|0:0|1:3,0:0:0:0:
74,222,70029,6,0,B|50:347|50:347|11:270,1,184.6875,6|0,3:0|0:0,0:0:0:0:
17,285,70333,1,2,0:0:0:0:
150,268,70486,1,8,0:3:0:0:
27,147,70638,2,0,B|87:132|87:132|157:172,1,123.125,10|0,0:0|0:0,0:0:0:0:
304,317,70943,6,0,B|345:315|345:315|364:299|364:299|400:326|400:326|421:310|421:310|472:306,1,184.6875,6|0,3:1|0:0,0:0:0:0:
480,315,71247,1,2,0:0:0:0:
494,226,71399,1,8,0:3:0:0:
245,381,71552,2,0,B|217:343|217:343|233:250,1,123.125,2|0,0:0|0:0,0:0:0:0:
404,187,71856,5,10,0:0:0:0:
108,197,72161,1,2,0:0:0:0:
108,197,72465,5,4,3:0:0:0:
256,192,72618,1,8,0:3:0:0:
404,187,72770,1,2,0:0:0:0:
380,105,72922,1,8,0:3:0:0:
363,256,73075,2,0,L|348:384,1,123.125,10|0,0:0|0:0,0:0:0:0:
374,93,73379,2,0,B|306:85|306:85|263:112|263:112|178:105,1,184.6875,6|0,3:1|0:0,0:0:0:0:
19,90,73684,5,8,0:3:0:0:
19,90,73836,1,0,0:0:0:0:
88,30,73988,2,0,B|117:68|117:68|101:169,1,123.125,6|0,3:1|0:0,0:0:0:0:
60,350,74293,1,10,0:0:0:0:
438,262,74597,6,0,L|444:308,3,41.0416666666667,8|0|0|8,1:3|0:0|0:0|1:3,0:0:0:0:
60,350,74902,5,4,3:0:0:0:
49,200,75054,1,8,0:3:0:0:
144,314,75207,1,2,0:0:0:0:
0,278,75359,1,8,0:3:0:0:
138,223,75511,1,10,0:0:0:0:
438,262,75816,6,0,B|328:222|328:222|260:258,1,184.6875,6|0,3:1|0:0,0:0:0:0:
259,266,76120,1,8,0:3:0:0:
244,155,76273,1,8,0:3:0:0:
230,45,76425,1,2,0:0:0:0:
411,351,76729,5,10,0:0:0:0:
440,130,77034,1,2,0:0:0:0:
33,62,77338,5,4,3:0:0:0:
49,200,77491,1,8,0:3:0:0:
134,117,77643,5,2,0:0:0:0:
118,255,77796,1,8,0:3:0:0:
373,84,77948,5,10,0:0:0:0:
168,324,78252,6,0,P|239:363|363:328,1,184.6875,6|0,3:1|0:0,0:0:0:0:
402,301,78557,1,2,0:0:0:0:
402,301,78861,6,0,L|486:307,1,73.875,6|0,3:1|0:0,0:0:0:0:
277,147,79166,6,0,L|179:158,1,88.6499972946168,8|0,0:0|0:0,0:0:0:0:
17,47,79775,6,0,B|71:25|71:25|120:72|120:72|210:81,1,197,2|0,3:2|0:0,0:0:0:0:
190,79,80232,2,0,B|174:64|174:64|102:121,1,98.5,2|0,0:1|0:0,0:0:0:0:
11,358,80384,1,8,0:0:0:0:
11,358,80689,6,0,B|137:334|137:334|169:302|169:302|401:342,1,394,2|0,3:2|0:0,0:0:0:0:
386,339,81146,2,0,B|415:318|415:318|236:338,1,197,2|8,0:1|0:3,0:0:0:0:
479,271,81450,6,0,B|502:262|502:262|389:228,1,98.5,2|0,0:1|0:0,0:0:0:0:
113,111,81602,2,0,L|125:199,1,78.8,8|2,0:1|0:0,0:0:0:0:
123,189,82212,6,0,B|91:225|91:225|204:200|204:200|214:110|214:110|328:25|328:25|303:131,1,492.5,2|0,3:2|0:0,0:0:0:0:
300,136,82668,2,0,B|310:170|310:170|298:193|298:193|312:266,1,98.5,2|0,0:1|0:0,0:0:0:0:
496,353,82821,1,8,0:0:0:0:
496,353,83125,6,0,B|435:366|435:366|393:293|393:293|433:247|433:247|451:85|451:85|432:102,1,394,2|0,3:2|0:0,0:0:0:0:
433,100,83582,2,0,B|430:113|430:113|456:164|456:164|402:200,1,98.5,2|0,0:1|0:0,0:0:0:0:
329,335,83734,5,8,3:0:0:0:
316,2,83887,2,0,B|319:14|319:14|367:45|367:45|338:103,1,98.5,2|0,0:1|0:0,0:0:0:0:
253,354,84039,2,0,B|-8:375|-8:375|46:337,1,295.5,8|0,0:1|0:0,0:0:0:0:
68,287,84344,6,0,B|66:258|66:258|58:245|58:245|55:210,3,65.6666666666667,8|0|0|8,1:3|0:0|0:0|1:3,0:0:0:0:
438,218,84648,6,0,B|389:229|389:229|383:163|383:163|443:87,1,197,2|0,3:2|0:0,0:0:0:0:
432,99,85105,2,0,B|432:121|432:121|401:122|401:122|347:91,1,98.5,2|0,0:1|0:0,0:0:0:0:
42,22,85257,1,8,0:0:0:0:
42,22,85562,6,0,B|67:84|67:84|178:77|178:77|211:29|211:29|278:116|278:116|238:194,1,394,2|0,3:2|0:0,0:0:0:0:
256,158,86019,2,0,B|205:165|205:165|35:96,1,197,2|8,0:1|0:3,0:0:0:0:
311,223,86323,6,0,B|274:246|274:246|184:242,1,98.5,2|0,0:1|0:0,0:0:0:0:
454,99,86476,2,0,L|484:184,1,78.8,8|2,0:1|0:0,0:0:0:0:
480,173,87085,6,0,B|464:230|464:230|432:223|432:223|317:352|317:352|83:360,1,492.5,2|0,3:2|0:0,0:0:0:0:
77,353,87542,2,0,B|40:330|40:330|48:248,1,98.5,2|0,0:1|0:0,0:0:0:0:
346,136,87694,1,8,0:0:0:0:
346,136,87998,6,0,B|326:179|326:179|280:176|280:176|241:237|241:237|77:205|77:205|62:123,1,394,2|0,3:2|0:0,0:0:0:0:
66,145,88455,2,0,B|104:144|104:144|142:200,1,98.5,2|0,0:1|0:0,0:0:0:0:
441,363,88608,5,8,3:0:0:0:
190,247,88760,2,0,B|228:263|228:263|294:227,1,98.5,2|0,0:1|0:0,0:0:0:0:
346,136,88912,6,0,L|353:65,1,59.1,8|0,0:1|0:0,0:0:0:0:
369,83,89217,6,0,L|427:76,3,49.2500018787385,8|0|0|8,1:3|0:0|0:0|1:3,0:0:0:0:
143,45,89521,6,0,B|109:29|109:29|123:119|123:119|174:134|174:134|191:257,1,295.5,0|0,3:0|0:0,0:0:0:0:
172,258,89826,6,0,L|167:308,1,49.25,2|0,0:0|0:0,0:0:0:0:
512,322,90130,1,10,0:0:0:0:
189,246,90435,6,0,B|240:301|240:301|323:285|323:285|412:333|412:333|349:326,1,295.5,2|0,3:2|0:0,0:0:0:0:
366,346,90740,6,0,L|328:386,1,49.25,2|0,0:0|0:0,0:0:0:0:
333,263,91044,1,2,0:0:0:0:
333,263,91196,2,0,L|316:240,1,24.625
97,225,91349,6,0,B|72:264|72:264|74:327,1,98.5,8|2,0:1|0:0,0:0:0:0:
377,329,91958,6,0,B|434:281|434:281|411:158|411:158|456:99|456:99|479:139|479:139|256:55|256:55|337:192,1,689.5,0|0,3:0|0:0,0:0:0:0:
201,364,92567,6,0,L|141:355,1,49.25,10|0,0:0|0:0,0:0:0:0:
322,166,92871,6,0,B|293:199|293:199|-21:160,1,295.5,2|0,3:2|0:0,0:0:0:0:
199,19,93176,6,0,B|220:50|220:50|206:97,1,73.875,2|0,0:0|0:0,0:0:0:0:
43,167,93481,6,0,B|47:12|47:12|135:148,1,295.5,2|0,3:2|0:0,0:0:0:0:
69,372,93785,5,8,0:1:0:0:
293,348,94090,2,0,L|310:338,3,16.4166666666667,8|0|0|8,1:3|0:0|0:0|1:3,0:0:0:0:
123,129,94394,6,0,B|155:190|155:190|147:225|147:225|280:207|280:207|371:254,1,295.5,0|0,3:0|0:0,0:0:0:0:
346,244,94699,6,0,L|352:278,1,24.625,10|0,0:3|0:0,0:0:0:0:
385,339,94851,2,0,L|391:373,1,24.625,2|0,0:0|0:0,0:0:0:0:
130,306,95003,1,10,0:0:0:0:
330,232,95308,6,0,B|485:199|485:199|499:31,1,295.5,0|0,3:2|0:0,0:0:0:0:
424,18,95613,5,0,0:0:0:0:
424,18,95765,2,0,L|408:79,1,49.25,2|2,0:0|0:0,0:0:0:0:
427,242,96069,2,0,L|415:214,1,24.625,2|0,0:0|0:0,0:0:0:0:
247,46,96222,2,0,L|134:34,1,98.5,8|2,0:1|0:0,0:0:0:0:
496,62,96831,6,0,B|464:227|464:227|478:327|478:327|447:311|447:311|127:353|127:353|63:308,1,689.5,0|0,3:0|0:0,0:0:0:0:
20,74,97440,5,10,0:0:0:0:
75,316,97745,6,0,B|49:272|49:272|291:322|291:322|241:218,1,394,2|2,3:2|0:0,0:0:0:0:
249,235,98201,6,0,L|254:188,1,24.625,2|0,0:0|0:0,0:0:0:0:
336,287,98354,6,0,B|300:347|300:347|158:285|158:285|157:159,1,295.5,2|0,3:2|0:0,0:0:0:0:
118,4,98658,6,0,L|105:18,3,16.4166666666667,8|0|0|0,0:1|0:0|0:0|0:0,0:0:0:0:
505,34,99267,6,0,B|440:65|440:65|384:45,1,98.5,2|0,3:2|0:0,0:0:0:0:
279,82,99420,2,0,B|214:51|214:51|158:71,1,98.5
41,66,99572,2,0,L|20:81,1,24.625,8|0,0:3|0:0,0:0:0:0:
117,94,99724,6,0,L|122:126,1,24.625,2|0,0:1|0:0,0:0:0:0:
198,372,99877,1,8,0:0:0:0:
360,94,100181,6,0,L|348:18,1,73.875,2|0,3:2|0:0,0:0:0:0:
361,14,100486,6,0,L|396:24,1,24.625
319,179,100638,2,0,L|354:189,1,24.625,2|0,0:1|0:0,0:0:0:0:
277,344,100790,2,0,L|312:354,1,24.625,8|0,0:3|0:0,0:0:0:0:
251,264,100943,6,0,L|240:233,1,24.625,2|0,0:1|0:0,0:0:0:0:
133,8,101095,2,0,B|102:45|102:45|121:108,1,98.5,8|2,0:1|0:0,0:0:0:0:
111,109,101704,6,0,B|95:126|95:126|-4:133,1,98.5,2|0,3:2|0:0,0:0:0:0:
272,162,101856,2,0,B|266:139|266:139|184:83,1,98.5
402,169,102009,2,0,B|378:171|378:171|314:247,1,98.5,8|0,0:3|0:0,0:0:0:0:
453,7,102161,2,0,B|468:24|468:24|464:123,1,98.5,2|0,0:1|0:0,0:0:0:0:
326,357,102313,5,8,0:0:0:0:
326,357,102618,2,0,L|232:343,1,73.875,2|0,3:2|0:0,0:0:0:0:
28,353,102922,6,0,L|14:325,1,24.625
39,349,103075,2,0,L|38:324,1,24.625,2|0,0:1|0:0,0:0:0:0:
121,371,103227,1,8,3:0:0:0:
40,46,103531,5,8,0:1:0:0:
136,289,103836,6,0,L|139:268,3,16.4166666666667,8|0|0|8,1:3|0:0|0:0|1:3,0:0:0:0:
58,235,104141,6,0,B|69:167|69:167|103:138,1,98.5,2|0,3:2|0:0,0:0:0:0:
189,0,104293,2,0,B|143:52|143:52|143:96,1,98.5
208,338,104445,2,0,L|240:339,1,24.625,8|0,0:3|0:0,0:0:0:0:
219,252,104597,6,0,L|216:220,1,24.625,2|0,0:1|0:0,0:0:0:0:
281,21,104750,1,8,0:0:0:0:
320,374,105054,6,0,L|310:296,1,73.875,2|0,3:2|0:0,0:0:0:0:
319,287,105359,6,0,L|355:291,1,24.625
251,145,105511,2,0,L|287:141,1,24.625,2|0,0:1|0:0,0:0:0:0:
148,25,105663,2,0,L|181:11,1,24.625,8|0,0:3|0:0,0:0:0:0:
191,91,105816,6,0,L|179:119,1,24.625,2|0,0:1|0:0,0:0:0:0:
16,328,105968,2,0,B|45:365|45:365|115:371,1,98.5,8|2,0:1|0:0,0:0:0:0:
96,369,106577,6,0,B|108:356|108:356|95:245,1,98.5,2|0,3:2|0:0,0:0:0:0:
13,161,106729,2,0,B|29:154|29:154|128:206,1,98.5
176,276,106882,2,0,B|192:270|192:270|237:168,1,98.5,8|0,0:3|0:0,0:0:0:0:
157,122,107034,2,0,B|167:108|167:108|279:103,1,98.5,2|0,0:1|0:0,0:0:0:0:
447,34,107186,5,8,0:0:0:0:
447,34,107491,2,0,L|422:120,1,73.875,2|0,3:2|0:0,0:0:0:0:
446,327,107795,6,0,L|468:357,1,24.625,8|0,0:3|0:0,0:0:0:0:
435,336,107948,2,0,L|435:366,1,24.625,2|0,0:1|0:0,0:0:0:0:
399,260,108100,1,8,3:0:0:0:
98,275,108404,6,0,L|106:219,1,49.25,8|0,0:1|0:0,0:0:0:0:
16,35,109014,5,0,0:0:0:0:
16,35,109166,1,8,0:3:0:0:
16,35,109318,1,8,0:3:0:0:
16,35,109470,1,8,0:3:0:0:
69,100,109623,6,0,B|61:115|61:115|78:96|78:96|74:103|74:103|87:86|87:86|86:91|86:91|93:72|93:72|94:79|94:79|96:55|96:55|98:61|98:61|101:27,1,147.75,8|0,3:2|0:0,0:0:0:0:
173,12,109927,6,0,B|190:152|190:152|181:160|181:160|203:329,1,295.5,0|0,3:0|0:0,0:0:0:0:
190,314,110232,6,0,L|160:313,1,24.625,2|0,0:0|0:0,0:0:0:0:
296,337,110384,2,0,L|266:338,1,24.625
401,327,110536,2,0,L|371:326,1,24.625
24,368,110841,6,0,B|5:349|5:349|17:268,1,98.5,10|2,0:1|0:0,0:0:0:0:
401,327,111450,6,0,B|426:238|426:238|421:218,1,98.5,0|0,3:0|0:0,0:0:0:0:
512,208,111602,2,0,B|447:141|447:141|427:136,1,98.5
337,240,111755,2,0,B|277:168|277:168|274:148,1,98.5,2|0,0:0|0:0,0:0:0:0:
187,176,111907,2,0,B|219:89|219:89|234:76,1,98.5
506,67,112059,5,10,0:0:0:0:
296,337,112364,6,0,L|191:347,1,98.5,2|2,3:2|0:0,0:0:0:0:
128,376,112821,2,0,L|117:343,1,24.625
246,258,112973,1,2,3:2:0:0:
42,364,113125,2,0,L|36:333,1,24.625
69,100,113278,5,10,0:1:0:0:
382,343,113582,6,0,L|388:365,3,16.4166666666667,8|0|0|8,1:3|0:0|0:0|1:3,0:0:0:0:
464,363,113887,6,0,B|496:326|496:326|487:233,1,98.5,0|0,3:0|0:0,0:0:0:0:
338,230,114039,2,0,B|306:267|306:267|315:360,1,98.5
424,233,114191,2,0,B|456:196|456:196|447:103,1,98.5,2|0,0:0|0:0,0:0:0:0:
258,207,114344,2,0,B|221:175|221:175|128:184,1,98.5
23,170,114496,5,10,0:0:0:0:
327,55,114800,6,0,L|314:167,1,98.5,2|2,3:2|0:0,0:0:0:0:
403,90,115257,2,0,L|438:82,1,24.625
330,32,115410,1,2,0:0:0:0:
235,132,115562,2,0,L|200:124,1,24.625
0,95,115714,5,10,0:1:0:0:
244,46,116019,1,2,0:0:0:0:
0,95,116323,6,0,B|26:125|26:125|48:199,1,98.5,0|0,3:0|0:0,0:0:0:0:
88,69,116476,2,0,B|125:56|125:56|181:2,1,98.5
182,240,116628,2,0,B|196:277|196:277|191:354,1,98.5,2|0,0:0|0:0,0:0:0:0:
244,46,116780,2,0,B|282:90|282:90|293:128,1,98.5
262,372,116932,5,10,0:0:0:0:
103,262,117237,6,0,B|59:237|59:237|14:251,1,98.5,2|2,3:2|0:0,0:0:0:0:
14,251,118760,6,0,B|17:258|17:258|18:255|18:255|20:256|20:256|22:251|22:251|23:258|23:258|25:252|25:252|26:257|26:257|28:254|28:254|29:256|29:256|30:253|30:253|31:257|31:257|32:254|32:254|33:257|33:257|33:250|33:250|36:257|36:257|36:254|36:254|38:255|38:255|40:251|40:251|40:258|40:258|42:254|42:254|42:256|42:256|46:254|46:254|43:258|43:258|48:254|48:254|47:257|47:257|48:254|48:254|49:259|49:259|51:251|51:251|51:257|51:257|53:255|53:255|53:259|53:259|57:252|57:252|55:259|55:259|57:256|57:256|57:259|57:259|60:255|60:255|59:263|59:263|63:256|63:256|63:259|63:259|65:255|65:255|65:266|65:266|68:258|68:258|68:263|68:263|71:256|71:256|68:267|68:267|72:261|72:261|71:265|71:265|77:257|77:257|74:267|74:267|77:260|77:260|75:273|75:273|79:264|79:264|79:269|79:269|82:261|82:261|82:269|82:269|83:258|83:258|85:269|85:269|89:260|89:260|90:265|90:265|94:258|94:258|93:267|93:267|98:262|98:262|95:270|95:270|98:264|98:264|99:269|99:269|101:262|101:262|101:271|101:271|103:267|103:267|107:270|107:270|105:261|105:261|107:273|107:273|111:264|111:264|110:270|110:270|114:264|114:264|111:272|111:272|113:262|113:262|113:270|113:270|118:264|118:264|117:272|117:272|122:265|122:265|119:275|119:275|123:261|123:261|122:270|122:270|127:264|127:264|126:272|126:272|132:264|132:264|128:272|128:272|132:267|132:267|132:275|132:275|223:294|223:294|282:413,1,788,4|8,0:3|0:0,0:0:0:0:
496,233,119674,6,0,B|497:242|497:242|476:235|476:235|482:239|482:239|465:232|465:232|467:237|467:237|453:225|453:225|453:232|453:232|444:216|444:216|443:219|443:219|439:205|439:205|437:207|437:207|437:196|437:196|432:200|432:200|435:184|435:184|428:190|428:190|431:178|431:178|421:184|421:184|422:179|422:179|418:191|418:191|415:188|415:188|416:199|416:199|412:194|412:194|418:210|418:210|409:202|409:202|418:215|418:215|409:212|409:212|419:221|419:221|410:218|410:218|421:228|421:228|414:227|414:227|431:240|431:240|420:239|420:239|432:248|432:248|422:245|422:245|427:263|427:263|424:256|424:256|422:268|422:268|420:260|420:260|417:272|417:272|416:261|416:261|411:277|411:277|410:266|410:266|403:284|403:284|402:271|402:271|392:282|392:282|401:272|401:272|386:279|386:279|393:266|393:266|377:275|377:275|386:263|386:263|365:264|365:264|377:262|377:262|344:253|344:253|363:254|363:254|348:248|348:248|366:251|366:251|348:242|348:242|356:245|356:245|345:231|345:231|350:239|350:239|351:222|351:222|352:226|352:226|352:212|352:212|354:217|354:217|350:204|350:204|352:205|352:205|329:193|329:193|350:197|350:197|324:190|324:190|354:188|354:188|320:188|320:188|336:181|336:181|314:189|314:189|325:177|325:177|314:183|314:183|131:206,1,1182,6|10,3:1|0:0,0:0:0:0:
188,199,120892,1,10,0:3:0:0:
188,199,121196,6,0,B|188:235|188:235|127:294,1,98.5,6|0,3:0|0:0,0:0:0:0:
211,119,121349,2,0,B|245:130|245:130|282:206,1,98.5
142,72,121501,2,0,B|163:42|163:42|247:30,1,98.5,2|0,0:0|0:0,0:0:0:0:
76,123,121653,2,0,B|54:93|54:93|69:10,1,98.5,10|0,0:3|0:0,0:0:0:0:
307,69,121806,5,10,0:0:0:0:
307,69,121958,2,0,L|414:85,1,98.5,2|0,0:0|0:0,0:0:0:0:
435,308,122110,2,0,B|461:334|461:334|378:298|378:298|350:219|350:219|267:184,1,295.5,6|0,3:1|0:0,0:0:0:0:
65,171,122415,6,0,B|25:200|25:200|108:211,1,98.5,2|0,0:0|0:0,0:0:0:0:
64,170,122567,2,0,B|113:177|113:177|73:206,1,98.5,8|0,0:3|0:0,0:0:0:0:
239,257,122719,2,0,B|254:290|254:290|188:228|188:228|189:144|189:144|123:83,1,295.5,6|0,3:1|0:0,0:0:0:0:
0,348,123024,5,10,0:0:0:0:
0,348,123633,6,0,B|58:330|58:330|110:352,1,98.5,6|0,3:0|0:0,0:0:0:0:
167,335,123785,2,0,B|225:353|225:353|277:331,1,98.5
331,260,123937,2,0,B|273:242|273:242|221:264,1,98.5,2|0,0:0|0:0,0:0:0:0:
164,247,124089,2,0,B|106:265|106:265|54:243,1,98.5,10|0,0:3|0:0,0:0:0:0:
114,18,124242,5,10,0:0:0:0:
345,125,124547,2,0,B|269:103|269:103|209:144|209:144|118:153|118:153|70:118,1,295.5,6|0,3:1|0:0,0:0:0:0:
415,89,124851,6,0,B|433:127|433:127|396:198,1,98.5,10|0,0:3|0:0,0:0:0:0:
415,89,125003,2,0,B|396:50|396:50|433:-20,1,98.5,8|0,0:3|0:0,0:0:0:0:
424,260,125156,1,10,0:3:0:0:
424,260,125308,6,0,B|397:274|397:274|325:258,1,98.5
32,214,125460,2,0,B|93:234|93:234|122:167|122:167|249:143|249:143|214:218|214:218|248:274,1,394,8|2,0:0|0:0,0:0:0:0:
237,256,126069,6,0,B|190:297|190:297|176:344,1,98.5,6|0,3:0|0:0,0:0:0:0:
280,174,126222,2,0,B|217:175|217:175|176:202,1,98.5
365,138,126374,2,0,B|316:98|316:98|267:93,1,98.5,2|0,0:0|0:0,0:0:0:0:
453,166,126526,2,0,B|440:104|440:104|407:69,1,98.5,8|0,0:3|0:0,0:0:0:0:
262,345,126679,5,10,0:0:0:0:
4,115,126983,2,0,B|5:61|5:61|86:152|86:152|67:303,1,295.5,6|0,3:1|0:0,0:0:0:0:
148,365,127288,6,0,B|183:367|183:367|177:303,1,98.5,2|0,0:0|0:0,0:0:0:0:
147,364,127440,2,0,B|141:300|141:300|176:302,1,98.5,8|0,0:3|0:0,0:0:0:0:
100,34,127592,2,0,B|161:75|161:75|182:223|182:223|208:115,1,295.5,6|0,3:1|0:0,0:0:0:0:
486,49,127897,5,10,0:0:0:0:
486,49,128506,6,0,B|480:92|480:92|505:181,1,98.5,6|0,3:0|0:0,0:0:0:0:
362,38,128658,2,0,B|371:80|371:80|425:155,1,98.5
242,100,128811,2,0,B|251:57|251:57|305:-17,1,98.5,2|0,0:0|0:0,0:0:0:0:
121,67,128963,2,0,B|144:30|144:30|220:-21,1,98.5,8|0,0:3|0:0,0:0:0:0:
6,195,129115,5,10,0:0:0:0:
344,182,129420,2,0,B|276:172|276:172|182:300|182:300|105:312,1,295.5,6|0,3:1|0:0,0:0:0:0:
88,139,129724,6,0,B|120:218|120:218|83:262,1,98.5,2|0,0:0|0:0,0:0:0:0:
111,228,129877,2,0,B|79:149|79:149|116:105,1,98.5,8|0,0:3|0:0,0:0:0:0:
234,368,130029,1,2,0:0:0:0:
234,368,130181,6,0,B|300:360|300:360|336:298,1,98.5
390,283,130333,2,0,B|257:216|257:216|141:288|141:288|2:291,1,394,10|2,0:0|0:0,0:0:0:0:
32,290,130943,6,0,B|29:313|29:313|120:237,1,98.5,4|0,3:0|0:0,0:0:0:0:
71,169,131095,2,0,B|56:187|56:187|173:167,1,98.5
166,84,131247,2,0,B|144:92|144:92|255:133,1,98.5,2|0,0:0|0:0,0:0:0:0:
290,57,131399,2,0,B|267:54|267:54|343:145,1,98.5,8|0,0:3|0:0,0:0:0:0:
400,366,131552,5,10,0:0:0:0:
400,366,131856,2,0,B|498:273|498:273|462:179|462:179|424:240,1,295.5,6|0,3:1|0:0,0:0:0:0:
210,279,132161,6,0,B|158:267|158:267|180:323,1,98.5,8|0,0:3|0:0,0:0:0:0:
209,278,132313,2,0,B|225:320|225:320|173:308,1,98.5,8|0,0:3|0:0,0:0:0:0:
340,292,132465,2,0,B|352:191|352:191|414:108|414:108|317:147,1,295.5,6|0,3:1|0:0,0:0:0:0:
9,53,132770,5,10,0:0:0:0:
9,53,133379,6,0,B|99:41|99:41|139:61,1,98.5,4|0,3:0|0:0,0:0:0:0:
182,31,133531,2,0,B|188:34|188:34|278:22,1,98.5,8|0,0:3|0:0,0:0:0:0:
503,163,133684,6,0,B|413:151|413:151|373:171,1,98.5,2|0,0:0|0:0,0:0:0:0:
330,141,133836,2,0,B|323:144|323:144|233:132,1,98.5,8|0,0:3|0:0,0:0:0:0:
106,353,133988,5,10,0:0:0:0:
233,132,134293,2,0,B|208:116|208:116|248:350|248:350|272:301,1,295.5,6|0,3:1|0:0,0:0:0:0:
434,56,134597,6,0,B|484:50|484:50|504:93,1,98.5,8|0,0:3|0:0,0:0:0:0:
433,56,134750,2,0,B|382:61|382:61|362:18,1,98.5,8|0,0:3|0:0,0:0:0:0:
315,259,134902,1,2,0:0:0:0:
315,259,135054,6,0,B|360:237|360:237|329:166,1,98.5,8|0,0:3|0:0,0:0:0:0:
105,44,135207,2,0,B|74:32|74:32|185:329|185:329|199:270,1,394,10|2,0:0|0:0,0:0:0:0:
195,286,135816,6,0,B|156:311|156:311|74:295,1,98.5,4|0,3:0|0:0,0:0:0:0:
351,119,135968,2,0,B|402:109|402:109|441:134,1,98.5,8|0,0:3|0:0,0:0:0:0:
161,119,136120,6,0,B|109:109|109:109|70:134,1,98.5,2|0,0:0|0:0,0:0:0:0:
317,286,136273,2,0,B|356:311|356:311|438:295,1,98.5,8|0,0:3|0:0,0:0:0:0:
49,209,136425,5,10,0:0:0:0:
443,213,136729,2,0,L|11:209,1,394,6|2,3:1|0:0,0:0:0:0:
443,213,137948,5,10,0:0:0:0:
27,363,138252,5,6,3:2:0:0:
35,29,138404,2,0,L|147:210,1,147.750005636215,2|0,0:2|0:0,0:0:0:0:
111,359,138557,2,0,L|155:209,1,147.750005636215,14|0,0:2|0:0,0:0:0:0:
192,144,138709,2,0,L|220:303,1,147.750005636215,2|0,0:2|0:0,0:0:0:0:
486,277,138861,1,6,0:2:0:0:
486,277,139014,6,0,L|274:319,1,147.750005636215,2|0,3:2|0:0,0:0:0:0:
20,212,139166,2,0,L|520:39,1,443.250016908646,14|0,0:2|0:0,0:0:0:0:
275,355,139470,5,6,3:2:0:0:
304,231,139623,1,2,3:2:0:0:
341,305,139775,1,14,0:2:0:0:
341,305,139927,6,0,L|505:344,1,147.750005636215,2|0,0:2|0:0,0:0:0:0:
441,95,140080,2,0,L|384:268,1,147.750005636215,6|0,0:2|0:0,0:0:0:0:
212,282,140232,2,0,L|-41:37,1,295.500011272431,2|14,3:2|0:2,0:0:0:0:
0,76,140689,6,0,B|36:58|36:58|199:102,1,147.750005636215,6|0,3:2|0:0,0:0:0:0:
72,292,140841,2,0,B|108:310|108:310|271:266,1,147.750005636215,2|0,0:2|0:0,0:0:0:0:
203,29,140993,1,14,0:2:0:0:
299,375,141146,2,0,B|281:339|281:339|383:54,1,295.500011272431,2|6,0:2|0:2,0:0:0:0:
367,98,141450,6,0,B|407:111|407:111|457:266,1,147.750005636215,2|0,3:2|0:0,0:0:0:0:
512,301,141602,2,0,B|472:251|472:251|43:166,1,443.250016908646,14|0,0:2|0:0,0:0:0:0:
35,230,141907,1,6,3:2:0:0:
35,230,142059,6,0,B|80:298|80:298|79:365,1,147.750005636215,2|2,3:2|3:2,0:0:0:0:
159,375,142212,2,0,B|259:42|259:42|423:-6,1,443.250016908646,14|0,0:2|0:0,0:0:0:0:
512,301,142516,6,0,B|453:311|453:311|346:235,1,147.750005636215,6|0,0:2|0:0,0:0:0:0:
100,177,142668,2,0,B|302:211|302:211|424:139,1,295.500011272431,2|14,3:2|0:3,0:0:0:0:
380,164,143125,6,0,B|416:124|416:124|422:84|422:84|472:22,1,147.750005636215,6|0,3:2|0:0,0:0:0:0:
288,252,143278,2,0,B|308:202|308:202|300:162|300:162|326:87,1,147.750005636215,2|0,3:2|0:0,0:0:0:0:
285,332,143430,1,14,0:2:0:0:
365,35,143582,2,0,B|263:20|263:20|163:76|163:76|2:73,1,295.500011272431,2|6,0:2|0:2,0:0:0:0:
85,74,143887,6,0,B|114:130|114:130|108:160|108:160|125:232,1,147.750005636215,2|0,3:2|0:0,0:0:0:0:
0,346,144039,2,0,B|147:249|147:249|243:297|243:297|460:275,1,443.250016908646,14|0,0:2|0:0,0:0:0:0:
456,43,144344,1,6,3:2:0:0:
456,43,144496,6,0,B|407:76|407:76|394:103|394:103|343:132,1,147.750005636215,2|0,0:2|0:0,0:0:0:0:
353,379,144648,1,14,0:2:0:0:
353,379,144800,2,0,B|304:345|304:345|291:318|291:318|240:289,1,147.750005636215,2|0,0:2|0:0,0:0:0:0:
26,241,144953,2,0,B|85:158|85:158|183:123|183:123|250:32,2,295.500011272431,6|2|14,0:2|3:2|0:2,0:0:0:0:
26,241,145562,6,0,B|78:257|78:257|98:245|98:245|128:255|128:255|194:241,1,147.750005636215,6|0,3:2|0:0,0:0:0:0:
286,161,145714,2,0,B|248:153|248:153|218:163|218:163|198:151|198:151|146:167,1,147.750005636215,2|0,0:2|0:0,0:0:0:0:
129,334,145866,1,14,0:2:0:0:
240,76,146019,2,0,B|193:55|193:55|109:72|109:72|12:34|12:34|116:44,1,295.500011272431,2|6,0:2|0:2,0:0:0:0:
65,39,146323,6,0,B|75:72|75:72|66:103|66:103|94:157|94:157|114:99,1,147.750005636215,2|0,3:2|0:0,0:0:0:0:
211,366,146476,2,0,B|257:287|257:287|353:232|353:232|350:354|350:354|474:339,1,443.250016908646,14|0,0:2|0:0,0:0:0:0:
492,184,146780,5,6,3:2:0:0:
492,184,146932,2,0,B|463:162|463:162|429:163|429:163|454:130|454:130|445:19,1,147.750005636215,2|2,3:2|3:2,0:0:0:0:
435,310,147085,2,0,B|369:217|369:217|256:202|256:202|343:143|343:143|364:29,1,443.250016908646,14|0,0:2|0:0,0:0:0:0:
460,18,147389,5,6,0:2:0:0:
278,35,147542,1,2,3:2:0:0:
166,130,147694,1,14,0:2:0:0:
143,228,147846,1,8,0:1:0:0:
144,242,147922,1,8,0:1:0:0:
149,255,147998,6,0,B|241:290|241:290|383:193|383:193|519:351|519:351|341:308,1,591,4|0,3:2|0:0,0:0:0:0:
15,352,148303,1,14,0:2:0:0:
331,353,148455,6,0,B|363:39|363:39|418:194,1,394,2|4,0:2|0:0,0:0:0:0:
149,255,148760,2,0,B|125:103|125:103|87:170,1,197,2|0,3:2|0:0,0:0:0:0:
251,269,148912,2,0,B|220:363|220:363|349:276|349:276|368:137|368:137|457:72|457:72|453:166,1,591,12|0,0:2|0:0,0:0:0:0:
231,116,149217,5,4,3:2:0:0:
231,116,149369,2,0,B|275:154|275:154|356:130|356:130|377:61,1,197,2|0,0:2|0:0,0:0:0:0:
138,134,149521,2,0,B|17:54|17:54|68:258|68:258|210:312|210:312|137:244,1,591,12|0,0:2|0:0,0:0:0:0:
119,24,149826,6,0,B|173:51|173:51|241:14|241:14|321:35,1,197,4|0,0:0|0:0,0:0:0:0:
453,157,149978,1,2,3:2:0:0:
453,157,150054,1,2,3:2:0:0:
453,157,150130,2,0,B|496:183|496:183|12:159|12:159|105:123,1,591,12|0,0:2|0:0,0:0:0:0:
298,29,150435,6,0,B|307:94|307:94|259:136|259:136|249:220,1,197,4|0,3:2|0:0,0:0:0:0:
336,179,150587,2,0,B|327:244|327:244|375:286|375:286|385:370,1,197,2|0,0:2|0:0,0:0:0:0:
148,254,150740,1,12,0:2:0:0:
468,279,150892,6,0,B|382:229|382:229|258:267|258:267|204:345|204:345|61:325|61:325|62:156,1,591,2|0,0:2|0:0,0:0:0:0:
148,254,151196,2,0,B|190:278|190:278|7:318,1,197,2|2,3:2|0:0,0:0:0:0:
131,69,151349,1,14,0:2:0:0:
131,69,151501,6,0,B|167:35|167:35|249:60|249:60|265:136,1,197,2|0,0:2|0:0,0:0:0:0:
248,334,151653,1,4,3:2:0:0:
248,334,151806,2,0,B|283:368|283:368|365:343|365:343|381:267,1,197,2|2,0:2|0:0,0:0:0:0:
447,58,151958,6,0,B|406:3|406:3|460:174|460:174|275:137|275:137|244:177|244:177|120:202,1,591,14|0,0:2|0:0,0:0:0:0:
310,220,152262,2,0,B|389:235|389:235|401:278|401:278|478:296,1,197,4|0,0:0|0:0,0:0:0:0:
131,69,152415,5,2,3:2:0:0:
131,69,152491,1,2,3:2:0:0:
131,69,152567,2,0,B|85:28|85:28|9:204|9:204|103:318|103:318|232:344|232:344|126:192,1,591,12|0,0:2|0:0,0:0:0:0:
11,270,152871,6,0,B|55:215|55:215|188:211|188:211|191:226|191:226|202:195|202:195|320:92|320:92|325:128|325:128|473:217|473:217|473:214|473:214|472:215|472:215|401:344|401:344|468:314,2,788,4|14|6,3:2|3:2|0:2,0:0:0:0:
131,69,153633,6,0,B|229:58|229:58|129:114,1,197,0|0,3:2|0:0,0:0:0:0:
146,243,153785,2,0,B|190:295|190:295|-11:158|-11:158|32:2|32:2|19:125,1,591,14|0,0:2|0:0,0:0:0:0:
67,354,154090,5,6,3:2:0:0:
67,354,154242,2,0,B|118:340|118:340|155:369|155:369|293:379,1,197
512,358,154394,2,0,B|484:293|484:293|426:330|426:330|98:204|98:204|72:64|72:64|248:164,1,788,14|6,3:2|0:2,0:0:0:0:
505,162,154851,6,0,B|519:210|519:210|401:69,1,197,0|2,3:2|3:2,0:0:0:0:
302,255,155003,2,0,B|205:38|205:38|259:125|259:125|251:382,1,591,14|0,0:2|0:0,0:0:0:0:
176,300,155308,6,0,B|358:49|358:49|341:166|341:166|1:356,2,788,4|14|6,3:2|0:2|0:2,0:0:0:0:
414,348,156069,2,0,B|406:299|406:299|320:275|320:275|243:355,1,197,0|0,3:2|0:0,0:0:0:0:
25,122,156222,6,0,B|34:183|34:183|497:107|497:107|522:211,1,591,14|0,0:2|0:0,0:0:0:0:
414,348,156526,6,0,B|388:264|388:264|407:149,1,197,6|0,3:2|0:0,0:0:0:0:
98,36,156679,2,0,B|124:120|124:120|105:235,1,197
280,159,156831,2,0,B|225:48|225:48|284:368|284:368|236:234,1,591,14|0,3:2|0:0,0:0:0:0:
25,265,157135,6,0,B|168:197|168:197|500:153|500:153|359:159|359:159|185:115,1,788,6|14,3:2|3:3,0:0:0:0:
