osu file format v14

[General]
AudioFilename: audio.mp3
AudioLeadIn: 0
PreviewTime: 136882
Countdown: 0
SampleSet: Soft
StackLeniency: 0.5
Mode: 0
LetterboxInBreaks: 0
WidescreenStoryboard: 1

[Editor]
Bookmarks: 208,63558,136654
DistanceSpacing: 0.5
BeatDivisor: 16
GridSize: 32
TimelineZoom: 2.2

[Metadata]
Title:prozac
TitleUnicode:prozac
Artist:brakence
ArtistUnicode:brakence
Creator:Mimari
Version:schoolari's insane
Source:
Tags:punk2 english hyper pop emo rap hyperpop glitchpop digicore trap jamesjan3 jamesjan riffy bakari hhjkl wetdog123 schoolboy komore mayflower i love ganyu sing
BeatmapID:3330144
BeatmapSetID:1573985

[Difficulty]
HPDrainRate:5
CircleSize:4
OverallDifficulty:8
ApproachRate:9
SliderMultiplier:1.6
SliderTickRate:1

[Events]
//Background and Video events
0,0,"i hate myself for it.jpeg",0,0
//Break Periods
2,157944,182252
//Storyboard Layer 0 (Background)
//Storyboard Layer 1 (Fail)
//Storyboard Layer 2 (Pass)
//Storyboard Layer 3 (Foreground)
//Storyboard Layer 4 (Overlay)
//Storyboard Sound Samples

[TimingPoints]
1806,304.568527918782,4,2,80,50,1,0
14293,-75.187969924812,4,2,80,50,0,0
15207,-100,4,2,80,50,0,0
20993,-100,4,2,13,45,0,0
21069,-100,4,2,13,30,0,0
21146,-100,4,2,13,15,0,0
21298,-100,4,2,30,60,0,0
25638,-100,4,2,13,45,0,0
25714,-100,4,2,13,30,0,0
25790,-100,4,2,13,15,0,0
25866,-100,4,2,30,60,0,0
30740,-100,4,2,13,60,0,0
30816,-100,4,2,13,45,0,0
30892,-100,4,2,13,30,0,0
30968,-100,4,2,13,15,0,0
31044,-100,4,2,30,60,0,0
35384,-100,4,2,13,45,0,0
35460,-100,4,2,13,30,0,0
35536,-100,4,2,13,15,0,0
35613,-100,4,2,30,60,0,0
40257,-100,4,2,13,45,0,0
40333,-100,4,2,13,30,0,0
40410,-100,4,2,13,15,0,0
40486,-100,4,2,30,60,0,0
40790,-81.3008130081301,4,2,12,60,0,0
41171,-100,4,2,12,60,0,0
43227,-100,4,2,13,60,0,0
44445,-83.3333333333333,4,2,13,60,0,0
45435,-83.3333333333333,4,2,13,45,0,0
45511,-83.3333333333333,4,2,13,30,0,0
45587,-83.3333333333333,4,2,13,15,0,0
45663,-100,4,2,12,60,0,0
46882,-66.6666666666667,4,2,12,60,0,0
46958,-100,4,2,12,60,0,0
48100,-100,4,2,13,60,0,0
50080,-100,4,2,13,45,0,0
50156,-100,4,2,13,30,0,0
50232,-100,4,2,13,15,0,0
50536,-100,4,2,12,60,0,0
52973,-100,4,2,13,60,0,0
55181,-100,4,2,13,45,0,0
55257,-100,4,2,13,30,0,0
55333,-100,4,2,13,15,0,0
55410,-100,4,2,12,60,0,0
57846,-100,4,2,13,60,0,0
59826,-100,4,2,13,45,0,0
59902,-100,4,2,13,30,0,0
59978,-100,4,2,13,15,0,0
60283,-100,4,2,12,60,0,0
61501,-83.3333333333333,4,2,12,60,0,0
62719,-100,4,2,13,60,0,0
64928,-100,4,2,13,45,0,0
65004,-100,4,2,13,30,0,0
65080,-100,4,2,13,15,0,0
65156,-83.3333333333333,4,2,12,60,0,0
66983,-100,4,2,12,60,0,0
67593,-100,4,2,13,60,0,0
67897,-83.3333333333333,4,2,13,60,0,0
69800,-83.3333333333333,4,2,13,45,0,0
69877,-83.3333333333333,4,2,13,30,0,0
69953,-83.3333333333333,4,2,13,15,0,0
70029,-76.9230769230769,4,2,12,60,0,0
70333,-83.3333333333333,4,2,12,60,0,0
70943,-66.6666666666667,4,2,12,60,0,0
71552,-100,4,2,12,60,0,0
71856,-66.6666666666667,4,2,12,60,0,0
72465,-83.3333333333333,4,2,13,60,0,0
73988,-71.4285714285714,4,2,13,60,0,0
74597,-100,4,2,13,60,0,0
74674,-100,4,2,13,45,0,0
74750,-100,4,2,13,30,0,0
74826,-100,4,2,13,15,0,0
74902,-83.3333333333333,4,2,12,60,0,0
77034,-83.3333333333333,4,2,12,60,0,0
77339,-83.3333333333333,4,2,13,60,0,0
78557,-133.333333333333,4,2,13,60,0,0
79166,-66.6666666666667,4,2,1,60,0,0
79319,-66.6666666666667,4,2,13,45,0,0
79395,-66.6666666666667,4,2,13,30,0,0
79471,-66.6666666666667,4,2,13,15,0,0
79775,-83.3333333333333,4,2,40,60,0,0
80232,-66.6666666666667,4,2,40,60,0,0
80384,-133.333333333333,4,2,40,60,0,0
80689,-66.6666666666667,4,2,40,60,0,0
81907,-250,4,2,13,60,0,0
82212,-83.3333333333333,4,2,40,60,0,0
82821,-133.333333333333,4,2,40,60,0,0
83125,-66.6666666666667,4,2,40,60,0,0
84039,-100,4,2,40,60,0,0
84344,-100,4,2,13,60,0,0
84420,-100,4,2,13,45,0,0
84496,-100,4,2,13,30,0,0
84572,-100,4,2,13,15,0,0
84648,-76.9230769230769,4,2,40,60,0,0
86019,-133.333333333333,4,2,40,60,0,0
86323,-66.6666666666667,4,2,40,60,0,0
86476,-58.8235294117647,4,2,40,60,0,0
86780,-58.8235294117647,4,2,13,60,0,0
87085,-83.3333333333333,4,2,40,60,0,0
87694,-133.333333333333,4,2,40,60,0,0
87998,-66.6666666666667,4,2,40,60,0,0
89217,-66.6666666666667,4,2,40,60,0,0
89293,-66.6666666666667,4,2,40,45,0,0
89369,-66.6666666666667,4,2,40,30,0,0
89445,-66.6666666666667,4,2,40,15,0,0
89521,-66.6666666666667,4,2,41,60,0,0
90435,-58.8235294117647,4,2,41,60,0,0
90740,-133.333333333333,4,2,41,60,0,0
91196,-66.6666666666667,4,2,41,60,0,0
91653,-133.333333333333,4,2,41,60,0,0
91958,-66.6666666666667,4,2,41,60,0,0
92871,-100,4,2,41,60,0,0
93481,-66.6666666666667,4,2,41,60,0,0
93785,-133.333333333333,4,2,41,60,0,0
94090,-133.333333333333,4,2,13,60,0,0
94166,-133.333333333333,4,2,13,45,0,0
94242,-133.333333333333,4,2,13,30,0,0
94318,-133.333333333333,4,2,13,15,0,0
94394,-58.8235294117647,4,2,41,60,0,0
96222,-66.6666666666667,4,2,41,60,0,0
97135,-83.3333333333333,4,2,41,60,0,0
97745,-66.6666666666667,4,2,41,60,0,0
99267,-66.6666666666667,4,2,40,60,0,0
99877,-133.333333333333,4,2,40,60,0,0
100333,-66.6666666666667,4,2,40,60,0,0
102161,-133.333333333333,4,2,40,60,0,0
103227,-83.3333333333333,4,2,40,60,0,0
103836,-83.3333333333333,4,2,13,60,0,0
103912,-83.3333333333333,4,2,13,45,0,0
103988,-83.3333333333333,4,2,13,30,0,0
104064,-83.3333333333333,4,2,13,15,0,0
104141,-83.3333333333333,4,2,40,60,0,0
104750,-133.333333333333,4,2,40,60,0,0
105207,-66.6666666666667,4,2,40,60,0,0
106273,-100,4,2,40,60,0,0
106577,-66.6666666666667,4,2,40,60,0,0
108404,-133.333333333333,4,2,40,60,0,0
108709,-133.333333333333,4,2,13,60,0,0
108785,-133.333333333333,4,2,13,45,0,0
108861,-133.333333333333,4,2,13,30,0,0
108937,-133.333333333333,4,2,13,15,0,0
109014,-83.3333333333333,4,2,40,60,0,0
109623,-50,4,2,40,60,0,0
110232,-66.6666666666667,4,2,41,60,0,0
110536,-133.333333333333,4,2,41,60,0,0
111450,-66.6666666666667,4,2,41,60,0,0
112059,-133.333333333333,4,2,41,60,0,0
112364,-66.6666666666667,4,2,41,60,0,0
112668,-55.5555555555556,4,2,41,60,0,0
113582,-55.5555555555556,4,2,13,60,0,0
113658,-55.5555555555556,4,2,13,45,0,0
113734,-55.5555555555556,4,2,13,30,0,0
113811,-55.5555555555556,4,2,13,15,0,0
113887,-66.6666666666667,4,2,41,60,0,0
114800,-100,4,2,41,60,0,0
115105,-66.6666666666667,4,2,41,60,0,0
115714,-133.333333333333,4,2,41,60,0,0
116323,-58.8235294117647,4,2,41,60,0,0
117237,-66.6666666666667,4,2,41,60,0,0
118760,-100,4,2,12,60,0,0
119369,-66.6666666666667,4,2,12,60,0,0
119978,-100,4,2,12,60,0,0
120587,-66.6666666666667,4,2,12,60,0,0
121196,-66.6666666666667,4,2,13,60,0,0
121806,-100,4,2,13,60,0,0
122871,-66.6666666666667,4,2,13,60,0,0
123328,-133.333333333333,4,2,13,60,0,0
123405,-133.333333333333,4,2,13,45,0,0
123481,-133.333333333333,4,2,13,30,0,0
123557,-133.333333333333,4,2,13,15,0,0
123633,-66.6666666666667,4,2,12,60,0,0
124242,-100,4,2,12,60,0,0
124851,-66.6666666666667,4,2,12,60,0,0
125765,-133.333333333333,4,2,12,60,0,0
126069,-66.6666666666667,4,2,13,60,0,0
127592,-55.5555555555556,4,2,13,60,0,0
128050,-55.5555555555556,4,2,13,45,0,0
128126,-55.5555555555556,4,2,13,30,0,0
128201,-133.333333333333,4,2,13,60,0,0
128278,-133.333333333333,4,2,13,45,0,0
128354,-133.333333333333,4,2,13,30,0,0
128430,-133.333333333333,4,2,13,15,0,0
128506,-66.6666666666667,4,2,12,60,0,0
129115,-100,4,2,12,60,0,0
129420,-66.6666666666667,4,2,12,60,0,0
130029,-55.5555555555556,4,2,12,60,0,0
130638,-133.333333333333,4,2,12,60,0,0
130943,-66.6666666666667,4,2,13,60,0,0
133075,-133.333333333333,4,2,13,60,0,0
133151,-133.333333333333,4,2,13,45,0,0
133227,-133.333333333333,4,2,13,30,0,0
133303,-133.333333333333,4,2,13,15,0,0
133380,-133.333333333333,4,2,12,60,0,0
133988,-66.6666666666667,4,2,12,60,0,0
134597,-133.333333333333,4,2,12,60,0,0
134902,-66.6666666666667,4,2,12,60,0,0
135511,-133.333333333333,4,2,12,60,0,0
135816,-55.5555555555556,4,2,13,60,0,0
136729,-45.4545454545455,4,2,13,60,0,0
137796,-45.4545454545455,4,2,13,45,0,0
137872,-45.4545454545455,4,2,13,30,0,0
137948,-45.4545454545455,4,2,99,75,0,0
138252,-66.6666666666667,4,2,1,75,0,0
139166,-100,4,2,1,75,0,0
139470,-66.6666666666667,4,2,1,75,0,0
141602,-58.8235294117647,4,2,1,75,0,0
141907,-66.6666666666667,4,2,1,75,0,0
142821,-40,4,2,1,75,0,0
143125,-66.6666666666667,4,2,1,75,0,0
144648,-66.6666666666667,4,2,2,75,0,0
144953,-66.6666666666667,4,2,1,75,0,0
145105,-66.6666666666667,4,2,2,75,0,0
145257,-66.6666666666667,4,2,1,75,0,0
146019,-58.8235294117647,4,2,1,75,0,0
146780,-66.6666666666667,4,2,1,75,0,0
147085,-66.6666666666667,4,2,2,75,0,0
147237,-58.8235294117647,4,2,2,75,0,0
147389,-58.8235294117647,4,2,1,75,0,0
147998,-58.8235294117647,4,2,2,83,0,0
152719,-52.6315789473684,4,2,2,83,0,0
156791,-47.6190476190476,4,2,2,83,0,0
157135,-40.983606557377,4,2,2,83,0,0
157440,-181.818181818181,4,2,2,83,0,0
182852,-86.2068965517241,4,2,98,30,0,0

[Colours]
Combo1 : 219,129,68
Combo2 : 156,211,211
Combo3 : 204,165,138

[HitObjects]
61,242,1806,6,0,P|77:281|107:326,1,80,2|2,0:2|0:2,0:0:0:0:
179,291,2110,1,2,0:2:0:0:
179,291,2262,1,2,0:2:0:0:
21,340,2567,6,0,B|118:339|69:394|180:381,1,160,2|2,0:1|0:1,0:0:0:0:
170,383,3024,2,0,P|190:296|218:261,1,120,2|0,0:1|0:0,0:0:0:0:
219,267,3328,2,0,P|251:283|299:296,1,80,2|0,0:1|0:0,0:0:0:0:
356,363,3633,2,0,P|379:358|405:344,1,40,2|0,0:1|0:0,0:0:0:0:
393,351,3937,6,0,P|406:285|446:179,1,160,2|2,0:1|0:2,0:0:0:0:
494,265,4394,1,2,0:1:0:0:
504,145,4547,2,0,P|434:172|346:183,1,160,2|0,0:1|0:0,0:0:0:0:
255,113,5003,2,0,P|268:121|302:130,2,40,2|0|2,0:1|0:0|0:1,0:0:0:0:
210,205,5460,6,0,B|186:114|245:150|201:29,1,160,2|0,0:1|0:0,0:0:0:0:
207,48,5917,2,0,P|232:170|258:232,1,160,2|0,0:1|0:0,0:0:0:0:
195,280,6374,2,0,P|170:158|144:96,1,160,2|2,0:1|0:0,0:0:0:0:
157,125,6983,6,0,P|93:110|49:83,1,80,2|2,0:0|0:1,0:0:0:0:
20,160,7288,1,2,0:1:0:0:
235,163,7592,1,2,0:1:0:0:
235,163,7897,6,0,P|252:88|294:4,1,160,2|2,0:1|0:1,0:0:0:0:
313,195,8354,2,0,B|226:191|255:238|134:213,1,160,2|2,0:1|0:2,0:0:0:0:
350,384,8811,2,0,P|370:331|284:290,1,160,2|0,0:1|0:0,0:0:0:0:
219,335,9267,1,2,0:1:0:0:
295,301,9420,6,0,P|312:213|334:138,1,160,2|0,0:1|0:0,0:0:0:0:
406,96,9877,2,0,B|383:62|389:23|389:23|358:60|310:57,1,160,2|0,0:2|0:0,0:0:0:0:
331,145,10333,6,0,P|277:86|192:49,1,160,2|2,0:1|0:1,0:0:0:0:
108,185,10943,1,10,0:1:0:0:
117,192,11247,2,0,P|191:159|232:99,1,120,2|0,0:1|0:0,0:0:0:0:
272,187,11552,2,0,P|294:149|302:88,1,80,2|2,0:2|0:2,0:0:0:0:
405,149,11856,6,0,P|392:80|323:-4,2,160,2|10|2,0:2|0:1|0:1,0:0:0:0:
434,357,12770,2,0,P|456:280|498:234,1,120,2|0,0:1|0:0,0:0:0:0:
489,230,13075,2,0,B|413:234|437:268|332:254,1,160,2|10,0:1|0:1,0:0:0:0:
155,178,13684,2,0,P|143:144|221:157,1,160,2|2,0:1|0:0,0:0:0:0:
255,228,14141,1,2,0:0:0:0:
287,127,14293,6,0,P|298:166|221:148,1,159.599993424683,2|0,0:1|0:0,0:0:0:0:
217,142,14597,6,0,P|195:67|97:75,1,159.599993424683,10|0,0:1|0:0,0:0:0:0:
63,6,14902,1,2,0:1:0:0:
63,6,14978,2,0,P|75:102|72:156,1,106.399995616455
73,126,15207,6,0,P|33:135|-6:152,1,80
174,262,15511,2,0,P|120:239|30:211,1,120,2|0,0:1|0:0,0:0:0:0:
0,303,15816,2,0,P|19:300|39:297,1,40,10|0,0:1|0:0,0:0:0:0:
50,300,16120,6,0,P|62:198|77:128,1,160,2|0,0:1|0:0,0:0:0:0:
325,223,16729,2,0,P|313:325|298:395,1,160,2|10,0:1|0:1,0:0:0:0:
240,249,17186,1,0,0:0:0:0:
316,216,17338,6,0,B|385:200|371:266|478:209,1,160,2|0,0:1|0:0,0:0:0:0:
188,33,17948,2,0,P|202:102|216:135,1,80,2|0,0:1|0:0,0:0:0:0:
143,168,18252,1,10,0:1:0:0:
143,168,18404,2,0,P|95:179|58:192,1,80,0|2,0:0|0:1,0:0:0:0:
113,0,18861,1,0,0:0:0:0:
208,215,19166,6,0,P|189:265|85:271,1,160,2|10,0:1|0:1,0:0:0:0:
31,220,19623,1,0,0:0:0:0:
15,329,19775,2,0,P|90:322|169:366,1,160,2|0,0:1|0:0,0:0:0:0:
239,321,20232,1,0,0:0:0:0:
302,378,20384,2,0,P|333:368|370:229,1,160,2|2,0:1|0:1,0:0:0:0:
383,260,20993,2,0,P|393:270|389:302,1,40,8|8,1:3|1:3,0:0:0:0:
368,255,21146,2,0,P|388:235|417:241,2,40,8|0|0,1:3|0:0|0:0,0:0:0:0:
479,366,21450,5,2,0:2:0:0:
479,366,21602,2,0,P|492:291|507:256,1,80,2|0,0:2|0:0,0:0:0:0:
475,208,21907,2,0,P|485:160|488:109,1,80,8|0,0:0|0:0,0:0:0:0:
489,45,22212,2,0,P|432:60|402:62,1,80,0|2,3:0|0:2,0:0:0:0:
243,11,22516,5,2,0:2:0:0:
306,136,22668,2,0,P|312:97|310:44,1,80,2|2,0:2|0:2,0:0:0:0:
148,103,22973,1,0,0:0:0:0:
88,147,23125,2,0,P|34:159|-6:176,1,80,8|0,0:0|0:0,0:0:0:0:
97,48,23430,2,0,P|43:36|3:19,1,80,2|0,0:2|0:0,0:0:0:0:
148,103,23734,6,0,P|157:158|153:243,1,120,0|0,3:0|0:0,0:0:0:0:
153,234,24039,2,0,P|182:246|206:291,1,80,2|0,0:0|0:0,0:0:0:0:
63,360,24344,2,0,P|98:327|142:333,1,80,8|0,0:0|0:0,0:0:0:0:
190,370,24648,1,0,3:0:0:0:
292,322,24800,1,2,0:2:0:0:
292,322,24877,1,0,0:0:0:0:
292,322,24953,6,0,P|281:269|257:232,1,80,2|2,0:2|0:2,0:0:0:0:
372,371,25257,2,0,P|384:331|436:283,1,80,0|0,3:0|0:0,0:0:0:0:
196,265,25562,2,0,P|176:231|141:201,1,80,8|8,0:0|1:3,0:0:0:0:
365,238,25866,2,0,P|408:169|481:123,1,160,0|0,0:0|3:0,0:0:0:0:
501,210,26323,1,2,0:2:0:0:
438,27,26476,6,0,P|493:51|540:59,1,80,2|0,0:2|0:0,0:0:0:0:
302,167,26780,2,0,P|304:128|298:88,1,80,8|0,0:0|0:0,0:0:0:0:
215,43,27085,6,0,L|158:50,1,40,0|0,3:0|0:0,0:0:0:0:
175,131,27237,2,0,L|123:123,1,40,2|0,0:2|0:0,0:0:0:0:
47,61,27389,6,0,P|22:111|6:187,1,120,2|0,0:2|0:0,0:0:0:0:
18,181,27694,2,0,B|42:229|59:307,1,120,2|0,0:2|0:0,0:0:0:0:
29,366,27998,6,0,P|85:304|147:304,1,120,8|0,0:0|0:0,0:0:0:0:
168,239,28303,2,0,P|240:264|258:339,1,160,2|0,0:2|3:0,0:0:0:0:
328,384,28760,5,2,0:0:0:0:
379,282,28912,2,0,P|372:245|364:187,1,80,2|0,0:0|0:0,0:0:0:0:
490,25,29217,2,0,P|497:62|505:120,3,80,8|0|0|2,0:0|0:0|3:0|0:2,0:0:0:0:
413,67,29826,6,0,P|371:61|340:27,1,80,2|2,0:2|0:2,0:0:0:0:
292,96,30130,2,0,P|265:70|252:7,1,80,0|0,3:0|0:0,0:0:0:0:
187,98,30435,2,0,P|141:88|118:46,1,80,8|0,0:0|0:0,0:0:0:0:
60,20,30740,1,8,1:3:0:0:
60,20,30816,1,8,1:3:0:0:
60,20,30892,1,8,1:3:0:0:
60,20,30968,1,8,1:3:0:0:
60,20,31044,6,0,P|28:54|37:153,1,120,0|0,3:0|0:0,0:0:0:0:
29,130,31349,2,0,P|68:127|103:145,1,80,2|0,0:2|0:0,0:0:0:0:
133,290,31653,2,0,P|128:251|94:215,1,80,8|0,0:0|0:0,0:0:0:0:
23,355,31958,6,0,P|42:341|70:348,1,40,0|0,3:0|0:0,0:0:0:0:
133,378,32110,2,0,L|238:370,1,80,2|2,0:2|0:2,0:0:0:0:
212,371,32415,1,2,0:2:0:0:
212,371,32567,5,2,0:2:0:0:
497,192,32871,1,8,0:0:0:0:
511,278,33024,2,0,B|488:244|494:205|494:205|463:242|415:239,1,160
352,203,33481,6,0,P|343:141|345:86,1,80,0|2,3:0|0:0,0:0:0:0:
405,13,33785,2,0,P|414:75|412:130,1,80,2|0,0:0|0:0,0:0:0:0:
259,164,34090,1,8,0:0:0:0:
259,164,34166,1,0,0:0:0:0:
158,98,34318,1,0,0:0:0:0:
158,98,34394,2,0,B|103:69|103:69|31:98,1,120,0|0,3:0|0:0,0:0:0:0:
37,98,34699,6,0,P|27:25|19:-16,1,80,2|2,0:2|0:2,0:0:0:0:
21,191,35003,2,0,P|29:216|101:214,1,80,0|0,3:0|0:0,0:0:0:0:
192,202,35308,2,0,P|194:179|170:152,1,40,8|8,0:0|1:3,0:0:0:0:
193,153,35460,2,0,P|170:131|144:130,1,40,8|8,1:3|1:3,0:0:0:0:
146,276,35613,2,0,L|160:374,1,80
161,365,35917,6,0,P|168:282|195:233,1,120,0|0,3:0|0:0,0:0:0:0:
246,196,36222,2,0,P|278:221|325:213,1,80,2|0,0:2|0:0,0:0:0:0:
493,311,36526,2,0,B|420:311|437:363|339:335,1,160,8|0,0:0|3:0,0:0:0:0:
420,202,36983,1,2,0:2:0:0:
490,140,37135,5,2,0:2:0:0:
490,140,37288,1,2,0:2:0:0:
490,140,37440,1,2,0:2:0:0:
208,85,37745,1,8,0:0:0:0:
301,12,37897,1,0,0:0:0:0:
301,12,37973,2,0,P|306:67|315:152,1,120
241,204,38354,6,0,P|198:176|150:188,1,80,0|2,3:0|0:0,0:0:0:0:
26,141,38658,2,0,P|64:112|104:110,1,80,2|0,0:0|0:0,0:0:0:0:
176,270,38963,2,0,P|138:299|98:301,1,80,8|0,0:0|0:0,0:0:0:0:
107,208,39267,5,0,3:0:0:0:
107,208,39344,1,0,0:0:0:0:
29,338,39572,6,0,P|28:223|-15:166,1,160,2|0,0:2|3:0,0:0:0:0:
102,19,40029,1,0,0:0:0:0:
0,87,40181,2,0,L|39:79,2,40,8|8|8,0:0|1:3|1:3,0:0:0:0:
0,87,40486,2,0,P|91:106|135:125,1,120
188,95,40790,6,0,B|255:120|251:183|231:218|152:214|170:167,2,196.80000300293,4|0|0,3:0|0:0|0:0,0:0:0:0:
168,171,41552,1,2,0:0:0:0:
115,231,41704,2,0,B|173:223|173:223|176:224|176:224|245:213,1,120,6|0,3:1|0:0,0:0:0:0:
291,158,42009,6,0,P|305:123|209:78,1,160,2|0,0:0|0:0,0:0:0:0:
302,175,42465,1,2,0:0:0:0:
302,175,42618,2,0,P|356:208|442:201,1,120,10|0,0:0|0:0,0:0:0:0:
348,259,42922,2,0,P|307:267|286:310,1,80,2|0,0:0|0:0,0:0:0:0:
178,366,43227,5,4,3:0:0:0:
260,384,43379,1,8,0:3:0:0:
178,366,43531,2,0,P|138:365|84:395,1,80,2|8,0:0|0:3,0:0:0:0:
0,270,43836,2,0,P|26:292|66:299,1,80,10|0,0:0|0:0,0:0:0:0:
104,108,44141,2,0,P|97:167|117:223,1,120,6|0,3:1|0:0,0:0:0:0:
128,232,44445,6,0,P|148:150|206:88,1,143.999995605469,2|0,0:0|0:0,0:0:0:0:
164,30,44750,2,0,P|226:45|292:109,1,143.999995605469,6|0,3:1|0:0,0:0:0:0:
361,88,45054,2,0,P|364:134|315:248,1,143.999995605469,10|0,0:0|0:0,0:0:0:0:
392,286,45359,2,0,P|373:300|331:303,1,47.9999985351563,8|8,1:3|1:3,0:0:0:0:
329,351,45511,2,0,P|275:335|250:310,1,47.9999985351563,8|8,1:3|1:3,0:0:0:0:
239,368,45663,6,0,P|202:355|179:323,1,80,6|8,3:0|0:3,0:0:0:0:
96,384,45968,2,0,P|88:344|105:306,1,80,2|8,0:0|0:3,0:0:0:0:
0,297,46273,2,0,P|15:243|71:231,1,120,10|0,0:0|0:0,0:0:0:0:
81,223,46577,2,0,P|68:182|54:125,1,80,6|0,3:1|0:0,0:0:0:0:
132,50,46882,6,0,B|169:28|204:25|220:35|220:35|223:33|223:33|225:38|225:38|284:55|289:118|268:130|268:130|255:106,1,240.000009155274,2|0,0:0|0:0,0:0:0:0:
192,160,47338,1,2,0:0:0:0:
192,160,47491,1,10,0:0:0:0:
442,257,47795,2,0,P|444:206|480:123,1,120,2|0,0:0|0:0,0:0:0:0:
512,72,48100,5,4,3:0:0:0:
448,267,48252,1,8,0:3:0:0:
389,105,48404,6,0,L|305:116,1,80,2|8,0:0|0:3,0:0:0:0:
342,217,48709,2,0,L|258:206,1,80,10|0,0:0|0:0,0:0:0:0:
266,32,49014,2,0,L|182:43,1,80,6|0,3:1|0:0,0:0:0:0:
92,7,49318,6,0,P|95:41|110:110,1,80,2|8,0:0|0:3,0:0:0:0:
11,192,49623,2,0,P|8:158|-7:89,1,80,6|0,3:1|0:0,0:0:0:0:
153,220,49927,2,0,L|99:210,3,40,10|0|0|0,0:0|0:0|1:0|1:0,0:0:0:0:
58,268,50232,2,0,P|55:302|23:401,1,120,2|0,1:2|0:0,0:0:0:0:
85,340,50536,6,0,B|164:326|148:384|242:370,1,160,6|2,3:0|0:0,0:0:0:0:
357,323,50993,1,8,0:3:0:0:
428,371,51146,2,0,P|467:376|506:385,1,80,10|0,0:0|0:0,0:0:0:0:
386,216,51450,2,0,P|420:234|427:272,1,80,6|0,3:1|0:0,0:0:0:0:
427,272,51755,6,0,P|441:187|459:135,1,120,2|0,0:0|0:0,0:0:0:0:
459,150,52059,1,2,0:0:0:0:
383,17,52364,2,0,P|355:17|332:75,1,80,10|0,0:0|0:0,0:0:0:0:
243,140,52668,2,0,P|197:90|218:15,1,120,2|0,0:0|0:0,0:0:0:0:
207,31,52973,5,4,3:0:0:0:
90,101,53125,1,8,0:3:0:0:
90,101,53278,2,0,L|5:77,1,80,2|8,0:0|0:3,0:0:0:0:
60,185,53582,2,0,L|-26:212,1,80,10|0,0:0|0:0,0:0:0:0:
122,254,53887,2,0,L|69:381,1,120,6|0,3:1|0:0,0:0:0:0:
70,374,54191,6,0,P|41:359|26:303,1,80,2|8,0:0|0:3,0:0:0:0:
162,384,54496,2,0,P|172:342|205:322,1,80,6|0,3:1|0:0,0:0:0:0:
263,259,54800,2,0,P|306:276|368:279,1,80,10|0,0:0|0:0,0:0:0:0:
492,349,55105,2,0,P|457:360|427:383,1,40,8|8,1:3|1:3,0:0:0:0:
441,354,55257,2,0,P|459:354|495:381,1,40,8|8,1:3|1:3,0:0:0:0:
458,349,55410,6,0,B|447:278|487:302|465:171,1,160,4|2,3:0|0:0,0:0:0:0:
421,134,55866,1,8,0:3:0:0:
499,10,56019,1,10,0:0:0:0:
256,64,56323,1,6,3:1:0:0:
13,10,56628,1,2,0:0:0:0:
99,48,56780,1,8,0:3:0:0:
0,97,56932,2,0,L|13:137,1,40
77,168,57237,6,0,L|55:320,1,120,10|0,0:0|0:0,0:0:0:0:
78,300,57542,2,0,L|100:148,1,120,2|0,0:0|0:0,0:0:0:0:
166,131,57846,5,6,3:0:0:0:
166,131,57998,1,8,0:3:0:0:
166,131,58151,2,0,B|225:146|225:146|247:178|247:178|322:198,1,160,2|10,0:0|0:0,0:0:0:0:
370,121,58608,2,0,L|346:24,1,80,0|6,0:0|3:1,0:0:0:0:
409,267,58912,1,0,0:0:0:0:
511,184,59064,6,0,B|474:177|474:177|410:183,1,80,2|8,0:0|0:3,0:0:0:0:
331,302,59369,1,6,3:1:0:0:
403,346,59521,2,0,P|410:284|400:231,1,80,2|8,0:0|0:0,0:0:0:0:
408,266,59978,2,0,P|415:328|405:381,1,80,2|0,1:2|0:0,0:0:0:0:
57,41,60892,5,8,0:0:0:0:
143,72,61044,1,2,0:0:0:0:
56,216,61196,2,0,P|60:157|70:124,1,80,6|2,3:1|0:0,0:0:0:0:
221,20,61501,6,0,B|323:42|262:111|387:125,1,191.999994140625,2|10,0:0|0:3,0:0:0:0:
428,4,61958,1,0,0:0:0:0:
480,160,62110,2,0,P|496:72|517:40,1,95.9999970703126,10|0,0:0|0:0,0:0:0:0:
498,67,62415,2,0,P|507:134|453:187,1,143.999995605469,10|0,0:3|0:0,0:0:0:0:
386,225,62719,5,6,3:0:0:0:
271,201,62871,1,8,0:3:0:0:
184,310,63024,2,0,P|272:299|373:288,1,160,2|10,0:0|0:0,0:0:0:0:
342,291,63481,1,2,0:0:0:0:
342,291,63633,1,6,3:1:0:0:
96,20,63937,6,0,P|55:29|19:148,1,160,2|6,0:0|3:1,0:0:0:0:
189,201,64394,1,0,0:0:0:0:
200,206,64547,2,0,P|140:202|62:173,1,120,10|0,0:0|0:0,0:0:0:0:
27,244,64851,2,0,L|72:260,1,40,8|8,1:3|1:3,0:0:0:0:
68,281,65003,2,0,L|113:297,1,40,8|8,1:3|1:3,0:0:0:0:
132,373,65156,6,0,B|185:365|179:307|231:284|297:278|297:317,1,191.999994140625,6|2,3:0|0:0,0:0:0:0:
408,220,65613,1,10,0:3:0:0:
458,366,65765,2,0,P|461:317|492:259,1,95.9999970703126,10|0,0:0|0:0,0:0:0:0:
350,112,66069,2,0,P|300:158|318:224,1,143.999995605469,6|0,3:1|0:0,0:0:0:0:
363,288,66374,5,10,0:3:0:0:
216,319,66526,1,8,0:3:0:0:
91,265,66679,1,10,0:3:0:0:
178,226,66831,5,2,0:0:0:0:
178,226,66983,2,0,P|165:305|158:384,1,160,8|2,0:0|0:0,0:0:0:0:
25,207,67440,6,0,P|23:167|14:101,1,80,0|6,0:0|3:0,0:0:0:0:
18,127,67745,1,10,0:3:0:0:
126,47,67897,6,0,P|118:101|116:141,1,95.9999970703126,2|8,0:0|0:3,0:0:0:0:
200,309,68201,6,0,P|239:312|285:187,1,191.999994140625,10|6,0:0|3:1,0:0:0:0:
231,60,68658,6,0,B|186:96|207:108|229:87|237:71,1,47.9999985351563
291,103,68811,2,0,B|393:125|332:194|457:208,2,191.999994140625,2|6|10,0:0|3:1|0:0,0:0:0:0:
30,337,69724,6,0,B|63:339|63:339|20:348,3,47.9999985351563,8|8|8|8,1:3|1:3|1:3|1:3,0:0:0:0:
15,197,70029,6,0,B|54:224|53:264|53:264|57:222|121:192,1,155.999992858887,6|0,3:0|0:0,0:0:0:0:
164,246,70333,2,0,P|155:297|150:354,1,95.9999970703126,2|8,0:0|0:3,0:0:0:0:
64,128,70638,6,0,P|73:77|78:20,1,95.9999970703126,10|0,0:0|0:0,0:0:0:0:
77,33,70943,6,0,P|87:116|178:169,1,180.000006866455,6|0,3:1|0:0,0:0:0:0:
226,115,71247,5,2,0:0:0:0:
329,44,71399,1,8,0:3:0:0:
419,168,71552,6,0,P|361:138|286:145,1,120,2|0,0:0|0:0,0:0:0:0:
307,138,71856,2,0,P|366:136|396:83,1,120.000004577637,10|0,0:0|0:0,0:0:0:0:
260,284,72161,6,0,P|241:290|223:299,1,40,2|0,0:0|0:0,0:0:0:0:
470,376,72465,6,0,P|461:334|462:258,1,95.9999970703126,4|8,3:0|0:3,0:0:0:0:
246,197,72770,5,2,0:0:0:0:
382,252,72922,1,8,0:3:0:0:
237,199,73075,6,0,P|246:152|248:105,1,95.9999970703126,10|0,0:0|0:0,0:0:0:0:
142,352,73379,2,0,P|151:305|67:232,1,143.999995605469,6|0,3:1|0:0,0:0:0:0:
27,267,73684,1,8,0:3:0:0:
232,384,73988,6,0,P|275:364|288:237,1,167.999994873047,6|0,3:1|0:0,0:0:0:0:
300,256,74293,6,0,P|287:312|292:378,1,111.999996582031,10|0,0:0|0:0,0:0:0:0:
204,149,74597,6,0,L|142:161,1,40,8|8,1:3|1:3,0:0:0:0:
168,166,74750,2,0,L|110:203,1,40,8|8,1:3|1:3,0:0:0:0:
19,28,74902,6,0,P|112:39|179:69,1,143.999995605469,4|0,3:0|0:0,0:0:0:0:
231,73,75207,2,0,P|268:21|311:-4,1,95.9999970703126,2|8,0:0|0:3,0:0:0:0:
246,321,75511,6,0,P|209:269|166:244,1,95.9999970703126,10|0,0:0|0:0,0:0:0:0:
478,210,75816,6,0,B|370:223|407:168|291:179,1,191.999994140625,6|8,3:1|0:3,0:0:0:0:
125,368,76273,5,8,0:3:0:0:
78,304,76425,1,2,0:0:0:0:
9,274,76577,1,8,0:3:0:0:
72,32,76729,6,0,B|89:77|89:77|90:80,1,47.9999985351563,10|0,0:0|0:0,0:0:0:0:
91,87,77034,6,0,B|105:52|105:52|115:14,1,47.9999985351563,2|0,0:0|0:0,0:0:0:0:
179,22,77338,5,4,3:0:0:0:
179,22,77491,1,8,0:3:0:0:
24,148,77643,5,2,0:0:0:0:
93,178,77795,1,8,0:3:0:0:
140,242,77948,2,0,P|222:271|238:374,1,191.999994140625,10|6,0:0|3:1,0:0:0:0:
241,365,78557,6,0,P|235:336|244:300,1,60.0000022888184,2|8,0:0|0:3,0:0:0:0:
299,256,78861,1,6,3:1:0:0:
266,1,79166,6,0,P|272:30|263:66,1,60.0000022888184,8|0,0:0|0:0,0:0:0:0:
0,163,79775,6,0,B|100:140|116:211|214:184,1,191.999994140625,2|8,3:2|0:3,0:0:0:0:
86,75,80232,6,0,L|94:-7,1,60.0000022888184,2|0,0:1|0:0,0:0:0:0:
91,15,80384,2,0,P|113:48|102:110,1,90.0000034332277,8|0,0:0|0:0,0:0:0:0:
190,115,80689,6,0,B|227:56|325:7|379:17|329:56|329:56|323:63|323:63|321:120,1,240.000009155274,2|0,3:2|0:0,0:0:0:0:
311,184,81146,6,0,P|278:172|267:138,1,60.0000022888184,2|0,0:1|0:0,0:0:0:0:
273,146,81298,2,0,P|306:158|317:192,1,60.0000022888184,8|0,0:3|0:0,0:0:0:0:
355,245,81450,1,2,0:1:0:0:
512,26,81602,6,0,P|466:127|457:229,1,180.000006866455,8|0,0:1|0:0,0:0:0:0:
433,267,81907,2,0,P|445:300|457:323,1,48,2|0,0:0|0:0,0:0:0:0:
244,344,82212,6,0,B|194:311|128:392|30:365,1,191.999994140625,2|8,3:2|0:3,0:0:0:0:
115,214,82668,5,2,0:1:0:0:
191,264,82821,2,0,P|191:216|201:163,1,90.0000034332277,8|0,0:0|0:0,0:0:0:0:
187,99,83125,6,0,B|150:99|120:114|136:170|103:202|52:225|-9:140|69:105,1,240.000009155274,2|0,3:2|0:0,0:0:0:0:
99,0,83582,6,0,P|95:29|96:59,1,60.0000022888184,2|0,0:1|0:0,0:0:0:0:
197,174,83734,1,8,3:0:0:0:
309,18,83887,6,0,P|312:47|311:77,1,60.0000022888184,2|0,0:1|0:0,0:0:0:0:
311,77,84039,2,0,P|300:30|315:-19,1,80,8|0,0:1|0:0,0:0:0:0:
386,134,84344,5,8,1:3:0:0:
386,134,84420,1,8,1:3:0:0:
386,134,84496,1,8,1:3:0:0:
245,288,84648,6,0,B|296:241|308:185|312:196|368:262|422:265,1,207.999990478516,2|8,3:2|0:3,0:0:0:0:
473,383,85105,6,0,P|476:328|491:259,1,103.999995239258,2|8,0:1|0:0,0:0:0:0:
201,356,85562,6,0,B|98:318|95:388|24:390|-21:365,1,207.999990478516,2|0,3:2|0:0,0:0:0:0:
103,215,86019,6,0,P|95:254|89:291,1,60.0000022888184,2|8,0:1|0:3,0:0:0:0:
84,283,86323,2,0,P|76:244|70:207,1,60.0000022888184,2|0,0:1|0:0,0:0:0:0:
68,91,86476,6,0,B|89:-14|-6:22|12:95|51:145|104:162|169:133|148:93,1,272.000005187988,8|2,0:1|0:0,0:0:0:0:
266,4,87085,6,0,P|260:77|250:212,1,191.999994140625,2|8,3:2|0:3,0:0:0:0:
206,259,87542,1,2,0:1:0:0:
287,383,87694,6,0,P|282:334|280:282,1,90.0000034332277,8|0,0:0|0:0,0:0:0:0:
349,251,87998,6,0,B|421:256|469:340|469:340|459:359|432:307|374:333,1,240.000009155274,2|0,3:2|0:0,0:0:0:0:
297,182,88455,6,0,P|296:152|311:121,1,60.0000022888184,2|0,0:1|0:0,0:0:0:0:
323,123,88608,2,0,P|343:100|375:88,1,60.0000022888184,8|0,3:0|0:0,0:0:0:0:
437,120,88760,5,2,0:1:0:0:
441,125,88912,1,8,0:1:0:0:
307,335,89217,5,8,1:3:0:0:
307,335,89293,1,8,1:3:0:0:
307,335,89369,1,8,1:3:0:0:
51,347,89521,6,0,P|128:340|162:235,1,180.000006866455,0|0,3:0|0:0,0:0:0:0:
162,249,89826,2,0,P|108:225|83:268,1,120.000004577637,2|0,0:0|0:0,0:0:0:0:
152,356,90130,5,10,0:0:0:0:
152,356,90283,1,0,0:0:0:0:
222,128,90435,6,0,B|84:101|167:173|-31:146,1,204.000003890991,2|0,3:2|0:0,0:0:0:0:
23,151,90740,6,0,L|35:80,2,60.0000022888184,2|0|2,0:0|0:0|0:0,0:0:0:0:
89,231,91196,6,0,L|101:160,1,60.0000022888184
189,45,91349,1,8,0:1:0:0:
194,48,91653,2,0,P|237:27|290:28,1,90.0000034332277,2|0,0:0|0:0,0:0:0:0:
353,10,91958,6,0,P|306:91|310:181,1,180.000006866455,0|0,3:0|0:0,0:0:0:0:
383,209,92262,6,0,P|410:193|448:200,1,60.0000022888184,2|0,0:0|0:0,0:0:0:0:
443,205,92415,2,0,P|473:212|496:243,1,60.0000022888184
482,308,92567,5,10,0:0:0:0:
477,313,92871,2,0,B|418:302|411:333|357:328,1,120,2|0,3:2|0:0,0:0:0:0:
291,371,93176,5,2,0:0:0:0:
291,371,93252,1,0,0:0:0:0:
219,58,93481,6,0,B|208:188|254:108|230:249,1,180.000006866455,2|0,3:2|0:0,0:0:0:0:
232,234,93785,6,0,P|271:224|295:164,1,90.0000034332277,8|0,0:1|0:0,0:0:0:0:
307,61,94090,6,0,L|296:7,1,30.0000011444092,8|8,1:3|1:3,0:0:0:0:
310,20,94242,2,0,L|315:49,1,30.0000011444092,8|8,1:3|1:3,0:0:0:0:
398,97,94394,6,0,B|333:93|333:93|250:70|250:70|162:64,1,204.000003890991,0|0,3:0|0:0,0:0:0:0:
197,66,94699,6,0,P|159:85|163:136,1,68.0000012969971,10|0,0:3|0:0,0:0:0:0:
188,178,94851,1,2,0:0:0:0:
193,184,95003,6,0,P|224:254|226:330,1,136.000002593994,10|2,0:0|0:0,0:0:0:0:
0,384,95308,6,0,B|21:281|104:285|140:274|116:200|120:161,1,204.000003890991,0|0,3:2|0:0,0:0:0:0:
65,173,95613,1,0,0:0:0:0:
76,319,95765,5,2,0:0:0:0:
128,235,95917,1,2,0:0:0:0:
116,35,96069,6,0,B|109:66|109:66|108:103,1,68.0000012969971,2|0,0:0|0:0,0:0:0:0:
406,169,96222,6,0,B|293:149|324:196|228:184,1,180.000006866455,8|0,0:1|0:0,0:0:0:0:
156,162,96526,1,2,0:0:0:0:
156,162,96831,6,0,P|194:284|207:355,1,180.000006866455,0|0,3:0|0:0,0:0:0:0:
219,372,97135,2,0,P|228:293|298:263,1,143.999995605469,2|0,0:0|0:0,0:0:0:0:
355,278,97440,6,0,B|377:272|377:272|336:250,1,47.9999985351563,10|0,0:0|0:0,0:0:0:0:
251,179,97668,5,0,0:0:0:0:
251,179,97745,2,0,P|270:91|299:5,1,180.000006866455,2|0,3:2|0:0,0:0:0:0:
306,99,98049,5,2,0:0:0:0:
83,266,98201,2,0,P|68:240|75:211,1,60.0000022888184,2|0,0:0|0:0,0:0:0:0:
136,169,98354,6,0,P|165:111|44:97,1,180.000006866455,2|0,3:2|0:0,0:0:0:0:
37,117,98658,5,8,0:1:0:0:
37,117,98734,1,0,0:0:0:0:
256,357,99267,6,0,B|381:343|349:398|457:372,1,180.000006866455,2|0,3:2|0:0,0:0:0:0:
492,332,99572,5,8,0:3:0:0:
407,266,99724,1,2,0:1:0:0:
486,133,99877,6,0,P|481:192|482:255,1,120.000004577637,8|2,0:0|3:2,0:0:0:0:
481,252,100333,6,0,P|398:239|376:148,1,180.000006866455
310,109,100638,5,2,0:1:0:0:
348,42,100790,1,8,0:3:0:0:
354,243,100943,5,2,0:1:0:0:
354,243,101095,2,0,B|229:229|261:284|153:258,1,180.000006866455,8|0,0:1|0:0,0:0:0:0:
121,318,101399,5,2,0:0:0:0:
17,11,101704,6,0,B|101:-1|204:54|117:125,1,180.000006866455,2|0,3:2|0:0,0:0:0:0:
101,147,102009,5,8,0:3:0:0:
156,212,102161,2,0,L|162:263,1,30.0000011444092,2|0,0:1|0:0,0:0:0:0:
11,178,102313,6,0,P|22:115|24:87,1,90.0000034332277,8|0,0:0|0:0,0:0:0:0:
23,89,102618,5,2,3:2:0:0:
235,173,102770,1,0,0:0:0:0:
188,109,102922,5,0,0:0:0:0:
129,310,103075,1,2,0:1:0:0:
210,296,103227,6,0,P|179:238|93:194,1,143.999995605469,8|0,3:0|0:0,0:0:0:0:
53,246,103531,5,8,0:1:0:0:
447,188,103836,5,8,1:3:0:0:
447,188,103912,1,8,1:3:0:0:
447,188,103988,1,8,1:3:0:0:
334,359,104141,6,0,P|365:301|505:295,1,191.999994140625,2|8,3:2|0:3,0:0:0:0:
359,254,104597,5,2,0:1:0:0:
480,363,104750,2,0,P|482:311|497:253,1,90.0000034332277,8|0,0:0|0:0,0:0:0:0:
489,273,105054,5,2,3:2:0:0:
341,348,105207,6,0,P|249:349|205:263,1,180.000006866455
146,234,105511,5,2,0:1:0:0:
186,158,105663,1,8,0:3:0:0:
118,1,105816,5,2,0:1:0:0:
118,1,105968,2,0,P|70:67|29:216,1,180.000006866455,8|0,0:1|0:0,0:0:0:0:
62,234,106273,1,2,0:0:0:0:
335,382,106577,6,0,P|287:316|246:167,1,180.000006866455,2|0,3:2|0:0,0:0:0:0:
303,165,106882,5,8,0:3:0:0:
251,96,107034,1,2,0:1:0:0:
401,11,107186,6,0,P|332:13|321:69,1,120.000004577637,8|0,0:0|0:0,0:0:0:0:
427,242,107491,6,0,L|435:169,1,60.0000022888184,2|0,3:2|0:0,0:0:0:0:
512,200,107643,2,0,L|273:256,1,240.000009155274,0|2,0:0|0:1,0:0:0:0:
119,165,108100,5,8,3:0:0:0:
194,187,108252,1,2,0:1:0:0:
142,362,108404,6,0,L|134:332,2,30.0000011444092,8|0|0,0:1|0:0|0:0,0:0:0:0:
260,1,109014,5,0,0:0:0:0:
230,73,109166,1,8,0:3:0:0:
266,272,109318,6,0,P|322:280|340:182,1,143.999995605469,8|0,0:3|0:0,0:0:0:0:
357,210,109623,2,0,P|245:237|278:370,1,240,8|0,3:2|0:0,0:0:0:0:
334,366,109927,6,0,P|293:245|279:106,1,240,0|0,3:0|0:0,0:0:0:0:
326,77,110232,5,2,0:0:0:0:
394,115,110384,1,0,0:0:0:0:
510,9,110536,6,0,L|503:49,1,30.0000011444092
432,35,110689,1,2,0:0:0:0:
512,172,110841,5,10,0:1:0:0:
343,218,110993,1,2,0:0:0:0:
167,132,111146,6,0,P|168:87|178:36,1,90.0000034332277,2|0,0:0|0:0,0:0:0:0:
80,79,111450,6,0,P|170:74|254:106,1,180.000006866455,0|0,3:0|0:0,0:0:0:0:
261,182,111755,6,0,P|262:211|257:242,1,60.0000022888184,2|0,0:0|0:0,0:0:0:0:
201,383,111907,1,0,0:0:0:0:
0,257,112059,6,0,B|42:251|42:251|100:281,1,90.0000034332277,10|0,0:0|0:0,0:0:0:0:
103,344,112364,6,0,P|169:302|135:178,1,180.000006866455,2|0,3:2|0:0,0:0:0:0:
102,166,112668,5,2,0:0:0:0:
152,22,112821,1,0,0:0:0:0:
40,56,112973,6,0,P|146:47|249:105,1,215.999993408203,2|0,3:2|0:0,0:0:0:0:
312,60,113278,1,10,0:1:0:0:
205,371,113582,5,8,1:3:0:0:
205,371,113658,1,8,1:3:0:0:
205,371,113734,1,8,1:3:0:0:
268,320,113887,5,0,3:0:0:0:
360,357,114039,1,0,0:0:0:0:
512,314,114191,6,0,P|486:273|407:295,1,120.000004577637,2|0,0:0|0:0,0:0:0:0:
438,364,114496,6,0,P|421:277|382:148,1,180.000006866455,10|0,0:0|0:0,0:0:0:0:
334,119,114800,6,0,L|318:168,1,40,2|0,3:2|0:0,0:0:0:0:
447,133,114953,2,0,L|419:101,1,40
246,42,115105,6,0,B|159:17|129:75|43:60,1,180.000006866455,2|0,0:0|0:0,0:0:0:0:
26,122,115410,5,2,0:0:0:0:
138,174,115562,1,0,0:0:0:0:
75,243,115714,6,0,P|66:297|66:373,1,120.000004577637,10|2,0:1|0:0,0:0:0:0:
273,121,116323,6,0,B|376:92|418:169|490:137,1,204.000003890991,0|0,3:0|0:0,0:0:0:0:
501,76,116628,5,2,0:0:0:0:
360,213,116780,1,0,0:0:0:0:
434,251,116932,5,10,0:0:0:0:
391,118,117085,1,0,0:0:0:0:
262,264,117237,6,0,P|147:228|66:228,1,180.000006866455,2|0,3:2|0:0,0:0:0:0:
25,266,117542,5,2,0:0:0:0:
74,335,118760,6,0,P|179:347|185:189,1,280,4|0,0:3|0:0,0:0:0:0:
202,203,119369,2,0,P|188:232|200:280,1,60.0000022888184,8|0,0:0|0:0,0:0:0:0:
365,384,119674,6,0,P|352:313|328:206,1,180.000006866455,6|0,3:1|0:0,0:0:0:0:
397,161,119978,6,0,P|292:173|286:15,1,280,2|0,0:0|0:0,0:0:0:0:
269,29,120587,2,0,P|283:58|271:106,1,60.0000022888184,10|0,0:0|0:0,0:0:0:0:
0,190,120892,5,10,0:3:0:0:
71,157,121196,6,0,L|268:192,1,180.000006866455,6|0,3:0|0:0,0:0:0:0:
314,228,121501,5,2,0:0:0:0:
468,191,121653,1,10,0:3:0:0:
392,370,121806,6,0,P|389:315|410:237,1,120,10|0,0:0|0:0,0:0:0:0:
385,179,122110,5,6,3:1:0:0:
385,179,122186,1,0,0:0:0:0:
225,359,122415,6,0,P|191:290|111:234,1,160,2|6,0:0|3:1,0:0:0:0:
4,369,122871,6,0,P|28:311|84:312,1,120,0|10,0:0|0:0,0:0:0:0:
78,309,123328,6,0,P|59:281|5:272,1,90.0000034332277,8|8,1:3|1:3,0:0:0:0:
89,206,123633,6,0,B|194:183|137:250|297:216,1,180.000006866455,6|0,3:0|0:0,0:0:0:0:
319,167,123937,5,2,0:0:0:0:
274,35,124090,1,10,0:3:0:0:
442,116,124242,6,0,P|401:79|331:91,1,120,10|0,0:0|0:0,0:0:0:0:
240,208,124547,5,6,3:1:0:0:
240,208,124699,2,0,L|247:260,1,40
350,292,124851,6,0,P|411:309|404:221,1,180.000006866455,10|0,0:3|0:0,0:0:0:0:
406,221,125156,6,0,P|390:246|395:286,1,60.0000022888184,10|0,0:3|0:0,0:0:0:0:
256,368,125308,6,0,P|201:368|215:308,1,120.000004577637,2|8,0:0|0:0,0:0:0:0:
264,3,125765,6,0,P|257:56|259:118,1,90.0000034332277,2|0,0:0|0:0,0:0:0:0:
200,153,126069,6,0,P|133:104|42:92,1,120.000004577637,6|10,3:0|0:3,0:0:0:0:
29,126,126298,1,0,0:0:0:0:
29,126,126374,1,2,0:0:0:0:
63,222,126526,1,8,0:3:0:0:
23,299,126679,6,0,P|90:250|207:246,1,180.000006866455,10|0,0:0|0:0,0:0:0:0:
253,262,126983,6,0,P|235:318|180:316,1,120.000004577637,6|8,3:1|0:3,0:0:0:0:
129,86,127288,6,0,P|207:112|277:206,1,180.000006866455,2|0,0:0|0:0,0:0:0:0:
392,255,127592,6,0,P|359:253|349:199,1,71.9999978027344,6|0,3:1|0:0,0:0:0:0:
228,90,127745,1,0,0:0:0:0:
269,26,127897,5,10,0:0:0:0:
510,96,128201,6,0,P|448:80|404:76,1,90.0000034332277,8|8,1:3|1:3,0:0:0:0:
370,1,128506,6,0,P|399:101|411:197,1,180.000006866455,6|0,3:0|0:0,0:0:0:0:
469,226,128811,5,2,0:0:0:0:
390,315,128963,1,8,0:3:0:0:
477,354,129115,6,0,P|460:315|368:330,1,120,10|0,0:0|0:0,0:0:0:0:
302,361,129420,6,0,P|312:308|314:227,1,120.000004577637,6|8,3:1|0:3,0:0:0:0:
180,18,129724,2,0,P|165:98|166:210,1,180.000006866455,2|0,0:0|0:0,0:0:0:0:
68,237,130029,6,0,P|178:228|193:352,1,215.999993408203,2|0,0:0|0:0,0:0:0:0:
175,383,130333,1,10,0:0:0:0:
13,104,130638,6,0,P|42:135|104:127,1,90.0000034332277,2|0,0:0|0:0,0:0:0:0:
146,187,130943,6,0,P|190:134|305:54,1,180.000006866455,4|0,3:0|0:0,0:0:0:0:
278,67,131247,6,0,P|243:68|219:41,1,60.0000022888184,2|0,0:0|0:0,0:0:0:0:
166,97,131399,1,8,0:3:0:0:
381,197,131552,5,10,0:0:0:0:
387,203,131856,2,0,B|454:151|438:57|397:3|345:66|342:150,1,240.000009155274,6|8,3:1|0:3,0:0:0:0:
294,160,132313,5,8,0:3:0:0:
379,310,132465,2,0,P|454:258|483:245,1,120.000004577637,6|0,3:1|0:0,0:0:0:0:
499,174,132770,5,10,0:0:0:0:
134,358,133075,2,0,P|94:326|43:301,1,90.0000034332277,8|8,1:3|1:3,0:0:0:0:
25,236,133379,5,4,3:0:0:0:
144,268,133531,5,8,0:3:0:0:
216,235,133684,1,2,0:0:0:0:
350,268,133836,6,0,L|357:229,1,30.0000011444092,8|0,0:3|0:0,0:0:0:0:
306,179,133988,6,0,P|364:245|398:354,1,180.000006866455,10|0,0:0|0:0,0:0:0:0:
470,349,134293,5,6,3:1:0:0:
439,204,134445,5,8,0:3:0:0:
484,144,134597,2,0,L|490:101,1,30.0000011444092,8|0,0:3|0:0,0:0:0:0:
396,8,134750,5,8,0:3:0:0:
475,36,134902,2,0,B|401:25|365:63|311:78|275:72,1,180.000006866455,2|0,0:0|0:0,0:0:0:0:
238,123,135207,5,10,0:0:0:0:
42,10,135511,6,0,P|54:54|63:123,1,90.0000034332277,2|0,0:0|0:0,0:0:0:0:
138,122,135816,6,0,B|51:102|12:180|11:249|96:258|117:180,1,215.999993408203,4|0,3:0|0:0,0:0:0:0:
140,333,136120,2,0,P|155:259|192:175,1,143.999995605469,2|8,0:0|0:3,0:0:0:0:
469,49,136425,6,0,P|379:97|290:214,1,215.999993408203,10|0,0:0|0:0,0:0:0:0:
273,362,136729,6,0,P|268:249|249:50,1,264.000008056641,6|0,3:1|0:0,0:0:0:0:
225,29,137034,1,2,0:0:0:0:
36,342,137948,6,0,P|16:348|41:346,1,88.000002685547,10|0,0:0|0:0,0:0:0:0:
488,164,138252,6,0,L|416:182,1,60.0000022888184,6|0,3:2|0:0,0:0:0:0:
434,265,138404,2,0,L|362:247,1,60.0000022888184,2|0,0:2|0:0,0:0:0:0:
220,211,138557,1,14,0:2:0:0:
127,160,138709,6,0,B|180:127|179:59|179:59|212:122|274:124,1,240.000009155274,2|2,0:2|3:2,0:0:0:0:
241,287,139166,2,0,P|234:273|219:198,1,80,14|2,0:2|0:2,0:0:0:0:
404,15,139470,6,0,P|398:49|362:70,1,60.0000022888184,6|0,3:2|0:0,0:0:0:0:
512,100,139623,2,0,P|502:108|436:94,1,60.0000022888184,2|0,3:2|0:0,0:0:0:0:
300,24,139775,1,14,0:2:0:0:
370,169,139926,5,2,0:2:0:0:
370,169,140003,2,0,P|385:237|389:323,1,120.000004577637,2|0,0:0|0:0,0:0:0:0:
338,351,140231,1,2,3:2:0:0:
252,271,140384,6,0,B|393:240|317:359|491:324,1,240.000009155274,14|6,0:2|3:2,0:0:0:0:
236,384,140841,1,2,0:2:0:0:
150,325,140993,6,0,P|161:284|150:219,1,60.0000022888184,14|0,0:2|0:0,0:0:0:0:
38,133,141146,2,0,P|55:235|69:271,1,120.000004577637,2|6,0:2|0:2,0:0:0:0:
188,65,141450,1,2,3:2:0:0:
40,36,141602,6,0,B|105:64|105:64|124:130|124:130|222:173,1,204.000003890991,14|0,0:2|0:0,0:0:0:0:
247,55,141907,6,0,L|145:74,1,60.0000022888184,6|0,3:2|0:0,0:0:0:0:
323,142,142059,2,0,L|221:123,1,60.0000022888184,2|0,3:2|0:0,0:0:0:0:
314,7,142212,1,14,0:2:0:0:
408,149,142364,6,0,B|486:120|478:25|413:-22|355:33|392:94,1,240.000009155274,2|2,0:2|3:2,0:0:0:0:
503,262,142821,2,0,B|497:247|475:232|475:232|466:235|466:235|474:222|474:222|468:211|468:211|357:149|284:153|284:153|259:155|204:170,1,300,14|0,0:3|0:0,0:0:0:0:
185,197,143125,6,0,P|173:174|182:128,1,60.0000022888184,6|0,3:2|0:0,0:0:0:0:
70,125,143278,2,0,P|83:98|109:85,1,60.0000022888184,2|0,3:2|0:0,0:0:0:0:
258,156,143430,1,14,0:2:0:0:
266,290,143582,5,2,0:2:0:0:
266,290,143658,2,0,P|188:275|120:275,1,120.000004577637,2|0,0:0|0:0,0:0:0:0:
65,309,143887,1,2,3:2:0:0:
138,381,144039,6,0,P|151:302|-7:251,1,240.000009155274,14|6,0:2|3:2,0:0:0:0:
218,143,144496,1,2,0:2:0:0:
101,31,144648,6,0,P|106:66|108:133,1,60.0000022888184,14|0,0:2|0:0,0:0:0:0:
314,49,144800,2,0,P|244:49|161:32,1,120.000004577637,2|6,0:2|0:2,0:0:0:0:
28,232,145105,1,2,3:2:0:0:
28,232,145181,2,0,P|72:226|104:216,1,60.0000022888184,0|14,0:0|0:2,0:0:0:0:
86,221,145562,6,0,L|63:304,1,60.0000022888184,6|0,3:2|0:0,0:0:0:0:
153,293,145714,2,0,L|167:376,1,60.0000022888184,2|0,0:2|0:0,0:0:0:0:
226,251,145866,1,14,0:2:0:0:
369,370,146019,6,0,B|304:342|304:342|285:276|285:276|187:233,1,204.000003890991,2|0,0:2|0:0,0:0:0:0:
153,293,146323,1,2,3:2:0:0:
390,270,146476,6,0,B|417:166|417:166|377:274,1,204.000003890991,14|0,0:2|0:0,0:0:0:0:
376,275,146780,6,0,P|436:283|498:299,1,120.000004577637,6|2,3:2|3:2,0:0:0:0:
505,29,147085,1,14,0:2:0:0:
419,167,147237,6,0,P|359:159|321:69,1,136.000002593994,2|6,0:2|0:2,0:0:0:0:
239,92,147542,2,0,P|239:65|279:36,1,68.0000012969971,2|0,3:2|0:0,0:0:0:0:
324,93,147694,1,14,0:2:0:0:
39,160,147846,1,8,0:1:0:0:
66,116,147922,1,8,0:1:0:0:
25,78,147998,6,0,P|50:165|47:232,1,136.000002593994,4|0,3:2|0:0,0:0:0:0:
129,361,148303,1,14,0:2:0:0:
33,308,148455,2,0,P|96:287|140:236,1,136.000002593994,2|4,0:2|0:0,0:0:0:0:
313,370,148760,2,0,P|366:283|376:183,1,204.000003890991,2|0,3:2|0:0,0:0:0:0:
407,100,149064,6,0,P|465:126|462:190,1,136.000002593994,2|4,0:2|3:2,0:0:0:0:
237,104,149369,2,0,P|225:54|308:13,1,136.000002593994,2|12,0:2|0:2,0:0:0:0:
376,183,149674,2,0,P|290:207|227:250,1,136.000002593994,2|4,0:2|0:0,0:0:0:0:
313,369,149978,1,2,3:2:0:0:
313,369,150054,2,0,P|223:316|149:318,1,136.000002593994,2|0,0:0|0:0,0:0:0:0:
117,366,150283,1,2,0:2:0:0:
69,234,150435,5,4,3:2:0:0:
88,145,150587,2,0,L|116:-4,1,136.000002593994,2|12,0:2|0:2,0:0:0:0:
315,74,150892,2,0,P|248:91|170:130,1,136.000002593994,2|4,0:2|0:0,0:0:0:0:
473,39,151196,1,2,3:2:0:0:
437,13,151273,2,0,P|416:77|406:160,1,136.000002593994,2|0,0:0|0:0,0:0:0:0:
494,177,151501,6,0,B|456:213|463:268|463:268|414:226|369:235,1,204.000003890991,2|0,0:2|0:0,0:0:0:0:
406,144,151806,2,0,P|393:129|402:144,2,68.0000012969971,2|0|14,0:2|0:0|0:2,0:0:0:0:
389,344,152110,2,0,P|304:309|231:305,1,136.000002593994,2|4,0:2|0:0,0:0:0:0:
50,255,152415,2,0,P|63:285|70:326,1,68.0000012969971,2|0,3:2|0:0,0:0:0:0:
154,299,152567,2,0,P|140:267|134:234,1,68.0000012969971,12|0,0:2|0:0,0:0:0:0:
78,167,152719,6,0,P|58:155|85:159,1,75.9999979705811,2|0,0:2|0:0,0:0:0:0:
89,169,152871,6,0,B|201:184|201:184|203:187|203:187|333:206,1,227.999993911743,4|0,3:2|0:0,0:0:0:0:
336,296,153176,2,0,B|339:305|339:305|287:346|287:346|254:291|254:291|264:280,1,151.999995941162,14|0,3:2|0:0,0:0:0:0:
298,109,153481,2,0,B|294:99|294:99|347:59|347:59|380:114|380:114|370:125,1,151.999995941162,6|0,0:2|3:2,0:0:0:0:
488,280,153785,2,0,B|493:271|493:271|518:95,1,151.999995941162,14|0,0:2|0:0,0:0:0:0:
431,50,154090,6,0,B|424:16|424:16|506:3|506:3|516:55,1,151.999995941162,6|0,3:2|0:0,0:0:0:0:
377,213,154394,2,0,B|370:246|370:246|288:233|288:233|295:199,1,151.999995941162,14|0,3:2|0:0,0:0:0:0:
171,18,154699,1,6,0:2:0:0:
103,113,154851,1,0,3:2:0:0:
103,113,154927,2,0,B|177:104|177:104|179:105|179:105|277:92,1,151.999995941162,2|0,0:0|0:0,0:0:0:0:
315,39,155156,2,0,P|300:15|241:22,1,75.9999979705811,2|0,0:0|0:0,0:0:0:0:
78,193,155308,6,0,B|74:187|74:187|50:23,1,151.999995941162,4|0,3:2|0:0,0:0:0:0:
68,211,155613,2,0,B|72:217|72:217|96:381,1,151.999995941162,14|0,0:2|0:0,0:0:0:0:
295,296,155917,6,0,B|255:234|255:234|155:271,1,151.999995941162,6|0,0:2|3:2,0:0:0:0:
247,88,156222,1,14,0:2:0:0:
247,88,156298,2,0,B|287:150|287:150|387:113,1,151.999995941162
402,38,156526,6,0,P|416:202|434:283,1,227.999993911743,6|0,3:2|0:0,0:0:0:0:
512,296,156831,6,0,P|348:310|257:330,1,251.999992309571,14|0,3:2|0:0,0:0:0:0:
176,254,157135,6,0,P|141:195|268:216,1,292.799987937012,6|0,3:2|0:0,0:0:0:0:
262,328,157440,6,0,P|279:338|259:329,1,88.000002685547,14|0,3:3|0:0,0:0:0:0:
374,336,182852,5,0,3:2:0:0:
