osu file format v14

[General]
AudioFilename: audio.mp3
AudioLeadIn: 0
PreviewTime: 136882
Countdown: 0
SampleSet: Soft
StackLeniency: 0.5
Mode: 0
LetterboxInBreaks: 0
WidescreenStoryboard: 1

[Editor]
Bookmarks: 235,19717,39209,58702,78194,87940,97686,107416,117179,135131,135150,135169,135188,135208,135227,135246,135265,135284,135303,135322,135341,135360,135379,135398,135417,135436,136654,156174
DistanceSpacing: 1.2
BeatDivisor: 6
GridSize: 4
TimelineZoom: 3.099999

[Metadata]
Title:prozac
TitleUnicode:prozac
Artist:brakence
ArtistUnicode:brakence
Creator:Mimari
Version:riffy's hard
Source:
Tags:punk2 english hyper pop emo rap hyperpop glitchpop digicore trap jamesjan3 jamesjan riffy bakari hhjkl wetdog123 schoolboy komore mayflower i love ganyu sing
BeatmapID:3267112
BeatmapSetID:1573985

[Difficulty]
HPDrainRate:4
CircleSize:2.5
OverallDifficulty:6.5
ApproachRate:7.5
SliderMultiplier:1.5
SliderTickRate:1

[Events]
//Background and Video events
0,0,"i hate myself for it.jpeg",0,0
//Break Periods
2,157640,180676
//Storyboard Layer 0 (Background)
//Storyboard Layer 1 (Fail)
//Storyboard Layer 2 (Pass)
//Storyboard Layer 3 (Foreground)
//Storyboard Layer 4 (Overlay)
//Storyboard Sound Samples

[TimingPoints]
1806,304.568527918782,4,2,80,50,1,0
20993,-100,4,2,13,45,0,0
21069,-100,4,2,13,30,0,0
21146,-100,4,2,13,15,0,0
21298,-100,4,2,30,60,0,0
25638,-100,4,2,13,45,0,0
25714,-100,4,2,13,30,0,0
25790,-100,4,2,13,15,0,0
25866,-100,4,2,30,60,0,0
30740,-100,4,2,13,60,0,0
30816,-100,4,2,13,45,0,0
30892,-100,4,2,13,30,0,0
30968,-100,4,2,13,15,0,0
31044,-100,4,2,30,60,0,0
35384,-100,4,2,13,45,0,0
35460,-100,4,2,13,30,0,0
35536,-100,4,2,13,15,0,0
35613,-100,4,2,30,60,0,0
40257,-100,4,2,13,45,0,0
40333,-100,4,2,13,30,0,0
40410,-100,4,2,13,15,0,0
40486,-100,4,2,30,60,0,0
40790,-100,4,2,12,60,0,0
43227,-100,4,2,13,60,0,0
45435,-100,4,2,13,45,0,0
45511,-100,4,2,13,30,0,0
45587,-100,4,2,13,15,0,0
45663,-100,4,2,12,60,0,0
48100,-100,4,2,13,60,0,0
50080,-100,4,2,13,45,0,0
50156,-100,4,2,13,30,0,0
50232,-100,4,2,13,15,0,0
50536,-100,4,2,12,60,0,0
52973,-100,4,2,13,60,0,0
55181,-100,4,2,13,45,0,0
55257,-100,4,2,13,30,0,0
55333,-100,4,2,13,15,0,0
55410,-100,4,2,12,60,0,0
57846,-100,4,2,13,60,0,0
59826,-100,4,2,13,45,0,0
59902,-100,4,2,13,30,0,0
59978,-100,4,2,13,15,0,0
60283,-100,4,2,12,60,0,0
62720,-100,4,2,13,60,0,0
64928,-100,4,2,13,45,0,0
65004,-100,4,2,13,30,0,0
65080,-100,4,2,13,15,0,0
65156,-100,4,2,12,60,0,0
67593,-100,4,2,13,60,0,0
69800,-100,4,2,13,45,0,0
69877,-100,4,2,13,30,0,0
69953,-100,4,2,13,15,0,0
70029,-100,4,2,12,60,0,0
72466,-100,4,2,13,60,0,0
74674,-100,4,2,13,45,0,0
74750,-100,4,2,13,30,0,0
74826,-100,4,2,13,15,0,0
74903,-100,4,2,12,60,0,0
77339,-100,4,2,13,60,0,0
79166,-100,4,2,1,60,0,0
79319,-100,4,2,13,45,0,0
79395,-100,4,2,13,30,0,0
79471,-100,4,2,13,15,0,0
79775,-100,4,2,40,60,0,0
81907,-100,4,2,13,60,0,0
82212,-100,4,2,40,60,0,0
84344,-100,4,2,13,60,0,0
84420,-100,4,2,13,45,0,0
84496,-100,4,2,13,30,0,0
84572,-100,4,2,13,15,0,0
84648,-100,4,2,40,60,0,0
86780,-100,4,2,13,60,0,0
87085,-100,4,2,40,60,0,0
89217,-100,4,2,40,60,0,0
89293,-100,4,2,40,45,0,0
89369,-100,4,2,40,30,0,0
89445,-100,4,2,40,15,0,0
89521,-100,4,2,41,60,0,0
94090,-100,4,2,13,60,0,0
94166,-100,4,2,13,45,0,0
94242,-100,4,2,13,30,0,0
94318,-100,4,2,13,15,0,0
94394,-100,4,2,41,60,0,0
99267,-100,4,2,40,60,0,0
103836,-100,4,2,13,60,0,0
103912,-100,4,2,13,45,0,0
103988,-100,4,2,13,30,0,0
104064,-100,4,2,13,15,0,0
104141,-100,4,2,40,60,0,0
108709,-100,4,2,13,60,0,0
108785,-100,4,2,13,45,0,0
108861,-100,4,2,13,30,0,0
108937,-100,4,2,13,15,0,0
109014,-100,4,2,40,60,0,0
110232,-100,4,2,41,60,0,0
113582,-100,4,2,13,60,0,0
113658,-100,4,2,13,45,0,0
113734,-100,4,2,13,30,0,0
113811,-100,4,2,13,15,0,0
113887,-100,4,2,41,60,0,0
118760,-100,4,2,12,60,0,0
121197,-100,4,2,13,60,0,0
123405,-100,4,2,13,45,0,0
123481,-100,4,2,13,30,0,0
123557,-100,4,2,13,15,0,0
123633,-100,4,2,12,60,0,0
126070,-100,4,2,13,60,0,0
128050,-100,4,2,13,45,0,0
128126,-100,4,2,13,30,0,0
128202,-100,4,2,13,60,0,0
128278,-100,4,2,13,45,0,0
128354,-100,4,2,13,30,0,0
128430,-100,4,2,13,15,0,0
128506,-100,4,2,12,60,0,0
130943,-100,4,2,13,60,0,0
133151,-100,4,2,13,45,0,0
133227,-100,4,2,13,30,0,0
133303,-100,4,2,13,15,0,0
133380,-100,4,2,12,60,0,0
135816,-100,4,2,13,60,0,0
137796,-100,4,2,13,45,0,0
137872,-100,4,2,13,30,0,0
137948,-100,4,2,99,75,0,0
138252,-71.4285714285714,4,2,1,75,0,1
142821,-133.333333333333,4,2,1,75,0,1
143125,-71.4285714285714,4,2,1,75,0,1
144648,-71.4285714285714,4,2,2,75,0,1
144953,-71.4285714285714,4,2,1,75,0,1
145105,-71.4285714285714,4,2,2,75,0,1
145257,-71.4285714285714,4,2,1,75,0,1
147085,-71.4285714285714,4,2,2,75,0,1
147389,-71.4285714285714,4,2,1,75,0,1
147998,-71.4285714285714,4,2,2,83,0,1
156222,-62.5,4,2,2,83,0,1
157440,-100,4,2,2,83,0,0
182852,-86.2068965517241,4,2,98,30,0,0

[Colours]
Combo1 : 140,115,49
Combo2 : 65,101,105
Combo3 : 132,64,64

[HitObjects]
104,88,2567,6,0,P|60:120|124:184,1,150,2|2,0:1|0:1,0:0:0:0:
172,140,3024,2,0,P|260:128|356:124,2,150,2|2|2,0:1|0:1|0:1,0:0:0:0:
44,304,3937,6,0,B|174:270|146:350|274:302,1,225,2|2,0:1|0:1,0:0:0:0:
316,232,4547,1,2,0:1:0:0:
324,224,5156,6,0,P|372:228|408:252,1,75,2|2,0:1|0:1,0:0:0:0:
440,320,5460,1,2,0:1:0:0:
176,368,5917,1,2,0:1:0:0:
244,108,6374,2,0,B|248:196|296:144|292:248,1,150,2|2,0:1|0:0,0:0:0:0:
288,248,7288,6,0,P|272:276|260:324,2,75,2|0|2,0:1|0:0|0:1,0:0:0:0:
300,68,7897,2,0,P|320:96|336:144,1,75,2|0,0:1|0:0,0:0:0:0:
196,252,8354,1,2,0:1:0:0:
0,92,8811,2,0,B|116:64|92:128|232:92,1,225,2|2,0:1|0:1,0:0:0:0:
272,20,9420,1,2,0:1:0:0:
496,100,10333,6,0,P|416:72|424:-12,1,150,2|2,0:1|0:1,0:0:0:0:
464,188,10943,1,10,0:1:0:0:
400,356,11247,2,0,P|437:280|519:298,2,150,2|2|2,0:1|0:2|0:2,0:0:0:0:
404,364,12161,2,0,L|248:336,1,150,10|2,0:1|0:1,0:0:0:0:
40,264,12770,6,0,P|36:308|128:360,1,150,2|2,0:1|0:1,0:0:0:0:
120,192,13379,1,10,0:1:0:0:
80,20,13684,2,0,P|84:64|-8:116,2,150,2|2|2,0:1|0:0|0:1,0:0:0:0:
100,200,14597,1,10,0:1:0:0:
260,116,14902,2,0,B|380:100|340:172|480:140,1,225,2|0,0:1|0:0,0:0:0:0:
512,56,15511,1,2,0:1:0:0:
512,56,15816,1,10,0:1:0:0:
448,232,16120,1,2,0:1:0:0:
156,132,16729,5,2,0:1:0:0:
156,132,17034,1,10,0:1:0:0:
228,328,17338,2,0,B|124:252|136:384|-4:304,2,225,2|0|10,0:1|0:0|0:1,0:0:0:0:
256,148,18557,2,0,B|375:217|363:85|467:161,1,225,2|0,0:1|0:0,0:0:0:0:
460,248,19166,1,2,0:1:0:0:
480,68,19470,1,10,0:1:0:0:
488,60,19775,6,0,B|368:129|380:-2|276:73,1,225,2|0,0:1|0:0,0:0:0:0:
196,112,20384,2,0,P|184:68|200:16,2,75,2|0|2,0:1|0:0|0:1,0:0:0:0:
336,224,20993,2,0,L|380:212,2,37.5,8|8|8,1:3|1:3|1:3,0:0:0:0:
152,344,21602,6,0,P|120:308|84:304,1,75,2|0,0:2|0:0,0:0:0:0:
24,356,21907,1,8,0:0:0:0:
112,200,22212,1,0,3:0:0:0:
28,40,22516,2,0,P|24:68|40:112,2,75,2|2|2,0:2|0:2|0:2,0:0:0:0:
36,40,23125,2,0,L|112:60,1,75,8|0,0:0|0:0,0:0:0:0:
196,88,23430,2,0,L|272:108,1,75,2|0,0:2|0:0,0:0:0:0:
352,136,23734,5,0,3:0:0:0:
488,256,24039,2,0,L|412:276,1,75,2|0,0:0|0:0,0:0:0:0:
328,304,24344,2,0,L|252:324,1,75,8|0,0:0|0:0,0:0:0:0:
172,352,24648,1,0,3:0:0:0:
56,322,24953,5,2,0:2:0:0:
64,332,25257,1,0,3:0:0:0:
64,332,25562,2,0,L|160:352,1,75,8|8,0:0|1:3,0:0:0:0:
224,368,25866,1,0,0:0:0:0:
224,368,26171,5,0,3:0:0:0:
396,320,26476,2,0,P|352:296|304:284,1,75,2|0,0:2|0:0,0:0:0:0:
336,200,26780,2,0,P|292:204|248:216,1,75,8|0,0:0|0:0,0:0:0:0:
184,168,27085,1,0,3:0:0:0:
192,80,27237,1,2,0:2:0:0:
256,20,27389,5,2,0:2:0:0:
256,20,27694,1,2,0:2:0:0:
436,32,27998,2,0,P|384:44|336:44,1,75,8|0,0:0|0:0,0:0:0:0:
356,144,28303,2,0,P|312:128|284:112,1,75,2|0,0:2|0:0,0:0:0:0:
197,124,28608,5,0,3:0:0:0:
194,114,28912,1,2,0:0:0:0:
191,107,29217,2,0,L|202:20,1,75,8|0,0:0|0:0,0:0:0:0:
99,87,29521,2,0,L|86:185,1,75,0|2,3:0|0:2,0:0:0:0:
10,67,29826,1,2,0:2:0:0:
4,58,30130,1,0,3:0:0:0:
0,51,30435,2,0,L|96:57,1,75,8|0,0:0|0:0,0:0:0:0:
164,64,30740,2,0,L|219:67,3,37.5,8|8|8|8,1:3|1:3|1:3|1:3,0:0:0:0:
245,74,31044,5,0,3:0:0:0:
375,188,31349,1,2,0:2:0:0:
384,201,31653,1,8,0:0:0:0:
392,212,31958,2,0,L|373:303,1,75,0|2,3:0|0:2,0:0:0:0:
357,373,32262,5,2,0:2:0:0:
357,373,32567,1,2,0:2:0:0:
357,373,32871,2,0,P|300:364|260:368,1,75,8|0,0:0|0:0,0:0:0:0:
12,381,33481,5,0,3:0:0:0:
125,241,33785,1,2,0:0:0:0:
22,92,34090,2,0,P|8:61|1:16,2,75,8|0|0,0:0|0:0|3:0,0:0:0:0:
108,117,34547,1,2,0:2:0:0:
169,51,34699,6,0,P|205:33|259:28,1,75,2|2,0:2|0:2,0:0:0:0:
320,65,35003,1,0,3:0:0:0:
493,17,35308,2,0,L|484:63,3,37.5,8|8|8|8,0:0|1:3|1:3|1:3,0:0:0:0:
477,98,35613,2,0,L|456:194,1,75
439,258,35917,5,0,3:0:0:0:
439,258,36222,1,2,0:2:0:0:
439,258,36526,2,0,P|404:269|348:272,1,75,8|0,0:0|0:0,0:0:0:0:
306,204,36831,2,0,L|313:160,1,37.5,0|0,3:0|0:0,0:0:0:0:
178,278,37135,5,2,0:2:0:0:
178,278,37440,1,2,0:2:0:0:
178,278,37745,2,0,P|226:304|249:345,1,75,8|0,0:0|0:0,0:0:0:0:
380,89,38354,5,0,3:0:0:0:
380,89,38658,1,2,0:0:0:0:
380,89,38963,2,0,L|388:12,1,75,8|0,0:0|0:0,0:0:0:0:
305,5,39267,1,0,3:0:0:0:
297,87,39420,1,2,0:2:0:0:
214,85,39572,5,2,0:2:0:0:
214,85,39877,1,0,3:0:0:0:
160,22,40029,2,0,P|97:18|31:83,1,150,0|8,0:0|1:3,0:0:0:0:
67,156,40486,2,0,L|49:237,1,75
89,310,40790,5,4,3:0:0:0:
270,183,41704,2,0,B|263:295|349:241|327:377,2,187.5,6|0|2,3:1|0:0|0:0,0:0:0:0:
341,127,42618,2,0,P|395:155|395:242,2,150,10|2|4,0:0|0:0|3:0,0:0:0:0:
164,160,43531,6,0,L|69:145,1,75,2|8,0:0|0:3,0:0:0:0:
43,70,43836,1,10,0:0:0:0:
43,70,44141,1,6,3:1:0:0:
19,233,44445,2,0,P|7:285|13:328,1,75,2|8,0:0|0:3,0:0:0:0:
79,361,44750,1,6,3:1:0:0:
231,305,45054,1,10,0:0:0:0:
392,363,45359,2,0,L|434:353,3,37.5,8|8|8|8,1:3|1:3|1:3|1:3,0:0:0:0:
465,347,45663,6,0,L|491:248,1,75,6|8,3:0|0:3,0:0:0:0:
512,189,45968,1,2,0:0:0:0:
505,181,46273,1,10,0:0:0:0:
498,174,46577,2,0,L|517:92,1,75,6|0,3:1|0:0,0:0:0:0:
466,24,46882,2,0,P|421:21|371:126,1,150,2|0,0:0|0:0,0:0:0:0:
282,60,47338,1,2,0:0:0:0:
200,20,47491,2,0,P|169:85|97:94,2,150,10|2|4,0:0|0:0|3:0,0:0:0:0:
275,183,48404,6,0,L|258:265,1,75,2|8,0:0|0:3,0:0:0:0:
192,316,48709,1,10,0:0:0:0:
17,272,49014,1,6,3:1:0:0:
192,316,49318,2,0,L|258:363,1,75,2|8,0:0|0:3,0:0:0:0:
340,336,49623,1,6,3:1:0:0:
511,374,49927,1,10,0:0:0:0:
457,201,50232,2,0,B|440:125|509:138|489:43,2,150,2|6|2,1:2|3:0|0:0,0:0:0:0:
276,210,51146,6,0,P|261:254|261:301,1,75,10|0,0:0|0:0,0:0:0:0:
319,349,51450,1,6,3:1:0:0:
172,243,51755,2,0,P|142:274|123:309,1,75,2|8,0:0|0:3,0:0:0:0:
87,382,52059,1,2,0:0:0:0:
1,223,52364,1,10,0:0:0:0:
161,141,52668,2,0,P|145:101|116:52,1,75,2|0,0:0|0:0,0:0:0:0:
53,24,52973,1,4,3:0:0:0:
90,200,53278,5,2,0:0:0:0:
90,200,53582,1,10,0:0:0:0:
90,200,53887,2,0,L|74:288,1,75,6|0,3:1|0:0,0:0:0:0:
59,361,54191,1,2,0:0:0:0:
235,324,54496,1,6,3:1:0:0:
408,278,54800,2,0,P|353:259|315:255,1,75,10|0,0:0|0:0,0:0:0:0:
289,179,55105,2,0,P|311:168|339:161,3,37.5,8|8|8|8,1:3|1:3|1:3|1:3,0:0:0:0:
367,153,55410,6,0,L|462:166,1,75,4|8,3:0|0:3,0:0:0:0:
463,76,55714,1,2,0:0:0:0:
284,48,56019,1,10,0:0:0:0:
109,88,56323,1,6,3:1:0:0:
132,266,56628,2,0,P|111:245|66:216,2,75,2|8|0,0:0|0:3|0:0,0:0:0:0:
217,235,57085,1,2,0:0:0:0:
298,273,57237,2,0,P|343:255|390:229,1,75,10|0,0:0|0:0,0:0:0:0:
430,159,57542,6,0,P|419:110|400:1,2,150,2|6|2,0:0|3:0|0:0,0:0:0:0:
495,220,58303,1,8,0:3:0:0:
440,291,58455,2,0,P|452:341|456:386,1,75,10|0,0:0|0:0,0:0:0:0:
336,314,58760,2,0,P|320:340|291:377,1,75,6|0,3:1|0:0,0:0:0:0:
215,289,59064,2,0,P|160:275|85:208,2,150,2|6|8,0:0|3:1|0:0,0:0:0:0:
315,269,61044,5,2,0:0:0:0:
234,229,61196,2,0,P|216:272|202:312,1,75,6|2,3:1|0:0,0:0:0:0:
130,347,61501,2,0,P|89:297|42:221,1,150,2|10,0:0|0:3,0:0:0:0:
156,84,62110,1,10,0:0:0:0:
332,48,62415,6,0,P|307:106|258:192,1,150,10|6,0:3|3:0,0:0:0:0:
176,198,62871,1,8,0:3:0:0:
220,276,63024,2,0,P|279:276|312:356,1,150,2|10,0:0|0:0,0:0:0:0:
401,328,63481,1,2,0:0:0:0:
484,361,63633,2,0,P|498:318|505:269,1,75,6|2,3:1|0:0,0:0:0:0:
464,207,63937,2,0,P|457:150|458:107,1,75,2|8,0:0|0:3,0:0:0:0:
488,47,64242,1,6,3:1:0:0:
488,47,64547,1,10,0:0:0:0:
488,47,64851,2,0,L|398:42,1,75,8|8,1:3|1:3,0:0:0:0:
322,44,65156,6,0,P|335:104|420:140,1,150,6|2,3:0|0:0,0:0:0:0:
468,209,65613,1,10,0:3:0:0:
407,275,65765,2,0,P|414:330|447:364,1,75,10|0,0:0|0:0,0:0:0:0:
311,292,66069,2,0,P|288:324|272:359,1,75,6|0,3:1|0:0,0:0:0:0:
180,287,66374,2,0,P|115:300|36:344,1,150,10|10,0:3|0:3,0:0:0:0:
21,251,66831,1,2,0:0:0:0:
13,161,66983,2,0,P|69:173|115:186,1,75,8|0,0:0|0:0,0:0:0:0:
172,204,67288,1,2,0:0:0:0:
178,201,67592,5,6,3:0:0:0:
183,195,67897,2,0,L|170:105,1,75,2|8,0:0|0:3,0:0:0:0:
159,31,68201,1,10,0:0:0:0:
319,112,68506,1,6,3:1:0:0:
481,34,68811,2,0,P|429:39|394:47,1,75,2|8,0:0|0:3,0:0:0:0:
448,143,69115,2,0,P|418:163|372:199,1,75,6|0,3:1|0:0,0:0:0:0:
425,308,69420,2,0,P|479:358|493:308,2,150,10|8|6,0:0|1:3|3:0,0:0:0:0:
255,249,70333,6,0,P|261:299|279:335,1,75,2|8,0:0|0:3,0:0:0:0:
345,372,70638,1,10,0:0:0:0:
345,372,70943,1,6,3:1:0:0:
162,350,71247,2,0,L|76:343,1,75,2|8,0:0|0:3,0:0:0:0:
60,257,71552,2,0,L|147:244,1,75,2|0,0:0|0:0,0:0:0:0:
193,178,71856,1,10,0:0:0:0:
193,178,72161,1,2,0:0:0:0:
59,58,72465,5,4,3:0:0:0:
59,58,72770,2,0,P|116:44|145:25,1,75,2|8,0:0|0:3,0:0:0:0:
218,18,73075,2,0,L|304:25,1,75,10|0,0:0|0:0,0:0:0:0:
400,72,73379,2,0,L|495:60,1,75,6|0,3:1|0:0,0:0:0:0:
386,88,73988,2,0,L|473:88,1,75,6|0,3:1|0:0,0:0:0:0:
368,109,74293,2,0,L|461:122,1,75,10|0,0:0|0:0,0:0:0:0:
499,188,74597,1,8,1:3:0:0:
491,192,74902,5,4,3:0:0:0:
482,197,75207,2,0,P|480:237|485:278,1,75,2|8,0:0|0:3,0:0:0:0:
506,358,75511,1,10,0:0:0:0:
506,358,75816,2,0,L|357:345,1,150,6|8,3:1|0:3,0:0:0:0:
207,243,76425,2,0,L|29:264,1,150,2|10,0:0|0:0,0:0:0:0:
312,160,77034,1,2,0:0:0:0:
182,68,77338,6,0,P|203:30|312:61,2,150,4|2|10,3:0|0:0|0:0,0:0:0:0:
399,180,78252,2,0,P|378:142|269:173,1,150,6|2,3:1|0:0,0:0:0:0:
213,313,78861,2,0,P|254:325|294:328,1,75,6|2,3:1|0:0,0:0:0:0:
356,271,79166,1,8,0:0:0:0:
356,271,79470,1,0,0:0:0:0:
130,219,79775,6,0,B|110:283|110:283|130:369,1,150,2|8,3:2|0:3,0:0:0:0:
69,295,80232,1,2,0:1:0:0:
9,228,80384,1,8,0:0:0:0:
16,231,80689,2,0,B|-2:151|-2:151|18:87,1,150,2|0,3:2|0:0,0:0:0:0:
102,53,81146,2,0,B|113:93|113:93|97:139,1,75,2|8,0:1|0:3,0:0:0:0:
184,160,81450,2,0,B|163:196|163:196|119:217,1,75,2|8,0:1|0:1,0:0:0:0:
127,209,81907,1,2,0:0:0:0:
120,206,82212,6,0,L|102:374,1,150,2|8,3:2|0:3,0:0:0:0:
193,347,82668,1,2,0:1:0:0:
282,332,82821,1,8,0:0:0:0:
287,340,83125,2,0,L|302:190,1,150,2|0,3:2|0:0,0:0:0:0:
316,101,83582,1,2,0:1:0:0:
333,12,83734,2,0,L|421:4,2,75,8|2|8,3:0|0:1|0:1,0:0:0:0:
153,32,84344,2,0,L|210:40,3,37.5,8|8|8|8,1:3|1:3|1:3|1:3,0:0:0:0:
223,67,84648,6,0,L|50:88,1,150,2|8,3:2|0:3,0:0:0:0:
35,167,85105,1,2,0:1:0:0:
0,255,85257,1,8,0:0:0:0:
0,255,85562,2,0,B|85:243|85:243|133:307,1,150,2|0,3:2|0:0,0:0:0:0:
94,138,86019,1,2,0:1:0:0:
96,147,86323,1,2,0:1:0:0:
190,181,86476,2,0,B|228:232|228:232|313:220,1,150,8|2,0:1|0:0,0:0:0:0:
468,127,87085,6,0,B|454:64|454:64|372:39,1,150,2|8,3:2|0:3,0:0:0:0:
285,16,87542,1,2,0:1:0:0:
312,101,87694,1,8,0:0:0:0:
312,101,87998,2,0,B|298:38|298:38|216:13,1,150,2|0,3:2|0:0,0:0:0:0:
129,37,88455,2,0,B|146:76|146:76|184:95,2,75,2|8|2,0:1|3:0|0:1,0:0:0:0:
43,8,88912,1,8,0:1:0:0:
36,17,89217,2,0,L|45:60,3,37.5,8|8|8|8,1:3|1:3|1:3|1:3,0:0:0:0:
56,96,89521,6,0,L|35:177,1,75,0|0,3:0|0:0,0:0:0:0:
15,256,89826,2,0,B|109:261|109:261|135:179,2,150,2|10|2,0:0|0:0|3:2,0:0:0:0:
19,261,90740,2,0,L|-5:350,1,75,2|0,0:0|0:0,0:0:0:0:
90,345,91044,1,2,0:0:0:0:
257,373,91349,1,8,0:1:0:0:
416,289,91653,1,2,0:0:0:0:
416,289,91958,6,0,B|429:209|429:209|453:181|498:184,1,150,0|2,3:0|0:0,0:0:0:0:
434,12,92567,2,0,B|431:54|431:54|463:81,1,75,10|0,0:0|0:0,0:0:0:0:
370,147,92871,1,2,3:2:0:0:
370,147,93176,1,2,0:0:0:0:
193,109,93481,2,0,B|247:98|247:98|277:108,1,75,2|0,3:2|0:0,0:0:0:0:
240,190,93785,1,8,0:1:0:0:
236,197,94090,2,0,L|175:191,3,37.5,8|8|8|8,1:3|1:3|1:3|1:3,0:0:0:0:
154,186,94394,6,0,L|50:173,1,75,0|2,3:0|0:0,0:0:0:0:
44,93,94699,1,10,0:3:0:0:
133,99,94851,1,2,0:0:0:0:
30,247,95156,1,2,0:0:0:0:
118,259,95308,2,0,B|200:270|200:270|238:290|228:342,1,150,0|0,3:2|0:0,0:0:0:0:
319,334,95765,2,0,B|345:303|345:302|469:323,2,150,2|2|0,0:0|0:0|0:0,0:0:0:0:
280,253,96526,2,0,L|315:83,1,150,2|0,0:0|3:0,0:0:0:0:
143,37,97135,6,0,L|103:203,1,150,2|10,0:0|0:0,0:0:0:0:
34,347,97745,2,0,B|20:299|20:299|37:261,1,75,2|2,3:2|0:0,0:0:0:0:
30,276,98201,1,2,0:0:0:0:
109,318,98354,2,0,B|198:311|198:311|262:357,2,150,2|8|0,3:2|0:1|0:0,0:0:0:0:
29,156,99267,6,0,B|10:193|10:193|10:235,1,75,2|0,3:2|0:0,0:0:0:0:
100,218,99572,2,0,B|122:162|122:162|113:66,2,150,8|8|2,0:3|0:0|3:2,0:0:0:0:
201,284,100333,2,0,B|182:253|182:253|203:201,1,75
283,242,100638,2,0,B|291:206|291:206|343:184,1,75,2|8,0:1|0:3,0:0:0:0:
370,270,100943,2,0,B|401:251|401:251|453:272,1,75,2|8,0:1|0:1,0:0:0:0:
284,361,101399,2,0,P|235:341|200:338,1,75,2|0,0:0|0:0,0:0:0:0:
126,361,101704,5,2,3:2:0:0:
126,361,102009,1,8,0:3:0:0:
55,305,102161,1,2,0:1:0:0:
112,235,102313,2,0,B|109:193|109:193|83:162,1,75,8|0,0:0|0:0,0:0:0:0:
30,98,102618,2,0,P|72:45|154:37,2,150,2|0|8,3:2|0:0|3:0,0:0:0:0:
1,183,103379,2,0,B|27:231|26:237|26:286,1,75,2|8,0:1|0:1,0:0:0:0:
115,240,103684,2,0,B|120:282|122:287|112:320,1,75,0|8,0:0|1:3,0:0:0:0:
190,360,103988,2,0,L|229:363,1,37.5,8|8,1:3|1:3,0:0:0:0:
263,335,104141,6,0,B|339:318|339:318|420:351,1,150,2|8,3:2|0:3,0:0:0:0:
478,180,104750,2,0,P|407:175|335:245,1,150,8|2,0:0|3:2,0:0:0:0:
282,156,105207,2,0,B|239:107|232:105|141:119,2,150,0|2|2,0:0|0:1|0:1,0:0:0:0:
366,126,105968,1,8,0:1:0:0:
361,36,106120,2,0,B|401:44|406:47|433:66,1,75,0|2,0:0|0:0,0:0:0:0:
194,98,106577,6,0,B|117:110|117:110|41:77,1,150,2|8,3:2|0:3,0:0:0:0:
89,163,107034,1,2,0:1:0:0:
40,238,107186,2,0,B|90:204|97:205|189:190,1,150,8|2,0:0|3:2,0:0:0:0:
352,245,107795,2,0,L|335:343,1,75,8|2,0:3|0:1,0:0:0:0:
259,360,108100,1,8,3:0:0:0:
259,360,108404,1,8,0:1:0:0:
436,326,108709,1,8,1:3:0:0:
333,177,109014,5,0,0:0:0:0:
333,177,109318,2,0,L|320:67,2,75,8|8|8,0:3|0:3|3:2,0:0:0:0:
281,251,109775,1,0,0:0:0:0:
365,281,109927,1,0,3:0:0:0:
185,291,110232,2,0,B|129:285|121:284|55:355,1,150,2|0,0:0|0:0,0:0:0:0:
77,263,110689,1,2,0:0:0:0:
147,207,110841,2,0,B|106:173|102:171|68:174,1,75,10|2,0:1|0:0,0:0:0:0:
22,105,111146,2,0,P|69:44|156:25,1,150,2|0,0:0|3:0,0:0:0:0:
283,127,111755,5,2,0:0:0:0:
430,23,112059,2,0,B|385:27|385:27|354:58,1,75,10|0,0:0|0:0,0:0:0:0:
421,117,112364,2,0,L|513:123,1,75,2|0,3:2|0:0,0:0:0:0:
485,211,112668,1,2,0:0:0:0:
308,172,112973,1,2,3:2:0:0:
155,268,113278,1,10,0:1:0:0:
24,144,113582,2,0,L|69:123,3,37.5,8|8|8|8,1:3|1:3|1:3|1:3,0:0:0:0:
91,97,113887,6,0,L|75:247,1,150,0|2,3:0|0:0,0:0:0:0:
248,195,114496,2,0,L|257:285,1,75,10|0,0:0|0:0,0:0:0:0:
268,358,114800,1,2,3:2:0:0:
374,155,115105,2,0,B|412:167|415:168|420:168|448:146,1,75,2|0,0:0|0:0,0:0:0:0:
400,67,115410,2,0,B|362:55|359:54|354:54|326:76,1,75,2|0,0:0|0:0,0:0:0:0:
282,152,115714,2,0,B|219:200|216:200|144:180,1,150,10|2,0:1|0:0,0:0:0:0:
48,28,116323,1,0,3:0:0:0:
48,28,116628,6,0,L|20:102,1,75,2|0,0:0|0:0,0:0:0:0:
62,177,116932,2,0,B|81:239|81:246|62:330,1,150,10|2,0:0|3:2,0:0:0:0:
256,192,117542,12,8,119369,0:0:0:0:
56,330,119978,6,0,L|365:301,1,300,2|10,0:0|0:0,0:0:0:0:
259,148,120892,2,0,P|320:164|348:190,1,75,10|0,0:3|0:0,0:0:0:0:
407,213,121196,2,0,B|423:175|423:175|461:153,2,75,6|8|2,3:0|0:3|0:0,0:0:0:0:
287,348,121806,2,0,B|260:320|260:320|246:272,1,75,10|2,0:0|0:0,0:0:0:0:
258,195,122110,1,6,3:1:0:0:
258,195,122415,6,0,L|79:223,2,150,2|6|10,0:0|3:1|0:0,0:0:0:0:
434,159,123328,1,8,1:3:0:0:
300,37,123633,2,0,L|277:140,1,75,6|8,3:0|0:3,0:0:0:0:
261,197,123937,1,2,0:0:0:0:
261,197,124242,1,10,0:0:0:0:
261,197,124547,1,6,3:1:0:0:
369,340,124851,6,0,B|268:320|268:320|228:368,1,150,10|10,0:3|0:3,0:0:0:0:
162,306,125308,2,0,B|141:342|141:342|80:330,1,75,2|8,0:0|0:0,0:0:0:0:
114,339,125765,2,0,B|51:315|51:315|48:223,2,150,2|6|2,0:0|3:0|0:0,0:0:0:0:
198,368,126526,1,8,0:3:0:0:
183,278,126679,1,10,0:0:0:0:
183,278,126983,2,0,L|213:207,1,75,6|8,3:1|0:3,0:0:0:0:
301,196,127288,5,2,0:0:0:0:
178,64,127592,1,6,3:1:0:0:
178,64,127897,2,0,P|158:116|147:157,1,75,10|0,0:0|0:0,0:0:0:0:
125,222,128201,1,8,1:3:0:0:
133,224,128506,2,0,B|101:296|101:296|16:284,1,150,6|2,3:0|0:0,0:0:0:0:
208,314,129115,2,0,L|294:326,1,75,10|0,0:0|0:0,0:0:0:0:
371,337,129420,1,6,3:1:0:0:
482,184,129724,6,0,C|403:182|349:236,1,150,2|2,0:0|0:0,0:0:0:0:
184,167,130333,2,0,B|210:215|213:220|252:239,1,75,10|0,0:0|0:0,0:0:0:0:
187,306,130638,2,0,P|233:314|275:301,1,75,2|0,0:0|0:0,0:0:0:0:
333,361,130943,1,4,3:0:0:0:
333,361,131247,2,0,L|427:349,1,75,2|8,0:0|0:3,0:0:0:0:
481,299,131552,1,10,0:0:0:0:
315,230,131856,2,0,B|393:173|400:172|474:184,1,150,6|8,3:1|0:3,0:0:0:0:
351,30,132465,6,0,B|335:59|333:65|350:116,1,75,6|0,3:1|0:0,0:0:0:0:
431,75,132770,1,10,0:0:0:0:
431,75,133075,1,8,1:3:0:0:
264,6,133379,1,4,3:0:0:0:
108,97,133684,2,0,B|55:110|50:109|15:102,1,75,2|8,0:0|0:3,0:0:0:0:
16,17,133988,1,10,0:0:0:0:
25,197,134293,2,0,L|12:282,1,75,6|8,3:1|0:3,0:0:0:0:
33,365,134597,5,8,0:3:0:0:
170,215,134902,2,0,L|153:316,1,75,2|8,0:0|0:3,0:0:0:0:
195,371,135207,1,10,0:0:0:0:
355,182,135511,2,0,L|332:333,1,150,2|4,0:0|3:0,0:0:0:0:
512,228,136120,2,0,L|500:325,1,75,2|8,0:0|0:3,0:0:0:0:
430,357,136425,1,10,0:0:0:0:
150,130,137034,6,0,B|185:100|196:131|200:148|192:161|175:176|175:176|164:202|192:237,1,150,2|0,0:0|0:0,0:0:0:0:
72,242,137643,2,0,B|66:279|67:287|67:300|69:330,1,75,2|0,0:0|0:0,0:0:0:0:
90,243,137948,1,10,0:0:0:0:
24,24,138252,6,0,C|304:40|464:76|472:360,1,734.999977569581,6|2,3:2|0:2,0:0:0:0:
368,356,139470,1,6,3:2:0:0:
376,260,139623,1,2,3:2:0:0:
372,164,139775,1,14,0:2:0:0:
264,252,139927,2,0,P|160:240|28:228,1,209.999993591309,2|2,0:2|3:2,0:0:0:0:
54,129,140384,1,14,0:2:0:0:
64,132,140689,5,6,3:2:0:0:
52,224,140841,2,0,P|48:288|44:360,1,104.999996795654,2|14,0:2|0:2,0:0:0:0:
164,240,141146,2,0,P|159:299|156:364,1,104.999996795654,2|6,0:2|0:2,0:0:0:0:
260,352,141450,1,2,3:2:0:0:
372,264,141602,2,0,P|296:252|256:244,1,104.999996795654,14|2,0:2|0:2,0:0:0:0:
360,368,141907,5,6,3:2:0:0:
464,380,142059,1,2,3:2:0:0:
488,276,142212,1,14,0:2:0:0:
504,172,142364,1,2,0:2:0:0:
477,280,142516,1,6,0:2:0:0:
496,176,142668,1,2,3:2:0:0:
488,52,142821,6,0,C|464:60|460:76|476:92|496:88|500:76,1,84.3750032186509,14|0,0:3|0:0,0:0:0:0:
500,68,143125,5,6,3:2:0:0:
396,56,143278,1,2,3:2:0:0:
296,88,143430,1,14,0:2:0:0:
196,60,143582,2,0,B|140:64|132:64|76:64,1,104.999996795654,2|6,0:2|0:2,0:0:0:0:
204,72,144039,2,0,P|136:72|88:72,1,104.999996795654,14|2,0:2|0:2,0:0:0:0:
212,180,144344,5,6,3:2:0:0:
108,176,144496,1,2,0:2:0:0:
100,280,144648,1,14,0:2:0:0:
201,293,144800,2,0,C|253:305|253:369,1,104.999996795654,2|6,0:2|0:2,0:0:0:0:
348,304,145105,1,2,3:2:0:0:
456,312,145257,1,14,0:2:0:0:
464,320,145562,5,6,3:2:0:0:
352,300,145714,1,2,0:2:0:0:
248,296,145866,1,14,0:2:0:0:
144,284,146019,2,0,B|72:296|52:300|16:304,1,104.999996795654,2|6,0:2|0:2,0:0:0:0:
48,308,146476,6,0,C|32:216|136:184|112:84|0:100,1,419.999987182618,14|14,0:2|0:2,0:0:0:0:
108,0,147237,2,0,C|160:12|160:76,2,104.999996795654,2|6|2,0:2|0:2|3:2,0:0:0:0:
160,148,147694,1,14,0:2:0:0:
264,72,147846,1,8,0:1:0:0:
260,112,147922,1,8,0:1:0:0:
260,160,147998,6,0,B|324:156|360:156|400:156,1,104.999996795654,4|0,3:2|0:0,0:0:0:0:
472,148,148303,1,14,0:2:0:0:
432,248,148455,2,0,C|477:276|456:336,2,104.999996795654,2|4|2,0:2|0:0|3:2,0:0:0:0:
360,324,148912,1,12,0:2:0:0:
256,303,149064,6,0,C|240:350|285:378,1,104.999996795654,2|4,0:2|3:2,0:0:0:0:
160,332,149369,1,2,0:2:0:0:
304,152,149674,1,2,0:2:0:0:
96,24,149978,1,2,3:2:0:0:
9,57,150130,1,12,0:2:0:0:
39,143,150283,2,0,B|55:191|59:195|79:263,1,104.999996795654,2|4,0:2|3:2,0:0:0:0:
168,184,150587,6,0,B|184:232|188:236|208:304,1,104.999996795654,2|12,0:2|0:2,0:0:0:0:
304,264,150892,2,0,P|276:176|264:136,1,104.999996795654,2|4,0:2|0:0,0:0:0:0:
368,124,151196,2,0,P|384:172|388:184,1,52.4999983978272,2|0,3:2|0:0,0:0:0:0:
400,224,151349,1,14,0:2:0:0:
412,328,151501,2,0,C|362:347|327:294,1,104.999996795654,2|4,0:2|3:2,0:0:0:0:
248,368,151806,6,0,L|232:296,1,52.4999983978272,2|0,0:2|0:0,0:0:0:0:
224,268,151958,1,14,0:2:0:0:
124,240,152110,2,0,B|136:180|140:160|148:136,1,104.999996795654,2|4,0:2|0:0,0:0:0:0:
168,36,152415,2,0,B|228:40|248:44|288:48,1,104.999996795654,2|12,3:2|0:2,0:0:0:0:
376,60,152719,1,2,0:2:0:0:
480,72,152871,5,4,3:2:0:0:
476,79,153176,2,0,B|468:135|468:159|460:191,1,104.999996795654,14|0,3:2|0:0,0:0:0:0:
436,288,153481,1,6,0:2:0:0:
436,288,153785,2,0,B|356:276|344:272|316:272,3,104.999996795654,14|0|6|0,0:2|0:0|3:2|0:0,0:0:0:0:
228,256,154394,2,0,B|148:244|136:240|108:240,3,104.999996795654,14|0|6|0,3:2|0:0|0:2|3:2,0:0:0:0:
252,152,155003,2,0,B|188:140|160:136|136:136,1,104.999996795654,14|0,0:2|0:0,0:0:0:0:
280,52,155308,5,4,3:2:0:0:
287,47,155613,2,0,B|215:35|207:35|167:27,1,104.999996795654,14|0,0:2|0:0,0:0:0:0:
80,16,155917,2,0,B|64:80|64:96|52:144,1,104.999996795654,6|0,0:2|3:2,0:0:0:0:
22,221,156222,6,0,C|137:238|158:183,1,180,14|0,0:2|0:0,0:0:0:0:
205,175,156526,2,0,C|223:131|306:141,1,120,6|0,3:2|0:0,0:0:0:0:
378,196,156831,2,0,C|493:213|514:158,1,180,14|0,3:2|0:0,0:0:0:0:
506,115,157135,2,0,C|391:98|370:153,1,180,6|0,3:2|0:0,0:0:0:0:
362,196,157440,5,14,3:3:0:0:
256,192,181501,12,0,182852,3:2:0:0:
