osu file format v14

[General]
AudioFilename: audio.mp3
AudioLeadIn: 0
PreviewTime: 136882
Countdown: 0
SampleSet: Soft
StackLeniency: 0.5
Mode: 0
LetterboxInBreaks: 0
WidescreenStoryboard: 1

[Editor]
Bookmarks: 235,19717,39209,58702,78194,87940,97686,107416,117179,135131,135150,135169,135188,135208,135227,135246,135265,135284,135303,135322,135341,135360,135379,135398,135417,135436,136654,156174
DistanceSpacing: 0.5
BeatDivisor: 4
GridSize: 32
TimelineZoom: 3.099999

[Metadata]
Title:prozac
TitleUnicode:prozac
Artist:brakence
ArtistUnicode:brakence
Creator:Mimari
Version:jamesjan's extra
Source:
Tags:punk2 english hyper pop emo rap hyperpop glitchpop digicore trap jamesjan3 jamesjan riffy bakari hhjkl wetdog123 schoolboy komore mayflower i love ganyu sing
BeatmapID:3257819
BeatmapSetID:1573985

[Difficulty]
HPDrainRate:4
CircleSize:3.8
OverallDifficulty:8
ApproachRate:9.3
SliderMultiplier:2
SliderTickRate:1

[Events]
//Background and Video events
0,0,"i hate myself for it.jpeg",0,0
//Break Periods
2,157640,182298
//Storyboard Layer 0 (Background)
//Storyboard Layer 1 (Fail)
//Storyboard Layer 2 (Pass)
//Storyboard Layer 3 (Foreground)
//Storyboard Layer 4 (Overlay)
//Storyboard Sound Samples

[TimingPoints]
1806,304.568527918782,4,2,80,50,1,0
3024,-200,4,2,80,50,0,0
3709,-200,4,2,80,5,0,0
3937,-158.730158730159,4,2,80,50,0,0
4547,-200,4,2,80,50,0,0
5460,-158.730158730159,4,2,80,50,0,0
6069,-200,4,2,80,50,0,0
6374,-158.730158730159,4,2,80,50,0,0
7288,-200,4,2,80,50,0,0
7516,-400,4,2,80,5,0,0
7592,-200,4,2,80,50,0,0
7897,-158.730158730159,4,2,80,50,0,0
9420,-200,4,2,80,50,0,0
10333,-158.730158730159,4,2,80,50,0,0
12161,-200,4,2,80,50,0,0
12770,-158.730158730159,4,2,80,50,0,0
13684,-200,4,2,80,50,0,0
17338,-133.333333333333,4,2,80,50,0,0
18557,-200,4,2,80,50,0,0
19775,-158.730158730159,4,2,80,50,0,0
20384,-400,4,2,80,50,0,0
20993,-400,4,2,13,45,0,0
21069,-400,4,2,13,30,0,0
21146,-400,4,2,13,15,0,0
21298,-400,4,2,30,60,0,0
21907,-133.333333333333,4,2,30,60,0,0
22516,-400,4,2,30,60,0,0
23125,-133.333333333333,4,2,30,60,0,0
24039,-400,4,2,30,60,0,0
25638,-400,4,2,13,45,0,0
25714,-400,4,2,13,30,0,0
25790,-400,4,2,13,15,0,0
25866,-133.333333333333,4,2,30,60,0,0
26476,-400,4,2,30,60,0,0
27998,-133.333333333333,4,2,30,60,0,0
28912,-400,4,2,30,60,0,0
30435,-133.333333333333,4,2,30,60,0,0
30740,-400,4,2,13,60,0,0
30816,-400,4,2,13,45,0,0
30892,-400,4,2,13,30,0,0
30968,-400,4,2,13,15,0,0
31044,-400,4,2,30,60,0,0
32567,-133.333333333333,4,2,30,60,0,0
32871,-400,4,2,30,60,0,0
35003,-133.333333333333,4,2,30,60,0,0
35308,-400,4,2,30,60,0,0
35384,-400,4,2,13,45,0,0
35460,-400,4,2,13,30,0,0
35536,-400,4,2,13,15,0,0
35613,-400,4,2,30,60,0,0
37440,-133.333333333333,4,2,30,60,0,0
37745,-400,4,2,30,60,0,0
38963,-133.333333333333,4,2,30,60,0,0
39267,-400,4,2,30,60,0,0
40257,-400,4,2,13,45,0,0
40333,-400,4,2,13,30,0,0
40410,-400,4,2,13,15,0,0
40486,-400,4,2,30,60,0,0
40790,-100,4,2,12,60,0,0
41704,-28.5714285714286,4,2,12,60,0,0
42618,-100,4,2,12,60,0,0
43227,-66.6666666666667,4,2,13,60,0,0
43531,-100,4,2,13,60,0,0
44141,-66.6666666666667,4,2,13,60,0,0
44445,-90.9090909090909,4,2,13,60,0,0
44750,-100,4,2,13,60,0,0
45435,-100,4,2,13,45,0,0
45511,-100,4,2,13,30,0,0
45587,-100,4,2,13,15,0,0
45663,-66.6666666666667,4,2,12,60,0,0
45968,-100,4,2,12,60,0,0
46273,-133.333333333333,4,2,12,60,0,0
46577,-66.6666666666667,4,2,12,60,0,0
46882,-100,4,2,12,60,0,0
48100,-66.6666666666667,4,2,13,60,0,0
48404,-100,4,2,13,60,0,0
49014,-66.6666666666667,4,2,13,60,0,0
49318,-80,4,2,13,60,0,0
49623,-66.6666666666667,4,2,13,60,0,0
49927,-100,4,2,13,60,0,0
50080,-100,4,2,13,45,0,0
50156,-100,4,2,13,30,0,0
50232,-100,4,2,13,15,0,0
50536,-66.6666666666667,4,2,12,60,0,0
50841,-100,4,2,12,60,0,0
51450,-66.6666666666667,4,2,12,60,0,0
51755,-133.333333333333,4,2,12,60,0,0
52973,-66.6666666666667,4,2,13,60,0,0
53278,-100,4,2,13,60,0,0
53887,-66.6666666666667,4,2,13,60,0,0
54191,-133.333333333333,4,2,13,60,0,0
54496,-66.6666666666667,4,2,13,60,0,0
54800,-100,4,2,13,60,0,0
55181,-100,4,2,13,45,0,0
55257,-100,4,2,13,30,0,0
55333,-100,4,2,13,15,0,0
55410,-66.6666666666667,4,2,12,60,0,0
55714,-100,4,2,12,60,0,0
56323,-66.6666666666667,4,2,12,60,0,0
56628,-100,4,2,12,60,0,0
57846,-57.1428571428571,4,2,13,60,0,0
58455,-100,4,2,13,60,0,0
58760,-66.6666666666667,4,2,13,60,0,0
59369,-50,4,2,13,60,0,0
59521,-100,4,2,13,60,0,0
59826,-100,4,2,13,45,0,0
59902,-100,4,2,13,30,0,0
59978,-400,4,2,13,15,0,0
60283,-400,4,2,12,60,0,0
60930,-400,4,2,12,5,0,0
61044,-400,4,2,12,60,0,0
61196,-80,4,2,12,60,0,0
61501,-66.6666666666667,4,2,12,60,0,0
61806,-57.1428571428571,4,2,12,60,0,0
62110,-80,4,2,12,60,0,0
62415,-66.6666666666667,4,2,12,60,0,0
62719,-100,4,2,13,60,0,0
63709,-50,4,2,13,60,0,0
63937,-80,4,2,13,60,0,0
64242,-66.6666666666667,4,2,13,60,0,0
64394,-133.333333333333,4,2,13,60,0,0
64547,-400,4,2,13,60,0,0
64585,-400,4,2,13,5,0,0
64851,-400,4,2,13,60,0,0
64928,-400,4,2,13,45,0,0
65004,-400,4,2,13,30,0,0
65080,-400,4,2,13,15,0,0
65156,-66.6666666666667,4,2,12,60,0,0
65613,-66.6666666666667,4,2,12,60,0,0
65765,-200,4,2,12,60,0,0
66069,-66.6666666666667,4,2,12,60,0,0
66374,-80,4,2,12,60,0,0
66679,-66.6666666666667,4,2,12,60,0,0
67288,-100,4,2,12,60,0,0
67592,-57.1428571428571,4,2,13,60,0,0
67897,-100,4,2,13,60,0,0
68582,-50,4,2,13,60,0,0
68811,-80,4,2,13,60,0,0
69115,-50,4,2,13,60,0,0
69420,-400,4,2,13,60,0,0
69724,-400,4,2,13,60,0,0
69800,-400,4,2,13,45,0,0
69877,-400,4,2,13,30,0,0
69953,-400,4,2,13,15,0,0
70029,-66.6666666666667,4,2,12,60,0,0
70333,-57.1428571428571,4,2,12,60,0,0
70638,-80,4,2,12,60,0,0
70943,-66.6666666666667,4,2,12,60,0,0
71247,-100,4,2,12,60,0,0
71552,-133.333333333333,4,2,12,60,0,0
71856,-200,4,2,12,60,0,0
72465,-66.6666666666667,4,2,13,60,0,0
72770,-100,4,2,13,60,0,0
73379,-80,4,2,13,60,0,0
73988,-66.6666666666667,4,2,13,60,0,0
74293,-400,4,2,13,60,0,0
74331,-400,4,2,13,5,0,0
74597,-400,4,2,13,60,0,0
74674,-400,4,2,13,45,0,0
74750,-400,4,2,13,30,0,0
74826,-400,4,2,13,15,0,0
74902,-80,4,2,12,60,0,0
75207,-100,4,2,12,60,0,0
75511,-80,4,2,12,60,0,0
75816,-100,4,2,12,60,0,0
76425,-80,4,2,12,60,0,0
76729,-100,4,2,12,60,0,0
77338,-66.6666666666667,4,2,13,60,0,0
77643,-100,4,2,13,60,0,0
79166,-400,4,2,1,60,0,0
79204,-400,4,2,1,5,0,0
79319,-400,4,2,13,45,0,0
79395,-400,4,2,13,30,0,0
79471,-400,4,2,13,15,0,0
79775,-66.6666666666667,4,2,40,60,0,0
80232,-50,4,2,40,60,0,0
80689,-66.6666666666667,4,2,40,60,0,0
81602,-50,4,2,40,60,0,0
81907,-50,4,2,13,60,0,0
82212,-50,4,2,40,60,0,0
83430,-66.6666666666667,4,2,40,60,0,0
84039,-400,4,2,40,60,0,0
84077,-400,4,2,40,5,0,0
84115,-400,4,2,40,60,0,0
84344,-400,4,2,13,60,0,0
84420,-400,4,2,13,45,0,0
84496,-400,4,2,13,30,0,0
84572,-400,4,2,13,15,0,0
84648,-66.6666666666667,4,2,40,60,0,0
85105,-50,4,2,40,60,0,0
85562,-66.6666666666667,4,2,40,60,0,0
86475,-50,4,2,40,60,0,0
86780,-50,4,2,13,60,0,0
87085,-50,4,2,40,60,0,0
88455,-66.6666666666667,4,2,40,60,0,0
88912,-400,4,2,40,60,0,0
88950,-400,4,2,40,5,0,0
88988,-400,4,2,40,60,0,0
89217,-400,4,2,40,60,0,0
89293,-400,4,2,40,45,0,0
89369,-400,4,2,40,30,0,0
89445,-400,4,2,40,15,0,0
89521,-57.1428571428571,4,2,41,60,0,0
89978,-80,4,2,41,60,0,0
90435,-50,4,2,41,60,0,0
90892,-66.6666666666667,4,2,41,60,0,0
91958,-57.1428571428571,4,2,41,60,0,0
92262,-80,4,2,41,60,0,0
92567,-200,4,2,41,60,0,0
92871,-50,4,2,41,60,0,0
93176,-100,4,2,41,60,0,0
93481,-50,4,2,41,60,0,0
93785,-400,4,2,41,60,0,0
93823,-400,4,2,41,5,0,0
93861,-400,4,2,41,60,0,0
94090,-400,4,2,13,60,0,0
94166,-400,4,2,13,45,0,0
94242,-400,4,2,13,30,0,0
94318,-400,4,2,13,15,0,0
94394,-57.1428571428571,4,2,41,60,0,0
95003,-100,4,2,41,60,0,0
95308,-57.1428571428571,4,2,41,60,0,0
95765,-66.6666666666667,4,2,41,60,0,0
96222,-57.1428571428571,4,2,41,60,0,0
96526,-200,4,2,41,60,0,0
96831,-57.1428571428571,4,2,41,60,0,0
98201,-66.6666666666667,4,2,41,60,0,0
99267,-57.1428571428571,4,2,40,60,0,0
99572,-200,4,2,40,60,0,0
100181,-57.1428571428571,4,2,40,60,0,0
100486,-200,4,2,40,60,0,0
100943,-100,4,2,40,60,0,0
101095,-66.6666666666667,4,2,40,60,0,0
101704,-57.1428571428571,4,2,40,60,0,0
102161,-200,4,2,40,60,0,0
102618,-100,4,2,40,60,0,0
102770,-57.1428571428571,4,2,40,60,0,0
103075,-100,4,2,40,60,0,0
103531,-400,4,2,40,60,0,0
103569,-400,4,2,40,5,0,0
103608,-400,4,2,40,60,0,0
103836,-400,4,2,13,60,0,0
103912,-400,4,2,13,45,0,0
103988,-400,4,2,13,30,0,0
104064,-400,4,2,13,15,0,0
104141,-57.1428571428571,4,2,40,60,0,0
104597,-200,4,2,40,60,0,0
105054,-100,4,2,40,60,0,0
105207,-57.1428571428571,4,2,40,60,0,0
105816,-100,4,2,40,60,0,0
105968,-200,4,2,40,60,0,0
106577,-57.1428571428571,4,2,40,60,0,0
107034,-200,4,2,40,60,0,0
107491,-100,4,2,40,60,0,0
107643,-57.1428571428571,4,2,40,60,0,0
107948,-100,4,2,40,60,0,0
108404,-200,4,2,40,60,0,0
108709,-200,4,2,13,60,0,0
108785,-200,4,2,13,45,0,0
108861,-200,4,2,13,30,0,0
108937,-200,4,2,13,15,0,0
109014,-133.333333333333,4,2,40,60,0,0
109927,-66.6666666666667,4,2,40,60,0,0
110232,-100,4,2,41,60,0,0
111450,-66.6666666666667,4,2,41,60,0,0
112059,-80,4,2,41,60,0,0
112364,-57.1428571428571,4,2,41,60,0,0
112668,-100,4,2,41,60,0,0
112973,-66.6666666666667,4,2,41,60,0,0
113278,-400,4,2,41,60,0,0
113316,-400,4,2,41,5,0,0
113354,-400,4,2,41,60,0,0
113582,-400,4,2,13,60,0,0
113658,-400,4,2,13,45,0,0
113734,-400,4,2,13,30,0,0
113811,-400,4,2,13,15,0,0
113887,-57.1428571428571,4,2,41,60,0,0
114191,-133.333333333333,4,2,41,60,0,0
114496,-80,4,2,41,60,0,0
114800,-57.1428571428571,4,2,41,60,0,0
114953,-200,4,2,41,60,0,0
115105,-66.6666666666667,4,2,41,60,0,0
116019,-100,4,2,41,60,0,0
116323,-57.1428571428571,4,2,41,60,0,0
116628,-100,4,2,41,60,0,0
117237,-57.1428571428571,4,2,41,60,0,0
118760,-100,4,2,12,60,0,0
119674,-34.3642611683849,4,2,12,60,0,0
120587,-66.6666666666667,4,2,12,60,0,0
120892,-133.333333333333,4,2,12,60,0,0
121196,-57.1428571428571,4,2,13,60,0,0
121653,-100,4,2,13,60,0,0
121806,-400,4,2,13,60,0,0
121844,-400,4,2,13,5,0,0
121882,-400,4,2,13,60,0,0
122186,-66.6666666666667,4,2,13,60,0,0
122719,-57.1428571428571,4,2,13,60,0,0
122871,-50,4,2,13,60,0,0
123024,-400,4,2,13,60,0,0
123405,-400,4,2,13,45,0,0
123481,-400,4,2,13,30,0,0
123557,-400,4,2,13,15,0,0
123633,-50,4,2,12,60,0,0
123937,-80,4,2,12,60,0,0
124547,-57.1428571428571,4,2,12,60,0,0
125156,-100,4,2,12,60,0,0
125308,-40,4,2,12,60,0,0
125422,-400,4,2,12,60,0,0
125460,-57.1428571428571,4,2,12,60,0,0
125765,-100,4,2,12,60,0,0
126069,-57.1428571428571,4,2,13,60,0,0
126374,-100,4,2,13,60,0,0
126679,-400,4,2,13,60,0,0
126755,-400,4,2,13,60,0,0
127059,-66.6666666666667,4,2,13,60,0,0
127288,-57.1428571428571,4,2,13,60,0,0
127592,-66.6666666666667,4,2,13,60,0,0
127897,-400,4,2,13,60,0,0
128050,-400,4,2,13,45,0,0
128126,-400,4,2,13,30,0,0
128202,-400,4,2,13,60,0,0
128278,-400,4,2,13,45,0,0
128354,-400,4,2,13,30,0,0
128430,-400,4,2,13,15,0,0
128506,-57.1428571428571,4,2,12,60,0,0
128811,-80,4,2,12,60,0,0
129115,-66.6666666666667,4,2,12,60,0,0
129420,-50,4,2,12,60,0,0
129724,-57.1428571428571,4,2,12,60,0,0
130029,-66.6666666666667,4,2,12,60,0,0
130333,-400,4,2,12,60,0,0
130638,-100,4,2,12,60,0,0
130943,-57.1428571428571,4,2,13,60,0,0
131247,-80,4,2,13,60,0,0
131856,-57.1428571428571,4,2,13,60,0,0
132313,-100,4,2,13,60,0,0
132465,-66.6666666666667,4,2,13,60,0,0
132770,-400,4,2,13,60,0,0
133075,-100,4,2,13,60,0,0
133151,-100,4,2,13,45,0,0
133227,-100,4,2,13,30,0,0
133303,-400,4,2,13,15,0,0
133379,-57.1428571428571,4,2,12,60,0,0
133836,-133.333333333333,4,2,12,60,0,0
133988,-100,4,2,12,60,0,0
134902,-133.333333333333,4,2,12,60,0,0
135816,-57.1428571428571,4,2,13,60,0,0
136120,-80,4,2,13,60,0,0
136425,-400,4,2,13,60,0,0
136729,-57.1428571428571,4,2,13,60,0,0
137034,-333.333333333333,4,2,13,60,0,0
137491,-400,4,2,13,5,0,0
137643,-50,4,2,13,60,0,0
137796,-50,4,2,13,45,0,0
137871,-400,4,2,13,5,0,0
137948,-50,4,2,99,75,0,0
138252,-50,4,2,1,75,0,1
138404,-100,4,2,1,75,0,1
138557,-44.4444444444445,4,2,1,75,0,1
138709,-66.6666666666667,4,2,1,75,0,1
138861,-50,4,2,1,75,0,1
139623,-57.1428571428571,4,2,1,75,0,1
140080,-80,4,2,1,75,0,1
140384,-80,4,2,1,75,0,0
140689,-44.4444444444445,4,2,1,75,0,1
140841,-133.333333333333,4,2,1,75,0,1
141602,-44.4444444444445,4,2,1,75,0,1
141755,-66.6666666666667,4,2,1,75,0,1
142516,-80,4,2,1,75,0,1
142821,-33.3333333333333,4,2,1,75,0,0
143125,-44.4444444444445,4,2,1,75,0,1
143278,-133.333333333333,4,2,1,75,0,1
143430,-44.4444444444445,4,2,1,75,0,1
144191,-66.6666666666667,4,2,1,75,0,1
144496,-57.1428571428571,4,2,1,75,0,1
144648,-57.1428571428571,4,2,2,75,0,1
144953,-80,4,2,1,75,0,1
145105,-80,4,2,2,75,0,1
145257,-80,4,2,1,75,0,0
145562,-44.4444444444445,4,2,1,75,0,1
145714,-133.333333333333,4,2,1,75,0,1
146476,-44.4444444444445,4,2,1,75,0,1
146628,-66.6666666666667,4,2,1,75,0,1
147085,-66.6666666666667,4,2,2,75,0,1
147389,-66.6666666666667,4,2,1,75,0,1
147694,-57.1428571428571,4,2,1,75,0,1
147998,-57.1428571428571,4,2,2,83,0,1
148455,-66.6666666666667,4,2,2,83,0,1
149064,-50,4,2,2,83,0,1
149369,-66.6666666666667,4,2,2,83,0,1
149978,-57.1428571428571,4,2,2,83,0,1
150283,-50,4,2,2,83,0,1
150397,-400,4,2,2,5,0,0
150435,-50,4,2,2,83,0,1
150587,-57.1428571428571,4,2,2,83,0,1
152110,-44.4444444444445,4,2,2,83,0,1
152415,-57.1428571428571,4,2,2,83,0,1
152529,-400,4,2,2,5,0,0
152567,-57.1428571428571,4,2,2,83,0,1
152719,-66.6666666666667,4,2,2,83,0,1
152871,-50,4,2,2,83,0,1
153176,-100,4,2,2,83,0,1
153785,-50,4,2,2,83,0,1
154090,-66.6666666666667,4,2,2,83,0,1
154699,-44.4444444444445,4,2,2,83,0,1
154851,-66.6666666666667,4,2,2,83,0,1
155003,-200,4,2,2,83,0,1
155308,-50,4,2,2,83,0,1
155613,-100,4,2,2,83,0,1
156222,-66.6666666666667,4,2,2,83,0,1
156526,-57.1428571428571,4,2,2,83,0,1
156831,-50,4,2,2,83,0,1
157135,-33.3333333333333,4,2,2,83,0,1
157440,-33.3333333333333,4,2,2,83,0,0
182852,-86.2068965517241,4,2,98,30,0,0

[Colours]
Combo1 : 219,129,68
Combo2 : 156,211,211
Combo3 : 204,165,138

[HitObjects]
488,49,2567,5,2,0:1:0:0:
491,33,2719,1,2,0:1:0:0:
503,43,2871,1,2,0:1:0:0:
453,132,3024,2,0,P|407:103|415:48,1,100,2|2,0:1|0:1,0:0:0:0:
373,255,3633,2,0,L|367:297,1,25,2|0,0:1|0:0,0:0:0:0:
249,382,3937,6,0,B|251:325|324:311|305:319|357:325|376:243,1,188.999994232178,2|2,0:1|0:1,0:0:0:0:
294,246,4547,2,0,P|311:303|327:341,1,100,2|0,0:1|0:0,0:0:0:0:
402,315,5003,1,2,0:1:0:0:
409,354,5156,2,0,P|417:327|397:314,1,50,2|2,0:1|0:1,0:0:0:0:
153,240,5460,6,0,P|68:281|15:337,1,157.499995193482,2|0,0:1|0:0,0:0:0:0:
23,325,5917,1,2,0:1:0:0:
101,299,6069,2,0,P|121:313|136:333,1,50,2|0,0:1|0:0,0:0:0:0:
16,185,6374,6,0,B|-1:162|4:101|42:96|70:163|1:162,1,125.999996154785,2|2,0:1|0:0,0:0:0:0:
501,6,7135,5,2,0:1:0:0:
459,88,7288,2,0,P|426:56|392:43,1,75,2|0,0:1|0:0,0:0:0:0:
399,44,7592,1,2,0:1:0:0:
467,272,7897,6,0,P|474:241|494:217,1,62.9999980773926,2|0,0:1|0:0,0:0:0:0:
474,356,8201,1,2,0:1:0:0:
350,215,8354,2,0,P|361:274|409:330,1,125.999996154785,2|2,0:1|0:2,0:0:0:0:
467,272,8811,2,0,B|414:255|362:273|361:349|298:334,1,188.999994232178,2|2,0:1|0:1,0:0:0:0:
212,373,9420,2,0,P|248:339|293:317,1,100,2|0,0:1|0:0,0:0:0:0:
116,101,10029,5,2,0:1:0:0:
116,204,10181,1,0,0:0:0:0:
116,204,10333,2,0,P|64:169|24:157,1,94.499997116089,2|0,0:1|0:0,0:0:0:0:
32,165,10638,2,0,P|53:191|85:195,1,62.9999980773926,2|0,0:1|0:0,0:0:0:0:
263,90,10943,5,10,0:1:0:0:
263,90,11247,2,0,B|286:23|232:-12|207:45|245:60,1,125.999996154785,2|2,0:1|0:2,0:0:0:0:
447,312,11856,5,2,0:2:0:0:
318,268,12161,2,0,P|339:280|365:283,1,50,10|2,0:1|0:2,0:0:0:0:
428,229,12465,2,0,P|448:216|465:195,1,50,2|0,0:1|0:0,0:0:0:0:
453,367,12770,2,0,P|432:332|348:278,2,125.999996154785,2|2|10,0:1|0:1|0:1,0:0:0:0:
428,229,13684,2,0,P|441:188|455:179,1,50,2|0,0:1|0:0,0:0:0:0:
428,229,13988,1,2,0:0:0:0:
225,36,14293,6,0,P|199:45|179:70,1,50,2|0,0:1|0:0,0:0:0:0:
59,115,14597,2,0,P|37:103|21:83,1,50,10|0,0:1|0:0,0:0:0:0:
91,41,14902,2,0,P|149:89|187:153,1,150,2|0,0:1|0:0,0:0:0:0:
199,246,15511,2,0,P|165:229|129:221,1,75,2|0,0:1|0:0,0:0:0:0:
129,221,15816,1,10,0:1:0:0:
319,333,16120,2,0,P|341:314|367:302,1,50,2|0,0:1|0:0,0:0:0:0:
254,379,16425,5,0,0:0:0:0:
4,281,16729,6,0,P|9:248|51:183,1,100,2|10,0:1|0:1,0:0:0:0:
42,191,17338,2,0,B|47:242|76:272|154:314|225:270|265:195|219:102|180:95|87:124|131:196,1,412.500015735627,2|0,0:1|0:0,0:0:0:0:
125,184,18252,1,10,0:1:0:0:
139,196,18557,2,0,P|165:238|182:285,1,100,2|0,0:1|0:0,0:0:0:0:
475,141,19166,6,0,P|453:113|423:98,1,50,2|0,0:1|0:0,0:0:0:0:
390,159,19470,2,0,P|412:149|437:147,1,50,10|0,0:1|0:0,0:0:0:0:
394,236,19775,2,0,B|323:245|302:174|321:174|298:112|222:121,1,220.499993270874,2|0,0:1|0:0,0:0:0:0:
232,200,20384,6,0,L|226:258,2,50,2|2|8,0:1|0:1|1:3,0:0:0:0:
232,200,21069,1,8,1:3:0:0:
232,200,21146,1,8,1:3:0:0:
232,200,21222,1,0,0:0:0:0:
160,344,21450,5,2,0:2:0:0:
234,376,21602,2,0,L|262:367,1,25,2|0,0:2|0:0,0:0:0:0:
86,318,21907,2,0,L|10:294,1,75.0000028610231,8|0,0:0|0:0,0:0:0:0:
361,358,22212,5,0,3:0:0:0:
483,139,22516,6,0,L|470:82,1,50,2|2,0:2|0:2,0:0:0:0:
424,199,22973,1,0,0:0:0:0:
302,4,23125,6,0,L|381:27,1,75.0000028610231,8|0,0:0|0:0,0:0:0:0:
424,30,23430,2,0,L|351:51,1,75.0000028610231,2|0,0:2|0:0,0:0:0:0:
105,14,23734,5,0,3:0:0:0:
2,217,24039,6,0,L|12:249,1,25,2|0,0:0|0:0,0:0:0:0:
50,357,24344,2,0,L|53:330,1,25,8|0,0:0|0:0,0:0:0:0:
7,258,24648,1,0,3:0:0:0:
7,258,24724,1,0,0:0:0:0:
145,361,24953,1,2,0:2:0:0:
0,111,25257,5,0,3:0:0:0:
257,41,25562,6,0,L|261:58,2,12.5,8|8|8,0:0|1:3|1:3,0:0:0:0:
229,98,25866,2,0,L|306:81,1,75.0000028610231
504,48,26171,5,0,3:0:0:0:
292,351,26476,6,0,L|295:325,1,25,2|0,0:2|0:0,0:0:0:0:
379,220,26780,2,0,L|373:183,1,37.5,8|0,0:0|0:0,0:0:0:0:
390,228,27085,1,0,3:0:0:0:
369,304,27237,1,2,0:2:0:0:
464,189,27389,1,2,0:2:0:0:
294,326,27694,1,2,0:2:0:0:
2,200,27998,6,0,L|82:221,1,75.0000028610231,8|0,0:0|0:0,0:0:0:0:
97,171,28303,2,0,L|23:190,1,75.0000028610231,2|0,0:2|0:0,0:0:0:0:
297,239,28608,5,0,3:0:0:0:
500,37,28912,6,0,L|493:7,1,25,2|0,0:0|0:0,0:0:0:0:
415,215,29217,5,8,0:0:0:0:
426,230,29369,1,0,0:0:0:0:
469,152,29521,5,0,3:0:0:0:
335,215,29674,1,2,0:2:0:0:
469,302,29826,1,2,0:2:0:0:
207,38,30130,5,0,3:0:0:0:
60,265,30435,6,0,L|50:344,1,75.0000028610231,8|0,0:0|0:0,0:0:0:0:
131,362,30740,2,0,L|129:346,2,12.5,8|8|8,1:3|1:3|1:3,0:0:0:0:
2,86,31044,5,0,3:0:0:0:
266,182,31349,6,0,L|262:212,1,25,2|0,0:2|0:0,0:0:0:0:
489,56,31653,2,0,L|481:22,1,25,8|0,0:0|0:0,0:0:0:0:
409,9,31958,1,0,3:0:0:0:
409,9,32034,1,0,0:0:0:0:
489,188,32262,6,0,L|484:222,1,25,2|2,0:2|0:2,0:0:0:0:
470,195,32567,2,0,L|452:120,1,75.0000028610231,2|0,0:2|0:0,0:0:0:0:
503,206,32871,2,0,L|496:234,2,25,8|0|2,0:0|0:0|0:2,0:0:0:0:
232,371,33481,5,0,3:0:0:0:
410,32,33785,1,2,0:0:0:0:
159,59,34090,5,8,0:0:0:0:
148,72,34242,1,0,0:0:0:0:
222,121,34394,1,0,3:0:0:0:
85,15,34547,1,2,0:2:0:0:
27,182,34699,6,0,L|39:210,1,25,2|2,0:2|0:2,0:0:0:0:
1,177,35004,2,0,L|25:105,1,75.0000028610231,0|0,3:0|0:0,0:0:0:0:
27,201,35308,2,0,L|18:214,2,12.5,8|8|8,0:0|1:3|1:3,0:0:0:0:
122,211,35613,1,0,0:0:0:0:
29,110,35765,1,0,0:0:0:0:
137,372,35917,5,0,3:0:0:0:
453,208,36222,2,0,L|459:177,1,25,2|0,0:2|0:0,0:0:0:0:
387,324,36526,2,0,L|392:354,1,25,8|0,0:0|0:0,0:0:0:0:
462,292,36831,1,0,3:0:0:0:
462,292,36907,1,0,0:0:0:0:
261,43,37135,6,0,L|290:51,1,25,2|2,0:2|0:2,0:0:0:0:
250,17,37440,2,0,L|172:36,1,75.0000028610231,2|0,0:2|0:0,0:0:0:0:
269,52,37745,2,0,L|282:24,2,25,8|0|2,0:0|0:0|0:2,0:0:0:0:
40,223,38354,5,0,3:0:0:0:
185,315,38658,2,0,L|180:350,1,25,2|0,0:0|0:0,0:0:0:0:
46,226,38963,2,0,L|35:149,1,75.0000028610231,8|0,0:0|0:0,0:0:0:0:
104,292,39267,1,0,3:0:0:0:
104,292,39344,1,0,0:0:0:0:
309,162,39572,5,2,0:2:0:0:
387,193,39724,1,2,0:2:0:0:
223,38,39877,6,0,L|219:65,1,25,0|0,3:0|0:0,0:0:0:0:
178,346,40181,5,8,0:0:0:0:
178,346,40257,1,8,1:3:0:0:
178,346,40333,1,8,1:3:0:0:
94,264,40486,5,0,0:0:0:0:
484,123,40790,6,0,B|436:192|357:207|297:142|337:119|306:52|198:47|151:119,1,400,4|0,3:0|0:0,0:0:0:0:
152,120,41704,6,0,B|152:119|153:119|153:119|151:117|151:117|156:120|156:120|154:117|154:117|152:114|152:114|157:118|157:118|156:115|156:115|156:114|156:114|154:111|154:111|159:115|159:115|157:113|157:113|158:112|158:112|156:109|156:109|161:113|161:113|159:110|159:110|160:110|160:109|160:109|159:107|159:107|163:111|163:111|161:108|161:108|162:107|162:107|161:104|161:104|165:108|165:108|164:106|164:106|164:105|164:105|163:102|163:102|167:106|167:106|166:103|166:103|167:103|167:103|165:100|165:100|169:104|169:104|168:101|168:101|169:101|169:101|168:98|168:98|172:102|172:102|170:99|170:99|171:99|171:99|170:96|170:96|174:100|174:100|173:97|173:97|174:97|174:97|173:94|173:94|176:98|176:98|175:96|175:96|176:95|176:95|175:92|175:92|179:97|179:97|178:94|178:94|178:93|179:93|179:93|178:90|178:90|181:95|181:95|180:92|180:92|181:92|181:91|181:91|181:88|181:88|184:93|184:93|183:90|183:90|184:90|184:90|183:87|183:87|186:92|186:92|186:89|186:89|187:88|187:88|186:85|186:85|189:90|189:90|188:87|188:87|189:87|189:87|189:84|189:84|192:89|192:89|191:86|191:86|192:86|192:86|192:82|192:82|194:88|194:88|194:85|194:85|195:84|195:84|195:81|195:81|197:87|197:87|197:84|197:84|197:83|198:83|198:83|198:80|198:80|200:86|200:86|200:82|200:82|201:82|201:82|201:79|201:79|203:85|203:85|203:81|203:81|204:81|204:81|204:78|204:78|205:84|205:84|206:80|206:80|207:77|207:77|208:83|208:83|209:80|209:80|209:79|210:79|210:79|210:76|210:76|211:82|211:82|212:79|212:79|213:79|213:79|213:76|213:76|214:81|214:81|215:78|215:78|216:78|216:78|216:75|216:75|217:81|217:81|218:78|218:78|218:77|219:77|219:77|219:74|219:74|220:80|220:80|221:77|221:77|222:77|222:77|222:74|222:74|223:80|223:80|224:77|224:77|225:77|225:77|225:74|225:74|226:80|226:80|227:76|227:76|228:76|228:76|229:73|229:73|229:79|229:79|230:76|230:76|231:76|231:76|232:73|232:73|232:79|232:79|233:76|233:76|234:76|234:76|235:73|235:73|235:79|235:79|236:76|236:76|237:76|237:76|238:73|238:73|238:79|238:79|239:76|239:76|240:76|240:76|241:73|241:73|241:79|241:79|242:76|242:76|243:76|243:76|244:73|244:73|244:80|244:80|245:77|245:77|246:77|246:77|248:74|248:74|247:80|247:80|248:77|248:77|249:77|249:77|251:75|251:75|250:80|250:80|251:78|251:78|252:78|252:78|254:75|254:75|253:81|253:81|254:78|254:78|255:78|255:78|257:76|257:76|256:82|256:82|257:79|257:79|258:79|258:79|260:77|260:77|258:82|258:82|260:80|260:80|261:80|261:80|263:77|263:77|261:83|261:83|263:81|263:81|264:81|264:81|266:78|266:78|264:84|264:84|266:82|266:82|267:82|267:82|269:79|269:79|267:85|267:85|269:83|269:83|270:83|270:83|272:81|272:81|270:86|270:86|272:84|272:84|273:84|273:84|275:82|275:82|272:87|272:87|274:85|274:85|275:85|275:86|275:86|278:83|278:83|275:89|275:89|277:87|277:87|278:87|278:87|280:85|280:85|278:90|278:90|280:88|280:88|281:89|281:89|283:86|283:86|280:92|280:92|283:90|283:90|286:88|286:88|283:93|283:93|285:91|285:91|286:92|286:92|289:90|289:90|285:95|285:95|288:93|288:93|289:94|289:94|291:92|291:92|288:97|288:97|290:95|290:95|291:95|291:95|294:94|294:94|290:98|290:98|292:97|292:97|293:97|293:97|296:96|296:96|292:100|292:100|295:99|295:99|296:99|296:99|298:98|298:98|294:102|294:102|297:101|297:101|298:101|298:101|301:100|301:100|297:104|297:104|299:103|299:103|300:103|300:103|303:102|303:102|299:106|299:106|302:105|302:105|302:106|302:106|305:104|305:104|301:108|301:108|304:107|304:107|304:108|304:108|307:106|307:106|303:111|303:111|306:109|306:109|306:110|306:110|309:109|309:109|305:113|305:113|308:112|308:112|309:112|309:112|311:111|311:111|307:115|307:115|310:114|310:114|311:115|311:115|313:114|313:114|309:117|309:117|312:116|312:116|312:117|313:117|313:117|315:116|315:116|311:120|311:120|314:119|314:119|317:118|317:118|313:122|313:122|316:121|316:121|316:122|316:122|319:121|319:121|315:124|315:124|318:123|318:123|318:124|318:124|321:123|321:123|317:127|317:127|320:126|320:126|320:127|320:127|323:125|323:125|319:129|319:129|321:128|321:128|322:129|322:129|325:128|325:128|320:132|320:132|323:130|323:130|324:131|324:131|327:130|327:130|322:134|322:134|325:133|325:133|326:133|326:134|326:134|329:133|329:133|324:136|324:136|327:135|327:135|327:136|328:136|328:136|331:135|331:135|326:139|326:139|329:137|329:137|329:138|330:138|330:138|333:137|333:137|328:141|328:141|331:140|331:140|332:141|332:141|335:139|335:139|330:143|330:143|333:142|333:142|334:143|334:143|337:142|337:142|332:146|332:146|335:144|335:144|335:145|336:145|336:145|339:144|339:144|334:148|334:148|337:146|337:146|338:147|338:147|341:146|341:146|336:150|336:150|339:149|339:149|340:149|340:149|343:148|343:148|339:152|339:152|341:151|341:151|342:151|342:151|345:150|345:150|341:154|341:154|344:153|344:153|347:152|347:152|343:156|343:156|346:155|346:155|347:155|347:155|349:154|349:154|346:158|346:158|348:157|348:157|349:157|349:157|352:156|352:156|348:160|348:160|351:158|351:158|351:159|352:159|352:159|354:157|354:157|351:162|351:162|353:160|353:160|354:161|354:161|356:159|356:159|353:164|353:164|356:162|356:162|357:163|357:163|359:160|359:160|356:166|356:166|358:164|358:164|359:164|359:164|361:162|361:162|359:167|359:167|361:165|361:165|362:165|362:165|364:163|364:163|361:169|361:169|364:166|364:166|364:167|365:167|365:167|367:164|367:164|364:170|364:170|366:168|366:168|367:168|367:168|370:166|370:166|367:171|367:171|369:169|369:169|370:169|370:169|372:167|372:167|370:172|370:172|372:170|372:170|373:170|373:170|375:168|375:168|373:173|373:173|375:171|375:171|376:171|376:171|378:168|378:168|376:174|376:174|378:172|378:172|379:172|379:172|381:169|381:169|379:175|379:175|381:172|381:172|382:172|382:172|383:170|383:170|382:175|382:175|384:173|384:173|385:173|385:173|386:170|386:170|386:176|386:176|387:173|387:173|388:173|388:173|389:171|389:171|389:176|389:176|390:174|390:174|391:174|391:174|392:171|392:171|392:177|392:177|393:174|393:174|394:174|394:174|395:171|395:171|395:177|395:177|396:174|396:174|397:174|397:174|398:171|398:171|398:177|398:177|399:174|399:174|400:174|400:174|401:171|401:171|401:177|401:177|402:174|402:174|403:174|403:174|404:170|404:170|405:177|405:177|405:173|405:173|406:173|406:173|407:170|407:170|408:176|408:176|408:173|408:173|409:173|409:173|410:170|410:170|411:176|411:176|411:173|411:173|412:172|413:172|413:172|413:169|413:169|414:175|414:175|414:172|414:172|415:172|415:172|416:169|416:169|417:175|417:175|417:171|417:171|418:171|418:171|419:168|419:168|420:174|420:174|420:171|420:171|421:170|421:170|422:167|422:167|423:173|423:173|423:170|423:170|424:170|424:169|424:169|424:166|424:166|426:172|426:172|426:169|426:169|427:169|427:168|427:168|427:165|427:165|429:171|429:171|429:168|429:168|430:168|430:167|430:167|430:164|430:164|432:170|432:170|432:167|432:167|433:166|433:166|433:163|433:163|435:168|435:168|435:165|435:165|436:165|436:165|436:162|436:162|438:167|438:167|438:164|438:164|439:164|439:164|438:161|438:161|441:166|441:166|440:163|440:163|441:162|441:162|441:159|441:159|444:164|444:164|443:161|443:161|444:161|444:161|443:158|443:158|446:163|446:163|446:160|446:160|447:159|447:159|446:156|446:156|449:161|449:161|448:158|448:158|449:158|449:158|448:154|448:154|452:160|452:160|451:156|451:156|452:156|452:156|451:153|451:153|455:158|455:158|454:155|454:155|454:154|455:154|455:154|454:151|454:151|457:156|457:156|456:153|456:153|457:152|457:152|456:149|456:149|460:154|460:154|459:151|459:151|459:150|459:150|458:147|458:147|462:152|462:152|461:149|461:149|462:148|462:148|461:145|461:145|465:150|465:150|463:147|463:147|464:146|464:146|463:143|463:143|467:148|467:148|466:145|466:145|466:144|466:144|465:141|465:141|469:146|469:146|468:143|468:143|468:142|469:142|469:142|467:139|467:139|471:143|471:143|470:141|470:141|471:140|471:140|469:137|469:137|474:141|474:141|472:138|472:138|473:138|473:138|471:135|471:135|476:139|476:139|474:136|474:136|475:135|475:135|474:133|474:133|478:136|478:136|476:134|476:134|477:133|477:133|475:130|475:130|480:134|480:134|478:132|478:132|479:131|479:131|477:128|477:128|482:132|482:132|480:129|480:129|481:129|481:128|481:128|479:126|479:126|484:129|484:129|482:127|482:127|483:126|483:126|481:123|481:123|486:127|486:127|484:124|484:124|485:123,1,1747.74516169719,6|2,3:1|0:0,0:0:0:0:
400,89,42618,6,0,B|372:30|343:1,2,100,10|2|2,0:0|0:0|0:0,0:0:0:0:
155,246,43227,6,0,B|129:267|129:267|196:317|196:317|273:298|273:298|262:271,1,225.000008583069,4|0,3:0|0:0,0:0:0:0:
323,327,43531,2,0,P|306:279|258:272,1,100,2|8,0:0|0:3,0:0:0:0:
99,355,43836,1,10,0:0:0:0:
108,106,44141,6,0,B|109:74|109:74|-8:144|-8:144|28:95,1,225.000008583069,6|0,3:1|0:0,0:0:0:0:
54,18,44445,2,0,P|92:48|107:113,1,110.000003356934,2|8,0:0|0:3,0:0:0:0:
226,270,44750,6,0,B|209:286|209:286|133:221|133:221|173:176,1,150,6|0,3:1|0:0,0:0:0:0:
118,321,45054,5,10,0:0:0:0:
375,148,45359,5,8,1:3:0:0:
375,148,45435,1,8,1:3:0:0:
375,148,45511,1,8,1:3:0:0:
324,47,45663,6,0,B|350:39|350:39|326:206|326:206|349:225,1,225.000008583069,6|0,3:0|0:0,0:0:0:0:
430,220,45968,2,0,P|410:167|342:149,1,100,2|8,0:0|0:3,0:0:0:0:
296,288,46273,2,0,P|347:309|375:304,1,75.0000028610231,10|0,0:0|0:0,0:0:0:0:
180,351,46577,6,0,B|144:361|144:361|84:221|84:221|41:238,1,225.000008583069,6|0,3:1|0:0,0:0:0:0:
24,312,46882,2,0,P|125:255|85:160,1,200,2|0,0:0|0:0,0:0:0:0:
45,153,47262,1,0,0:0:0:0:
45,153,47338,1,2,0:0:0:0:
104,52,47491,5,10,0:0:0:0:
278,254,47795,1,2,0:0:0:0:
490,109,48100,6,0,B|502:104|502:104|524:57|467:-1|393:12|379:61|379:61|387:90,1,225.000008583069,4|0,3:0|0:0,0:0:0:0:
398,156,48404,2,0,P|407:93|369:75,1,100,2|8,0:0|0:3,0:0:0:0:
209,42,48709,6,0,L|47:69,1,150,10|0,0:0|0:0,0:0:0:0:
65,70,49014,2,0,B|37:94|37:94|48:131,1,75.0000028610231,6|0,3:1|0:0,0:0:0:0:
0,12,49166,1,0,0:0:0:0:
130,145,49318,6,0,B|125:204|73:215|80:203|20:212|14:276,1,187.5,2|0,0:0|0:0,0:0:0:0:
48,347,49623,2,0,P|85:315|90:266,1,75.0000028610231,6|0,3:1|0:0,0:0:0:0:
298,174,49927,5,10,0:0:0:0:
298,174,50003,2,0,P|308:149|334:139,1,50,0|0,0:0|1:0,0:0:0:0:
305,270,50232,2,0,P|282:206|207:210,1,150,2|0,1:2|0:0,0:0:0:0:
212,212,50536,6,0,B|204:251|204:251|424:208,1,225.000008583069,6|0,3:0|0:0,0:0:0:0:
464,207,50841,2,0,P|449:270|422:292,1,100,2|8,0:0|0:3,0:0:0:0:
232,364,51146,6,0,L|199:357,2,25,10|0|0,0:0|0:0|0:0,0:0:0:0:
47,304,51450,6,0,B|16:281|16:281|35:139|35:139|80:124,1,225.000008583069,6|0,3:1|0:0,0:0:0:0:
127,196,51755,6,0,P|62:215|40:227,1,75.0000028610231,2|8,0:0|0:3,0:0:0:0:
88,41,52059,2,0,P|121:57|151:80,1,75.0000028610231,2|0,0:0|0:0,0:0:0:0:
340,186,52364,6,0,L|364:194,2,18.7500007152558,10|0|0,0:0|0:0|0:0,0:0:0:0:
75,125,52668,1,2,0:0:0:0:
409,28,52973,6,0,B|445:33|445:33|307:81|307:81|356:92,1,225.000008583069,4|0,3:0|0:0,0:0:0:0:
428,117,53278,2,0,P|427:48|391:19,1,100,2|8,0:0|0:3,0:0:0:0:
308,81,53582,6,0,L|322:244,1,150,10|0,0:0|0:0,0:0:0:0:
326,235,53887,2,0,B|353:264|353:264|397:255,1,75.0000028610231,6|0,3:1|0:0,0:0:0:0:
497,223,54039,1,0,0:0:0:0:
488,373,54191,6,0,P|474:338|462:302,1,75.0000028610231,2|8,0:0|0:3,0:0:0:0:
454,82,54496,2,0,B|476:95|476:95|419:158|419:158|334:143|334:143|346:118,1,225.000008583069,6|0,3:1|0:0,0:0:0:0:
380,47,54800,6,0,L|369:19,2,25,10|0|0,0:0|0:0|0:0,0:0:0:0:
236,243,55105,5,8,1:3:0:0:
230,247,55181,1,8,1:3:0:0:
223,249,55257,1,8,1:3:0:0:
234,339,55410,6,0,B|252:317|252:317|201:154|201:154|217:134,1,225.000008583069,4|0,3:0|0:0,0:0:0:0:
272,78,55714,2,0,P|298:133|280:181,1,100,2|8,0:0|0:3,0:0:0:0:
70,269,56019,6,0,L|4:259,1,50,10|0,0:0|0:0,0:0:0:0:
108,349,56171,1,0,0:0:0:0:
34,98,56323,6,0,B|7:74|7:74|54:201,1,150.000005722046,6|0,3:1|0:0,0:0:0:0:
113,353,56628,2,0,B|158:369|173:302|162:307|181:204|232:225,1,200,2|0,0:0|0:0,0:0:0:0:
294,177,57009,1,0,0:0:0:0:
294,177,57085,2,0,P|317:214|294:278,2,100,2|10|0,0:0|0:0|0:0,0:0:0:0:
177,10,57542,6,0,P|190:78|260:80,1,150,2|0,0:0|0:0,0:0:0:0:
264,84,57846,6,0,B|269:57|269:57|81:113|81:113|106:64,1,262.500002503395,6|0,3:0|0:0,0:0:0:0:
54,13,58151,1,2,0:0:0:0:
230,299,58455,6,0,L|223:333,2,25,10|0|0,0:0|0:0|0:0,0:0:0:0:
304,254,58608,1,0,0:0:0:0:
115,351,58760,6,0,B|103:356|103:356|51:332|51:332|91:274|91:274|107:281,1,150.000005722046,6|0,3:1|0:0,0:0:0:0:
395,175,59064,6,0,L|479:191,1,75.0000028610231,2|0,0:0|0:0,0:0:0:0:
348,108,59217,1,8,0:3:0:0:
162,202,59369,6,0,B|182:189|182:189|163:115,1,100,6|0,3:1|0:0,0:0:0:0:
254,62,59521,2,0,L|241:128,1,50,2|0,0:0|0:0,0:0:0:0:
250,123,59674,5,8,0:0:0:0:
73,86,59978,6,0,P|66:65|47:36,2,50,2|0|0,1:2|0:0|0:0,0:0:0:0:
140,348,60892,6,0,L|138:357,1,6.25,8|0,0:0|0:0,0:0:0:0:
103,194,61044,5,2,0:0:0:0:
24,295,61196,2,0,L|110:270,1,62.5,6|0,3:1|0:0,0:0:0:0:
344,214,61349,1,2,0:0:0:0:
265,313,61501,6,0,B|216:259|249:189|322:179|322:179|330:205|356:225,1,225.000008583069,2|0,0:0|0:0,0:0:0:0:
349,313,61806,2,0,P|228:264|82:226,1,262.500002503395,10|0,0:3|0:0,0:0:0:0:
10,212,62110,6,0,L|0:241,2,31.25,10|0|0,0:0|0:0|0:0,0:0:0:0:
3,245,62415,6,0,B|81:174|69:82|-100:161|-5:143|28:177|3:236,1,225.000008583069,10|0,0:3|0:0,0:0:0:0:
2,329,62719,5,6,3:0:0:0:
259,190,62871,1,8,0:3:0:0:
186,285,63024,6,0,B|139:278|111:311|111:311|114:262|164:261,1,150,2|0,0:0|0:0,0:0:0:0:
186,285,63328,1,10,0:0:0:0:
93,322,63633,5,6,3:1:0:0:
167,356,63709,2,0,P|157:274|126:244,1,100,0|2,0:0|0:0,0:0:0:0:
65,90,63937,6,0,B|40:64|37:19|85:-41|129:-23|146:16|99:22,1,187.5,2|0,0:0|0:0,0:0:0:0:
0,52,64242,6,0,P|60:85|83:109,1,75.0000028610231,6|0,3:1|0:0,0:0:0:0:
174,178,64394,1,0,0:0:0:0:
355,47,64547,6,0,L|360:38,1,6.25,10|0,0:0|0:0,0:0:0:0:
356,62,64851,5,8,1:3:0:0:
353,57,64927,1,8,1:3:0:0:
349,52,65003,1,8,1:3:0:0:
481,71,65156,6,0,B|491:38|491:38|368:51|313:185|313:185|337:180,1,300.000011444092,6|2,3:0|0:0,0:0:0:0:
426,166,65613,2,0,P|415:127|384:106,1,75.0000028610231,10|0,0:3|0:0,0:0:0:0:
175,59,65765,6,0,L|161:114,1,50,10|0,0:0|0:0,0:0:0:0:
75,206,66069,6,0,P|37:148|13:151,1,75.0000028610231,6|0,3:1|0:0,0:0:0:0:
179,225,66222,1,0,0:0:0:0:
90,303,66374,6,0,B|28:303|92:173|188:230,1,187.5,10|0,0:3|0:0,0:0:0:0:
166,364,66679,2,0,L|141:294,1,75.0000028610231,10|0,0:3|0:0,0:0:0:0:
40,148,66831,6,0,P|40:93|126:98,1,150.000005722046,2|8,0:0|0:0,0:0:0:0:
119,88,67288,2,0,B|98:117|98:117|-5:51,1,150,2|0,0:0|0:0,0:0:0:0:
33,106,67592,6,0,L|129:87,1,87.500000834465,6|0,3:0|0:0,0:0:0:0:
350,40,67745,1,10,0:3:0:0:
232,106,67897,6,0,B|216:59|235:23|263:20|263:20|276:63|243:68,1,150,2|0,0:0|0:0,0:0:0:0:
232,106,68201,1,10,0:0:0:0:
339,67,68506,5,6,3:1:0:0:
257,62,68582,2,0,P|279:130|301:142,1,100
436,197,68811,6,0,B|517:186|484:331|485:238|435:258|419:311|422:338,1,187.5,2|0,0:0|0:0,0:0:0:0:
480,381,69115,6,0,P|503:321|481:286,1,100,6|0,3:1|0:0,0:0:0:0:
423,118,69267,1,0,0:0:0:0:
186,347,69420,6,0,L|191:356,1,6.25,10|0,0:0|0:0,0:0:0:0:
196,357,69724,5,8,1:3:0:0:
199,352,69800,1,8,1:3:0:0:
203,347,69876,1,8,1:3:0:0:
30,258,70029,6,0,B|51:167|51:167|113:155|147:196|136:238,1,225.000008583069,6|0,3:0|0:0,0:0:0:0:
86,313,70333,2,0,P|41:290|36:228,1,87.500000834465,2|0,0:0|0:0,0:0:0:0:
242,188,70486,1,8,0:3:0:0:
141,239,70638,6,0,L|349:201,1,187.5,10|0,0:0|0:0,0:0:0:0:
334,373,70943,2,0,B|344:295|273:279|284:301|222:258|242:185,1,225.000008583069,6|0,3:1|0:0,0:0:0:0:
233,105,71247,6,0,B|278:82|278:82|312:151,1,100,2|8,0:0|0:3,0:0:0:0:
33,57,71552,6,0,B|5:39|5:39|33:-2,1,75.0000028610231,2|0,0:0|0:0,0:0:0:0:
80,262,71856,6,0,B|78:282|78:282|47:280,1,50,10|0,0:0|0:0,0:0:0:0:
50,260,72161,1,2,0:0:0:0:
48,280,72465,6,0,B|48:240|102:168|186:157|186:157|192:192,1,225.000008583069,4|0,3:0|0:0,0:0:0:0:
200,258,72770,2,0,P|132:235|117:187,1,100,2|8,0:0|0:3,0:0:0:0:
281,26,73075,6,0,L|317:13,2,25,10|0|0,0:0|0:0|0:0,0:0:0:0:
23,85,73379,6,0,B|1:52|1:52|149:138|149:138|166:124|166:124|169:44|169:44|108:30,1,375,6|8,3:1|0:3,0:0:0:0:
185,18,73988,6,0,B|194:96|126:125|117:91|66:161|89:206,1,225.000008583069,6|0,3:1|0:0,0:0:0:0:
141,284,74293,6,0,L|150:283,1,6.25,10|0,0:0|0:0,0:0:0:0:
154,272,74597,5,8,1:3:0:0:
148,264,74674,1,8,1:3:0:0:
140,259,74750,1,8,1:3:0:0:
472,285,74902,6,0,B|444:301|444:301|384:265|317:271|317:271|304:244,1,187.5,4|0,3:0|0:0,0:0:0:0:
231,226,75207,2,0,P|261:184|320:177,1,100,2|8,0:0|0:3,0:0:0:0:
495,138,75511,6,0,L|483:211,1,62.5,10|0,0:0|0:0,0:0:0:0:
394,3,75663,1,0,0:0:0:0:
442,72,75816,6,0,B|390:106|341:69|341:69|282:24|231:78|231:78|188:130|124:92,1,350,6|0,3:1|0:0,0:0:0:0:
49,81,76425,2,0,P|105:17|162:28,1,125,2|8,0:0|0:3,0:0:0:0:
303,165,76729,6,0,L|312:207,2,25,10|0|0,0:0|0:0|0:0,0:0:0:0:
350,95,77034,1,2,0:0:0:0:
189,324,77338,6,0,B|178:353|178:353|140:199|140:199|95:183,1,225.000008583069,4|0,3:0|0:0,0:0:0:0:
37,224,77643,2,0,P|80:264|121:264,1,100,2|8,0:0|0:3,0:0:0:0:
308,196,77948,6,0,L|317:136,1,50,10|0,0:0|0:0,0:0:0:0:
358,269,78100,1,0,0:0:0:0:
359,79,78252,6,0,B|368:4|235:4|246:66|303:143|169:157|143:108|160:56,1,300,6|8,3:1|0:3,0:0:0:0:
97,17,78861,5,6,3:1:0:0:
370,80,79166,6,0,L|377:77,1,6.25,8|0,0:0|0:0,0:0:0:0:
148,320,79775,6,0,B|73:284|48:173|75:193|75:193|107:212|151:190,1,225.000008583069,2|0,3:2|0:0,0:0:0:0:
60,265,80232,2,0,P|99:212|162:197,1,100,2|0,0:1|0:0,0:0:0:0:
428,153,80384,5,8,0:0:0:0:
408,234,80689,6,0,B|414:154|343:122|299:146|299:146|264:166|286:202,1,225.000008583069,2|0,3:2|0:0,0:0:0:0:
327,236,81146,2,0,P|294:224|280:185,1,75.0000028610231,2|0,0:1|0:0,0:0:0:0:
167,14,81298,5,8,0:3:0:0:
167,14,81450,2,0,P|138:20|126:66,1,75.0000028610231,2|0,0:1|0:0,0:0:0:0:
91,205,81602,6,0,B|85:223|135:240|175:161|169:105|121:39|7:65|-4:136|39:145,1,300,8|0,0:1|0:0,0:0:0:0:
39,145,81907,1,2,0:0:0:0:
61,359,82212,6,0,B|41:269|119:225|155:218|155:218|212:212|152:250|194:306,2,300,2|0|2,3:2|0:0|0:1,0:0:0:0:
257,254,82821,5,8,0:0:0:0:
439,233,83125,6,0,B|453:212|502:250|481:395|343:449|311:286|373:280,1,300,2|0,3:2|0:0,0:0:0:0:
502,275,83582,2,0,L|426:224,1,75.0000028610231,2|0,0:1|0:0,0:0:0:0:
284,97,83734,5,8,3:0:0:0:
324,34,83887,2,0,L|279:106,1,75.0000028610231,2|0,0:1|0:0,0:0:0:0:
169,261,84039,6,0,L|172:266,1,6.25,8|0,0:1|0:0,0:0:0:0:
180,272,84344,5,8,1:3:0:0:
179,280,84420,1,8,1:3:0:0:
185,286,84496,1,8,1:3:0:0:
44,189,84648,6,0,B|-7:169|-40:67|46:35|110:56|91:117|69:142,1,225.000008583069,2|0,3:2|0:0,0:0:0:0:
4,58,85105,2,0,P|53:81|87:123,1,100,2|0,0:1|0:0,0:0:0:0:
237,296,85257,5,8,0:0:0:0:
365,316,85562,6,0,B|339:274|289:306|325:345|292:377|241:400|180:315|251:287,1,225.000008583069,2|0,3:2|0:0,0:0:0:0:
304,360,86019,2,0,L|373:309,1,75.0000028610231,2|0,0:1|0:0,0:0:0:0:
475,222,86171,5,8,0:3:0:0:
475,222,86323,2,0,L|400:187,1,75.0000028610231,2|0,0:1|0:0,0:0:0:0:
267,46,86475,6,0,B|224:60|250:126|299:151|362:144|416:80|391:-23|311:-25|339:9,1,300,8|0,0:1|0:0,0:0:0:0:
336,5,86780,1,2,0:0:0:0:
259,301,87085,6,0,B|247:343|190:344|159:343|179:260|113:247|78:299|128:351|84:381|39:374|13:337,2,300,2|0|2,3:2|0:0|0:1,0:0:0:0:
20,158,87694,5,8,0:0:0:0:
75,217,87998,6,0,B|96:207|99:162|68:141|26:191|-24:140|-24:77|62:-34|143:89|117:110,1,300,2|0,3:2|0:0,0:0:0:0:
47,87,88455,2,0,L|149:112,1,75.0000028610231,2|0,0:1|0:0,0:0:0:0:
332,133,88608,5,8,3:0:0:0:
310,61,88760,2,0,L|336:146,1,75.0000028610231,2|0,0:1|0:0,0:0:0:0:
383,350,88912,6,0,L|386:355,1,6.25,8|0,0:1|0:0,0:0:0:0:
395,362,89217,5,8,1:3:0:0:
394,354,89293,1,8,1:3:0:0:
400,348,89369,1,8,1:3:0:0:
43,304,89521,6,0,B|70:328|169:336|38:163|127:85|211:131|127:342|238:293|260:262,1,350.00000333786,0|2,3:0|0:0,0:0:0:0:
156,352,89978,2,0,P|150:318|149:267,1,62.5
212,76,90130,5,10,0:0:0:0:
158,138,90283,1,0,0:0:0:0:
62,55,90435,6,0,B|72:34|39:18|3:32|-10:65|-10:65|-39:140|83:194|57:29|165:26|224:86,1,400,2|2,3:2|0:0,0:0:0:0:
362,41,90892,2,0,L|287:70,1,75.0000028610231
107,198,91044,5,2,0:0:0:0:
158,138,91196,2,0,L|237:164,1,75.0000028610231
432,231,91349,6,0,B|501:207|509:126|509:126|508:99|494:157|435:145,1,225.000008583069,8|0,0:1|0:0,0:0:0:0:
436,145,91653,1,2,0:0:0:0:
477,307,91958,6,0,B|508:307|521:269|443:55,1,262.500002503395,0|0,3:0|0:0,0:0:0:0:
391,16,92262,2,0,P|373:46|377:86,1,62.5,2|0,0:0|0:0,0:0:0:0:
289,173,92415,1,0,0:0:0:0:
45,59,92567,6,0,L|53:6,1,50,10|0,0:0|0:0,0:0:0:0:
121,112,92871,6,0,B|147:115|150:190|116:232|34:207|69:168|54:120|0:81|-73:189|-7:235|22:237,1,300,2|0,3:2|0:0,0:0:0:0:
14,236,93176,2,0,L|71:221,2,50,2|0|2,0:0|0:0|0:0,0:0:0:0:
218,262,93481,6,0,B|264:275|305:261|336:186|237:123|178:179|169:256|178:326,1,300,2|0,3:2|0:0,0:0:0:0:
113,356,93785,6,0,L|123:358,1,6.25,8|0,0:1|0:0,0:0:0:0:
471,278,94090,5,8,1:3:0:0:
475,274,94166,1,8,1:3:0:0:
482,271,94242,1,8,1:3:0:0:
465,361,94394,6,0,B|457:210|346:125|278:165|389:306|293:287,1,350.00000333786,0|10,3:0|0:3,0:0:0:0:
127,159,94851,2,0,P|166:98|198:109,1,87.500000834465,2|0,0:0|0:0,0:0:0:0:
241,214,95003,6,0,P|224:217|72:252,1,150,10|0,0:0|0:0,0:0:0:0:
170,253,95308,6,0,B|218:203|255:119|225:47|139:20|86:90|91:134|139:169,1,350.00000333786,0|0,3:2|0:0,0:0:0:0:
321,225,95765,6,0,L|392:179,1,75.0000028610231,2|0,0:0|0:0,0:0:0:0:
397,96,95917,1,2,0:0:0:0:
342,46,96069,6,0,L|397:96,1,75.0000028610231,2|0,0:0|0:0,0:0:0:0:
512,192,96222,6,0,B|500:160|500:160|275:118,1,262.500002503395,8|0,0:1|0:0,0:0:0:0:
275,118,96526,1,2,0:0:0:0:
67,353,96831,6,0,B|106:248|204:247|176:279|176:279|148:311|181:356|198:348,2,262.500002503395,0|0|0,3:0|0:0|0:0,0:0:0:0:
296,260,97440,5,10,0:0:0:0:
336,356,97745,6,0,B|393:321|345:188|272:143|228:191,1,262.500002503395,2|0,3:2|0:0,0:0:0:0:
161,146,98049,1,2,0:0:0:0:
161,146,98201,2,0,P|162:98|184:64,1,75.0000028610231,2|0,0:0|0:0,0:0:0:0:
340,59,98354,5,2,3:2:0:0:
374,122,98506,2,0,P|362:86|338:57,1,75.0000028610231
250,0,98658,5,8,0:1:0:0:
243,6,98734,1,0,0:0:0:0:
252,9,98811,1,0,0:0:0:0:
34,294,99267,6,0,B|46:294|46:294|103:43,1,262.500002503395,2|0,3:2|0:0,0:0:0:0:
33,13,99572,1,8,0:3:0:0:
33,13,99724,2,0,L|3:24,1,25,2|0,0:1|0:0,0:0:0:0:
109,182,99877,2,0,L|158:196,1,50,8|0,0:0|0:0,0:0:0:0:
392,233,100181,6,0,B|378:223|378:223|155:284|155:284|138:271,1,262.500002503395,2|0,3:2|0:0,0:0:0:0:
69,253,100486,2,0,L|56:306,1,50,0|2,0:0|0:1,0:0:0:0:
249,164,100790,5,8,0:3:0:0:
238,116,100943,2,0,L|249:164,1,50,2|0,0:1|0:0,0:0:0:0:
386,307,101095,6,0,B|393:312|393:312|366:189|366:189|378:196,1,150.000005722046,8|0,0:1|0:0,0:0:0:0:
351,216,101399,1,2,0:0:0:0:
410,296,101552,1,0,0:0:0:0:
501,133,101704,6,0,B|488:119|488:119|231:168,1,262.500002503395,2|0,3:2|0:0,0:0:0:0:
175,131,102009,1,8,0:3:0:0:
175,131,102161,2,0,L|186:97,1,25,2|0,0:1|0:0,0:0:0:0:
9,27,102313,2,0,L|20:80,1,50,8|0,0:0|0:0,0:0:0:0:
251,167,102618,6,0,L|235:239,1,50,2|0,3:2|0:0,0:0:0:0:
211,295,102770,2,0,B|163:151|163:151|181:118,1,175.00000166893
91,369,103075,1,2,0:1:0:0:
118,274,103227,2,0,B|105:322|105:322|102:323|102:323|89:373,1,100,8|2,3:0|0:1,0:0:0:0:
2,190,103531,6,0,L|0:182,1,6.25,8|0,0:1|0:0,0:0:0:0:
143,30,103836,5,8,1:3:0:0:
138,25,103912,1,8,1:3:0:0:
132,22,103988,1,8,1:3:0:0:
47,26,104141,6,0,B|24:40|24:40|241:88|241:88|228:95,1,262.500002503395,2|0,3:2|0:0,0:0:0:0:
305,42,104445,1,8,0:3:0:0:
305,42,104597,2,0,L|296:7,1,25,2|0,0:1|0:0,0:0:0:0:
512,149,104750,2,0,L|499:205,1,50,8|0,0:0|0:0,0:0:0:0:
362,318,105054,6,0,L|345:270,1,50,2|0,3:2|0:0,0:0:0:0:
286,363,105207,2,0,B|433:316|433:316|455:334,2,175.00000166893,0|0|2,0:0|0:0|0:1,0:0:0:0:
115,334,105663,1,8,0:3:0:0:
197,365,105816,2,0,L|204:310,1,50,2|0,0:1|0:0,0:0:0:0:
234,136,105968,6,0,B|245:145|245:145|195:179,2,75,8|0|0,0:1|0:0|0:0,0:0:0:0:
84,96,106577,6,0,B|94:79|94:79|319:117|319:117|335:97,1,262.500002503395,2|0,3:2|0:0,0:0:0:0:
404,80,106882,1,8,0:3:0:0:
404,80,107034,2,0,L|393:40,1,25,2|0,0:1|0:0,0:0:0:0:
487,230,107186,2,0,L|471:299,1,50,8|0,0:0|0:0,0:0:0:0:
254,333,107491,6,0,L|242:282,1,50,2|0,3:2|0:0,0:0:0:0:
399,224,107643,2,0,B|375:208|375:208|177:254|177:254|152:232,1,262.500002503395
78,207,107948,6,0,L|69:257,1,50,2|0,0:1|0:0,0:0:0:0:
70,35,108100,5,8,3:0:0:0:
11,89,108252,2,0,L|80:73,1,50,2|0,0:1|0:0,0:0:0:0:
243,31,108404,6,0,L|280:37,3,25,8|0|0|0,0:1|0:0|0:0|0:0,0:0:0:0:
255,23,109014,6,0,P|240:85|246:219,1,187.500007152558
244,208,109470,1,8,0:3:0:0:
441,150,109623,6,0,L|448:98,1,37.5000014305115,8|0,3:2|0:0,0:0:0:0:
386,215,109775,1,0,0:0:0:0:
510,271,109927,6,0,P|470:173|384:218,1,225.000008583069,0|0,3:0|0:0,0:0:0:0:
262,341,110232,2,0,B|191:358|197:286|190:300|183:223|105:250,1,200,2|0,0:0|0:0,0:0:0:0:
297,256,110689,5,2,0:0:0:0:
92,349,110841,6,0,L|65:341,2,25,10|0|0,0:1|0:0|0:0,0:0:0:0:
206,225,110993,1,2,0:0:0:0:
50,183,111146,2,0,P|19:220|21:273,1,100,2|0,0:0|0:0,0:0:0:0:
262,341,111450,6,0,B|279:319|279:319|238:121,1,225.000008583069,0|0,3:0|0:0,0:0:0:0:
268,50,111755,2,0,P|301:66|320:102,1,75.0000028610231,2|0,0:0|0:0,0:0:0:0:
488,139,111907,1,0,0:0:0:0:
392,176,112059,2,0,L|419:42,1,125,10|0,0:0|0:0,0:0:0:0:
293,289,112364,6,0,B|264:310|264:310|322:397|430:352|430:352|419:315,1,262.500002503395,2|0,3:2|0:0,0:0:0:0:
366,254,112668,2,0,P|355:209|398:175,1,100,2|0,0:0|0:0,0:0:0:0:
482,23,112973,6,0,B|501:47|501:47|333:76|333:76|318:58,1,225.000008583069,2|0,3:2|0:0,0:0:0:0:
247,23,113278,6,0,L|248:15,1,6.25,10|0,0:1|0:0,0:0:0:0:
13,184,113582,5,8,1:3:0:0:
13,191,113658,1,8,1:3:0:0:
17,197,113734,1,8,1:3:0:0:
3,104,113887,6,0,B|-20:31|46:-27|116:5|138:48|138:48|123:113,1,262.500002503395,0|0,3:0|0:0,0:0:0:0:
162,158,114191,2,0,P|137:166|80:146,1,75.0000028610231,2|0,0:0|0:0,0:0:0:0:
297,220,114496,6,0,P|366:186|327:85,1,187.5,10|0,0:0|0:0,0:0:0:0:
285,45,114800,2,0,B|243:30|243:30|279:68,1,87.500000834465,2|0,3:2|0:0,0:0:0:0:
241,166,114953,1,0,0:0:0:0:
432,208,115105,6,0,B|452:259|452:259|318:155|318:155|323:192|323:192|285:231,2,300.000011444092,2|2|10,0:0|0:0|0:1,0:0:0:0:
149,232,116019,2,0,L|47:260,1,100,2|0,0:0|0:0,0:0:0:0:
201,342,116323,6,0,B|219:263|150:234|150:234|137:154|204:115,1,262.500002503395,0|0,3:0|0:0,0:0:0:0:
268,94,116628,2,0,B|292:140|292:140|253:174,1,100,2|0,0:0|0:0,0:0:0:0:
68,225,116932,6,0,L|-2:210,1,50,10|0,0:0|0:0,0:0:0:0:
124,316,117085,1,0,0:0:0:0:
127,140,117237,6,0,B|152:101|134:11|134:11|153:102|199:127,1,262.500002503395,2|0,3:2|0:0,0:0:0:0:
177,205,117542,1,2,0:0:0:0:
474,253,118760,6,0,B|457:269|457:269|446:271|446:271|436:277|436:277|423:277|423:277|411:280|411:280|397:274|397:274|383:273|383:273|370:262|370:262|359:257|359:257|342:244|342:244|330:241|330:241|320:237|320:237|308:236|308:236|289:237|289:237|275:244|275:244|260:248|260:248|250:261|250:261|238:266|238:266|231:279|231:279|220:288|220:288|213:300|213:300|199:304|199:304|188:311|188:311|172:308|172:308|158:310|158:310|126:299,1,400,4|8,0:3|0:0,0:0:0:0:
474,253,119674,6,0,B|457:269|457:269|450:264|450:264|447:278|447:278|437:265|437:265|429:288|429:288|423:262|423:262|412:291|412:291|406:258|406:258|392:291|392:291|390:251|390:251|374:287|374:287|375:245|375:245|355:278|355:278|360:232|360:232|344:272|344:272|344:223|344:223|333:267|333:267|328:216|328:216|319:265|319:265|312:214|312:214|299:265|299:265|292:214|292:214|282:269|282:269|271:222|271:222|269:272|269:272|250:233|250:233|257:279|257:279|231:252|231:252|244:289|244:289|218:268|218:268|229:303|229:303|197:280|197:280|211:314|211:314|184:287|184:287|191:317|191:317|171:293|171:293|168:314|168:314|155:298|155:298|146:306|146:306|118:296,1,1454.99998057365,6|0,3:1|0:0,0:0:0:0:
49,290,120587,6,0,P|67:222|159:230,1,150.000005722046,10|0,0:0|0:0,0:0:0:0:
273,72,120892,6,0,P|258:28|197:25,1,112.500004291535,10|0,0:3|0:0,0:0:0:0:
146,91,121196,6,0,B|178:111|178:111|431:79,1,262.500002503395,6|0,3:0|0:0,0:0:0:0:
459,30,121501,1,2,0:0:0:0:
507,208,121653,2,0,L|453:192,1,50,10|0,0:3|0:0,0:0:0:0:
224,151,121806,6,0,L|225:145,1,6.25,10|0,0:0|0:0,0:0:0:0:
150,95,122110,5,6,3:1:0:0:
228,155,122186,2,0,P|244:193|245:232,1,75.0000028610231,0|2,0:0|0:0,0:0:0:0:
91,335,122415,6,0,B|25:359|-9:315|41:271|41:271|51:320|91:335,1,225.000008583069,2|0,0:0|0:0,0:0:0:0:
172,317,122719,6,0,P|160:276|120:259,1,87.500000834465,6|0,3:1|0:0,0:0:0:0:
3,155,122871,2,0,P|22:113|87:123,1,100
157,52,123024,6,0,P|152:69|150:100,2,43.75,10|0|8,0:0|0:0|1:3,0:0:0:0:
161,56,123633,6,0,B|242:7|296:85|276:105|257:132|325:211|395:152,1,300,6|0,3:0|0:0,0:0:0:0:
463,114,123937,2,0,B|443:53|443:53|383:78,1,125,2|10,0:0|0:3,0:0:0:0:
197,242,124242,6,0,L|191:285,2,31.25,10|0|0,0:0|0:0|0:0,0:0:0:0:
265,187,124394,1,0,0:0:0:0:
102,264,124547,6,0,P|184:296|259:340,1,175.00000166893,6|0,3:1|0:0,0:0:0:0:
454,308,124851,6,0,P|451:226|348:242,1,175.00000166893,10|8,0:3|0:3,0:0:0:0:
269,191,125156,2,0,L|246:256,1,50,10|0,0:3|0:0,0:0:0:0:
166,329,125308,6,0,P|107:322|106:264,1,125,2|0,0:0|0:0,0:0:0:0:
66,201,125460,1,8,0:0:0:0:
171,328,125765,6,0,P|209:346|317:371,1,150,2|0,0:0|0:0,0:0:0:0:
482,250,126069,6,0,B|472:276|472:276|354:299|354:299|332:267,1,175.00000166893,6|10,3:0|0:3,0:0:0:0:
275,228,126298,1,0,0:0:0:0:
275,228,126374,2,0,P|307:203|330:199,1,50,2|0,0:0|0:0,0:0:0:0:
365,134,126526,1,8,0:3:0:0:
117,11,126679,6,0,L|107:9,1,6.25,10|0,0:0|0:0,0:0:0:0:
160,87,126983,5,6,3:1:0:0:
121,15,127059,2,0,P|85:41|85:87,1,75.0000028610231,0|8,0:0|0:3,0:0:0:0:
3,207,127288,6,0,B|18:245|88:260|129:167|91:129,1,175.00000166893,2|8,0:0|0:3,0:0:0:0:
270,59,127592,2,0,P|229:33|224:-7,1,75.0000028610231,6|0,3:1|0:0,0:0:0:0:
163,90,127745,1,0,0:0:0:0:
416,42,127897,6,0,P|444:52|460:62,2,43.75,10|0|8,0:0|0:0|1:3,0:0:0:0:
420,46,128506,6,0,B|375:58|377:119|377:119|377:143|434:133|467:203|426:262,1,262.500002503395,6|0,3:0|0:0,0:0:0:0:
399,331,128811,6,0,P|365:316|355:282,1,62.5,2|0,0:0|0:0,0:0:0:0:
265,181,128963,1,8,0:3:0:0:
363,213,129115,2,0,P|286:220|277:286,1,150.000005722046,10|0,0:0|0:0,0:0:0:0:
70,322,129420,6,0,B|64:353|64:353|202:326|202:326|187:300,1,200,6|8,3:1|0:3,0:0:0:0:
215,129,129724,6,0,B|168:86|93:135|97:159|105:196|86:261|6:243,1,262.500002503395,2|0,0:0|0:0,0:0:0:0:
13,170,130029,2,0,B|33:143|59:132|224:233,1,225.000008583069,2|0,0:0|0:0,0:0:0:0:
273,292,130333,6,0,L|272:299,1,6.25,10|0,0:0|0:0,0:0:0:0:
442,7,130638,2,0,P|453:42|395:70,1,100,2|0,0:0|0:0,0:0:0:0:
210,222,130943,6,0,P|254:138|386:-8,1,262.500002503395,4|0,3:0|0:0,0:0:0:0:
402,79,131247,6,0,L|326:88,1,62.5,2|0,0:0|0:0,0:0:0:0:
180,97,131399,1,8,0:3:0:0:
321,319,131552,6,0,L|329:288,2,31.25,10|0|0,0:0|0:0|0:0,0:0:0:0:
337,286,131856,6,0,B|383:348|339:408|248:409|237:345|264:287|219:263|103:282|136:339,1,350.00000333786,6|8,3:1|0:3,0:0:0:0:
50,228,132313,6,0,P|54:259|78:279,1,50,8|0,0:3|0:0,0:0:0:0:
146,250,132465,2,0,P|167:196|40:142,1,225.000008583069,6|0,3:1|0:0,0:0:0:0:
23,53,132770,6,0,P|2:37|4:19,2,43.75,10|0|8,0:0|0:0|1:3,0:0:0:0:
10,18,133379,6,0,B|41:31|41:31|92:221|92:221|128:239,1,262.500002503395,4|0,3:0|0:0,0:0:0:0:
100,312,133684,2,0,P|160:302|186:276,1,87.500000834465,2|0,0:0|0:0,0:0:0:0:
282,127,133836,6,0,L|271:76,1,37.5000014305115,8|0,0:3|0:0,0:0:0:0:
412,223,133988,6,0,L|406:256,2,25,10|0|0,0:0|0:0|0:0,0:0:0:0:
512,176,134293,5,6,3:1:0:0:
414,255,134445,5,8,0:3:0:0:
286,120,134597,5,8,0:3:0:0:
188,293,134750,5,8,0:3:0:0:
28,91,134902,6,0,B|14:49|34:3|77:-7|77:-7|75:3|85:24,2,150.000005722046,2|10|2,0:0|0:0|0:0,0:0:0:0:
223,36,135816,6,0,B|243:10|243:10|-2:101,1,262.500002503395,4|0,3:0|0:0,0:0:0:0:
5,166,136120,6,0,P|30:172|69:159,1,62.5,2|0,0:0|0:0,0:0:0:0:
150,6,136273,1,8,0:3:0:0:
229,286,136425,6,0,L|227:296,1,6.25,10|0,0:0|0:0,0:0:0:0:
220,286,136729,6,0,B|207:263|207:263|240:188|333:213|366:282|310:341,1,262.500002503395,6|0,3:1|0:0,0:0:0:0:
307,336,137034,2,0,P|282:358|271:371,2,44.999998626709,2|0|0,0:0|0:0|0:0,0:0:0:0:
496,128,137643,6,0,P|457:46|495:129,1,300,2|0,0:0|0:0,0:0:0:0:
461,94,137948,5,10,0:0:0:0:
461,94,138252,6,0,L|318:119,1,100,6|0,3:2|0:0,0:0:0:0:
88,80,138404,6,0,L|38:35,1,50,2|0,0:2|0:0,0:0:0:0:
256,151,138557,6,0,P|267:197|217:241,1,112.500004291535,14|0,0:2|0:0,0:0:0:0:
175,145,138709,2,0,P|183:107|222:82,1,75.0000028610231,2|0,0:2|0:0,0:0:0:0:
298,323,138861,6,0,B|280:296|280:296|114:269,1,200,6|2,0:2|3:2,0:0:0:0:
7,151,139090,1,0,0:0:0:0:
20,244,139166,2,0,L|101:176,1,100,14|0,0:2|0:0,0:0:0:0:
282,32,139318,1,2,0:2:0:0:
320,319,139470,5,6,3:2:0:0:
399,303,139623,2,0,P|381:262|344:240,1,87.500000834465,2|0,3:2|0:0,0:0:0:0:
192,65,139775,5,14,0:2:0:0:
113,81,139927,2,0,P|130:121|167:143,1,87.500000834465,2|0,0:2|0:0,0:0:0:0:
185,311,140080,6,0,P|219:276|246:257,1,62.5,6|0,0:2|0:0,0:0:0:0:
327,73,140232,2,0,P|292:107|265:126,1,62.5,2|0,3:2|0:0,0:0:0:0:
256,192,140384,5,14,0:2:0:0:
256,192,140689,6,0,L|130:176,1,112.500004291535,6|0,3:2|0:0,0:0:0:0:
474,306,140841,6,0,L|524:294,1,37.5000014305115,2|0,0:2|0:0,0:0:0:0:
310,340,140993,5,14,0:2:0:0:
481,61,141146,5,2,0:2:0:0:
382,273,141298,1,6,0:2:0:0:
223,104,141450,1,2,3:2:0:0:
483,148,141602,6,0,P|434:147|399:222,1,112.500004291535,14|0,0:2|0:0,0:0:0:0:
254,300,141755,2,0,P|274:331|310:340,1,75.0000028610231,2|0,0:2|0:0,0:0:0:0:
395,358,141907,5,6,3:2:0:0:
155,266,142059,5,2,3:2:0:0:
144,274,142136,1,2,3:2:0:0:
155,279,142212,1,14,0:2:0:0:
359,111,142364,5,2,0:2:0:0:
164,135,142516,6,0,P|136:150|106:157,1,62.5,6|0,0:2|0:0,0:0:0:0:
345,253,142668,2,0,P|372:237|402:228,1,62.5,2|0,3:2|0:0,0:0:0:0:
256,192,142821,5,14,0:3:0:0:
256,192,143125,6,0,L|269:69,1,112.500004291535,6|0,3:2|0:0,0:0:0:0:
489,3,143278,6,0,L|502:50,1,37.5000014305115,2|0,3:2|0:0,0:0:0:0:
200,30,143430,5,14,0:2:0:0:
371,106,143582,5,2,0:2:0:0:
173,227,143734,1,6,0:2:0:0:
94,28,143887,1,2,3:2:0:0:
50,231,144039,6,0,P|87:184|55:126,1,112.500004291535,14|0,0:2|0:0,0:0:0:0:
27,73,144191,2,0,P|-5:104|-7:133,1,75.0000028610231,2|0,0:2|0:0,0:0:0:0:
118,293,144344,5,6,3:2:0:0:
46,341,144496,2,0,P|82:310|134:287,1,87.500000834465,2|0,0:2|0:0,0:0:0:0:
348,227,144648,5,14,0:2:0:0:
416,283,144800,2,0,P|383:248|334:220,1,87.500000834465,2|0,0:2|0:0,0:0:0:0:
236,97,144953,6,0,P|246:67|261:40,1,62.5,6|0,0:2|0:0,0:0:0:0:
276,287,145105,2,0,P|265:316|250:343,1,62.5,2|0,3:2|0:0,0:0:0:0:
256,192,145257,5,14,0:2:0:0:
256,192,145562,6,0,L|135:203,1,112.500004291535,6|0,3:2|0:0,0:0:0:0:
429,73,145714,6,0,L|484:85,1,37.5000014305115,2|0,0:2|0:0,0:0:0:0:
260,40,145866,5,14,0:2:0:0:
406,162,146019,5,2,0:2:0:0:
201,108,146171,1,6,0:2:0:0:
160,312,146323,1,2,3:2:0:0:
37,118,146476,6,0,P|64:57|112:51,1,112.500004291535,14|0,0:2|0:0,0:0:0:0:
88,180,146628,2,0,P|55:200|12:190,1,75.0000028610231,2|0,0:2|0:0,0:0:0:0:
0,6,146780,5,6,3:2:0:0:
173,182,146932,1,2,3:2:0:0:
218,50,147085,5,14,0:2:0:0:
262,274,147237,1,2,0:2:0:0:
406,162,147389,5,6,0:2:0:0:
323,372,147542,1,2,3:2:0:0:
491,305,147694,6,0,P|448:259|407:252,1,87.500000834465,14|0,0:2|0:0,0:0:0:0:
308,201,147846,1,8,0:1:0:0:
263,223,147922,1,8,0:1:0:0:
262,274,147998,6,0,P|335:284|343:125,1,262.500002503395,4|0,3:2|0:0,0:0:0:0:
368,56,148303,5,14,0:2:0:0:
150,166,148455,2,0,P|79:141|-26:122,1,150.000005722046,2|4,0:2|0:0,0:0:0:0:
154,322,148760,6,0,P|161:285|176:250,1,75.0000028610231,2|0,3:2|0:0,0:0:0:0:
190,86,148912,1,12,0:2:0:0:
314,143,149064,6,0,P|305:82|182:108,1,200,2|4,0:2|3:2,0:0:0:0:
113,80,149293,1,2,0:0:0:0:
113,80,149369,2,0,P|114:128|140:152,2,75.0000028610231,2|0|12,0:2|0:0|0:2,0:0:0:0:
70,362,149674,6,0,P|136:343|222:306,1,150.000005722046,2|4,0:2|0:0,0:0:0:0:
366,274,149902,1,2,0:0:0:0:
300,340,149978,2,0,P|368:310|472:285,1,175.00000166893,2|12,3:2|0:2,0:0:0:0:
421,111,150283,6,0,P|431:34|496:38,1,150,2|0,0:2|0:0,0:0:0:0:
490,33,150435,1,4,3:2:0:0:
278,200,150587,6,0,P|212:177|160:169,1,87.500000834465,2|0,0:2|0:0,0:0:0:0:
312,277,150740,1,12,0:2:0:0:
210,52,150892,6,0,B|173:28|107:37|102:109|112:117|125:127|111:174|59:196|16:166,1,262.500002503395,2|0,0:2|0:0,0:0:0:0:
31,90,151196,1,2,3:2:0:0:
36,93,151273,2,0,B|80:94|80:94|95:159,1,87.500000834465,2|14,0:0|0:2,0:0:0:0:
141,330,151501,6,0,B|165:192|165:192|198:171,2,175.00000166893,2|4|2,0:2|3:2|0:2,0:0:0:0:
147,336,151882,2,0,P|194:355|230:332,1,87.500000834465,2|14,0:0|0:2,0:0:0:0:
465,186,152110,6,0,P|420:133|289:1,1,225.000008583069,2|4,0:2|0:0,0:0:0:0:
320,231,152415,2,0,P|282:166|258:100,1,131.250001251698,2|0,3:2|0:0,0:0:0:0:
262,114,152567,1,12,0:2:0:0:
142,208,152719,2,0,P|137:137|139:115,1,75.0000028610231,2|0,0:2|0:0,0:0:0:0:
315,25,152871,6,0,B|346:38|372:99|330:155|285:145|277:143|271:139|210:166|191:244|255:273,1,300,4|0,3:2|0:0,0:0:0:0:
238,338,153176,2,0,P|276:330|286:306,1,50,14|0,3:2|0:0,0:0:0:0:
385,294,153328,5,2,0:0:0:0:
375,301,153404,1,2,0:0:0:0:
387,308,153481,2,0,P|376:333|377:371,1,50,6|0,0:2|0:0,0:0:0:0:
119,85,153785,6,0,B|97:67|83:2|138:-57|268:10|186:124|87:114,1,300,14|0,0:2|0:0,0:0:0:0:
21,147,154090,2,0,P|10:102|30:64,1,75.0000028610231,6|0,3:2|0:0,0:0:0:0:
91,4,154242,1,0,0:0:0:0:
205,201,154394,5,14,3:2:0:0:
73,353,154547,1,2,0:0:0:0:
83,349,154623,1,2,0:0:0:0:
76,342,154699,6,0,P|87:295|149:264,1,112.500004291535,6|0,0:2|0:0,0:0:0:0:
285,165,154851,6,0,P|294:200|324:221,1,75.0000028610231,0|0,3:2|0:0,0:0:0:0:
415,338,155003,6,0,P|438:315|458:311,1,50,14|0,0:2|0:0,0:0:0:0:
291,374,155308,6,0,B|260:361|247:291|285:232|325:249|330:253|337:258|396:233|403:155|356:115,1,300,4|0,3:2|0:0,0:0:0:0:
356,53,155613,2,0,P|331:56|315:75,1,50,14|0,0:2|0:0,0:0:0:0:
183,140,155765,5,2,0:0:0:0:
229,175,155841,1,2,0:0:0:0:
281,162,155917,2,0,P|259:130|245:116,1,50,6|0,0:2|0:0,0:0:0:0:
95,9,156069,1,0,3:2:0:0:
372,181,156222,6,0,B|386:118|527:42|379:113|320:77,1,225.000008583069,14|0,0:2|0:0,0:0:0:0:
178,144,156526,6,0,B|163:221|1:311|171:228|237:264,1,262.500002503395,6|0,3:2|0:0,0:0:0:0:
343,307,156831,6,0,P|308:228|213:35,1,300,14|0,3:2|0:0,0:0:0:0:
138,10,157135,6,0,B|100:125|240:175|314:108|329:9|268:-18|268:-18|234:-28|259:26|211:41,1,450.000017166138,6|0,3:2|0:0,0:0:0:0:
39,102,157440,5,14,3:3:0:0:
374,336,182852,5,0,3:2:0:0:
