osu file format v14

[General]
AudioFilename: audio.mp3
AudioLeadIn: 0
PreviewTime: 136882
Countdown: 0
SampleSet: Soft
StackLeniency: 0.5
Mode: 0
LetterboxInBreaks: 0
WidescreenStoryboard: 1

[Editor]
Bookmarks: 235,19717,39209,58702,78194,87940,97686,107416,117179,135131,135150,135169,135188,135208,135227,135246,135265,135284,135303,135322,135341,135360,135379,135398,135417,135436,136654,146400,156128,156174,181257
DistanceSpacing: 0.5
BeatDivisor: 4
GridSize: 32
TimelineZoom: 2.4

[Metadata]
Title:prozac
TitleUnicode:prozac
Artist:brakence
ArtistUnicode:brakence
Creator:Mimari
Version:high school crush
Source:
Tags:punk2 english hyper pop emo rap hyperpop glitchpop digicore trap jamesjan3 jamesjan riffy bakari hhjkl wetdog123 schoolboy komore mayflower i love ganyu sing
BeatmapID:3213671
BeatmapSetID:1573985

[Difficulty]
HPDrainRate:5
CircleSize:4
OverallDifficulty:8.8
ApproachRate:9.1
SliderMultiplier:1.9
SliderTickRate:1

[Events]
//Background and Video events
0,0,"i hate myself for it.jpeg",0,0
//Break Periods
2,157944,182268
//Storyboard Layer 0 (Background)
//Storyboard Layer 1 (Fail)
//Storyboard Layer 2 (Pass)
//Storyboard Layer 3 (Foreground)
//Storyboard Layer 4 (Overlay)
//Storyboard Sound Samples
Sample,157726,0,"we love u mimari.wav",30

[TimingPoints]
1806,304.568527918782,4,2,80,50,1,0
2567,-133.333333333333,4,2,80,50,0,0
3024,-105.263157894737,4,2,80,50,0,0
4547,-133.333333333334,4,2,80,50,0,0
5460,-105.263157894737,4,2,80,50,0,0
6374,-133.333333333334,4,2,80,50,0,0
8811,-105.263157894737,4,2,80,50,0,0
9420,-153.846153846153,4,2,80,50,0,0
10333,-133.333333333333,4,2,80,50,0,0
11552,-153.846153846153,4,2,80,50,0,0
12770,-117.647058823529,4,2,80,50,0,0
13684,-133.333333333333,4,2,80,50,0,0
14597,-105.263157894737,4,2,80,50,0,0
15511,-133.333333333333,4,2,80,50,0,0
16729,-181.818181818181,4,2,80,50,0,0
17338,-125,4,2,80,50,0,0
18823,-181.818181818181,4,2,80,50,0,0
19775,-111.111111111111,4,2,80,50,0,0
20384,-117.64705882353,4,2,80,50,0,0
20993,-133.333333333334,4,2,13,45,0,0
21069,-117.64705882353,4,2,13,30,0,0
21146,-117.64705882353,4,2,13,15,0,0
21298,-117.64705882353,4,2,30,60,0,0
21602,-153.846153846154,4,2,30,60,0,0
22212,-117.64705882353,4,2,30,60,0,0
23125,-95.2380952380956,4,2,30,60,0,0
24039,-117.647058823529,4,2,30,60,0,0
24953,-105.263157894737,4,2,30,60,0,0
25257,-95.2380952380954,4,2,30,60,0,0
25562,-117.647058823529,4,2,30,60,0,0
25638,-95.2380952380954,4,2,13,45,0,0
25714,-95.2380952380954,4,2,13,30,0,0
25790,-95.2380952380954,4,2,13,15,0,0
25866,-95.2380952380954,4,2,30,60,0,0
26476,-117.647058823529,4,2,30,60,0,0
26780,-105.263157894737,4,2,30,60,0,0
27694,-117.64705882353,4,2,30,60,0,0
30435,-105.263157894737,4,2,30,60,0,0
30740,-105.263157894737,4,2,13,60,0,0
30816,-105.263157894737,4,2,13,45,0,0
30892,-105.263157894737,4,2,13,30,0,0
30968,-105.263157894737,4,2,13,15,0,0
31044,-105.263157894737,4,2,30,60,0,0
33481,-95.2380952380954,4,2,30,60,0,0
34699,-117.647058823529,4,2,30,60,0,0
35384,-117.647058823529,4,2,13,45,0,0
35460,-117.647058823529,4,2,13,30,0,0
35536,-117.647058823529,4,2,13,15,0,0
35613,-117.647058823529,4,2,30,60,0,0
36222,-95.2380952380951,4,2,30,60,0,0
37135,-117.647058823529,4,2,30,60,0,0
37897,-133.333333333333,4,2,30,60,0,0
38354,-105.263157894737,4,2,30,60,0,0
38658,-117.647058823529,4,2,30,60,0,0
40257,-117.647058823529,4,2,13,45,0,0
40333,-117.647058823529,4,2,13,30,0,0
40410,-117.647058823529,4,2,13,15,0,0
40486,-117.647058823529,4,2,30,60,0,0
40790,-50,4,2,12,60,0,0
42618,-181.818181818181,4,2,12,60,0,0
43227,-100,4,2,13,60,0,0
44141,-86.9565217391304,4,2,13,60,0,0
45359,-100,4,2,13,60,0,0
45435,-100,4,2,13,45,0,0
45511,-100,4,2,13,30,0,0
45587,-100,4,2,13,15,0,0
45663,-100,4,2,12,60,0,0
46577,-76.9230769230769,4,2,12,60,0,0
47034,-100,4,2,12,60,0,0
48100,-100,4,2,13,60,0,0
48404,-86.9565217391303,4,2,13,60,0,0
50080,-86.9565217391303,4,2,13,45,0,0
50156,-86.9565217391303,4,2,13,30,0,0
50232,-100,4,2,13,15,0,0
50536,-100,4,2,12,60,0,0
51450,-86.9565217391304,4,2,12,60,0,0
52364,-181.818181818182,4,2,12,60,0,0
52973,-100,4,2,13,60,0,0
53887,-86.9565217391304,4,2,13,60,0,0
55181,-86.9565217391304,4,2,13,45,0,0
55257,-86.9565217391304,4,2,13,30,0,0
55333,-86.9565217391304,4,2,13,15,0,0
55410,-86.9565217391304,4,2,12,60,0,0
55714,-100,4,2,12,60,0,0
56323,-86.9565217391303,4,2,12,60,0,0
56780,-133.333333333333,4,2,12,60,0,0
57846,-76.9230769230769,4,2,13,60,0,0
58151,-133.333333333333,4,2,13,60,0,0
58760,-76.9230769230769,4,2,13,60,0,0
59369,-90.9090909090909,4,2,13,60,0,0
59826,-90.9090909090909,4,2,13,45,0,0
59902,-90.9090909090909,4,2,13,30,0,0
59978,-90.9090909090909,4,2,13,15,0,0
60283,-90.9090909090909,4,2,12,60,0,0
61044,-83.3333333333333,4,2,12,60,0,0
62720,-83.3333333333333,4,2,13,60,0,0
64242,-76.9230769230769,4,2,13,60,0,0
64851,-90.9090909090909,4,2,13,60,0,0
64928,-90.9090909090909,4,2,13,45,0,0
65004,-90.9090909090909,4,2,13,30,0,0
65080,-90.9090909090909,4,2,13,15,0,0
65156,-90.9090909090909,4,2,12,60,0,0
66069,-76.9230769230769,4,2,12,60,0,0
66526,-90.9090909090909,4,2,12,60,0,0
67593,-90.9090909090909,4,2,13,60,0,0
68506,-76.9230769230769,4,2,13,60,0,0
69724,-90.9090909090909,4,2,13,60,0,0
69800,-90.9090909090909,4,2,13,45,0,0
69877,-90.9090909090909,4,2,13,30,0,0
69953,-90.9090909090909,4,2,13,15,0,0
70029,-83.3333333333333,4,2,12,60,0,0
70638,-100,4,2,12,60,0,0
70943,-76.9230769230769,4,2,12,60,0,0
71552,-90.9090909090909,4,2,12,60,0,0
72466,-90.9090909090909,4,2,13,60,0,0
73379,-76.9230769230769,4,2,13,60,0,0
74293,-90.9090909090909,4,2,13,60,0,0
74674,-90.9090909090909,4,2,13,45,0,0
74750,-90.9090909090909,4,2,13,30,0,0
74826,-90.9090909090909,4,2,13,15,0,0
74903,-90.9090909090909,4,2,12,60,0,0
75816,-71.4285714285714,4,2,12,60,0,0
76120,-90.9090909090909,4,2,12,60,0,0
77339,-90.9090909090909,4,2,13,60,0,0
78252,-76.9230769230769,4,2,13,60,0,0
79166,-100,4,2,1,60,0,0
79242,-100,4,2,1,5,0,0
79319,-100,4,2,13,45,0,0
79395,-100,4,2,13,30,0,0
79471,-100,4,2,13,15,0,0
79775,-40,4,2,40,60,0,1
80003,-40,4,2,40,60,0,0
80232,-200,4,2,40,60,0,0
80308,-200,4,2,40,5,0,0
80384,-66.6666666666667,4,2,40,60,0,0
80689,-50,4,2,40,60,0,1
80993,-50,4,2,40,60,0,0
81146,-200,4,2,40,60,0,0
81222,-200,4,2,40,5,0,0
81298,-200,4,2,40,60,0,0
81602,-66.6666666666667,4,2,40,60,0,0
81907,-66.6666666666667,4,2,13,60,0,0
82212,-40,4,2,40,60,0,1
82440,-40,4,2,40,60,0,0
82668,-200,4,2,40,60,0,0
82745,-200,4,2,40,5,0,0
82821,-66.6666666666667,4,2,40,60,0,0
83125,-50,4,2,40,60,0,1
83430,-50,4,2,40,60,0,0
83582,-200,4,2,40,60,0,0
83658,-200,4,2,40,5,0,0
83734,-200,4,2,40,60,0,0
84039,-66.6666666666667,4,2,40,60,0,0
84344,-200,4,2,13,60,0,0
84420,-200,4,2,13,45,0,0
84496,-200,4,2,13,30,0,0
84572,-200,4,2,13,15,0,0
84648,-40,4,2,40,60,0,1
84877,-40,4,2,40,60,0,0
85105,-200,4,2,40,60,0,0
85181,-200,4,2,40,5,0,0
85257,-66.6666666666667,4,2,40,60,0,0
85562,-50,4,2,40,60,0,1
85866,-50,4,2,40,60,0,0
86019,-200,4,2,40,60,0,0
86095,-200,4,2,40,5,0,0
86171,-66.6666666666667,4,2,40,60,0,0
86476,-55.5555555555556,4,2,40,60,0,0
86780,-55.5555555555556,4,2,13,60,0,0
87085,-34.4827586206897,4,2,40,60,0,1
87313,-36.3636363636364,4,2,40,60,0,0
87542,-200,4,2,40,60,0,0
87618,-200,4,2,40,5,0,0
87694,-66.6666666666667,4,2,40,60,0,0
87998,-50,4,2,40,60,0,1
88303,-50,4,2,40,60,0,0
88455,-200,4,2,40,60,0,0
88531,-200,4,2,40,5,0,0
88608,-200,4,2,40,60,0,0
88912,-66.6666666666667,4,2,40,60,0,0
89217,-200,4,2,40,60,0,0
89293,-200,4,2,40,45,0,0
89369,-200,4,2,40,30,0,0
89445,-200,4,2,40,15,0,0
89521,-66.6666666666667,4,2,41,60,0,1
89826,-133.333333333333,4,2,41,60,0,0
90435,-57.1428571428571,4,2,41,60,0,1
90740,-133.333333333333,4,2,41,60,0,0
91196,-250,4,2,41,60,0,0
91273,-250,4,2,41,5,0,0
91349,-57.1428571428571,4,2,41,60,0,0
91958,-57.1428571428571,4,2,41,60,0,1
92262,-133.333333333333,4,2,41,60,0,0
92871,-57.1428571428571,4,2,41,60,0,1
93176,-133.333333333333,4,2,41,60,0,0
93633,-250,4,2,41,60,0,0
93709,-250,4,2,41,5,0,0
93785,-250,4,2,41,60,0,0
94090,-250,4,2,13,60,0,0
94166,-250,4,2,13,45,0,0
94242,-250,4,2,13,30,0,0
94318,-250,4,2,13,15,0,0
94394,-45.4545454545455,4,2,41,60,0,1
94699,-45.4545454545455,4,2,41,60,0,0
94851,-250,4,2,41,60,0,0
94927,-250,4,2,41,5,0,0
95003,-100,4,2,41,60,0,0
95308,-50,4,2,41,60,0,1
95613,-50,4,2,41,60,0,0
96069,-250,4,2,41,60,0,0
96146,-250,4,2,41,5,0,0
96222,-142.857142857143,4,2,41,60,0,0
96831,-50,4,2,41,60,0,1
97135,-133.333333333333,4,2,41,60,0,0
97745,-57.1428571428571,4,2,41,60,0,1
98049,-133.333333333333,4,2,41,60,0,0
98658,-250,4,2,41,60,0,0
99267,-44.4444444444445,4,2,40,60,0,1
99572,-200,4,2,40,60,0,0
99648,-200,4,2,40,5,0,0
99724,-200,4,2,40,60,0,0
99800,-200,4,2,40,5,0,0
99877,-133.333333333333,4,2,40,60,0,0
100181,-66.6666666666667,4,2,40,60,0,0
100486,-200,4,2,40,60,0,0
100562,-200,4,2,40,5,0,0
100638,-200,4,2,40,60,0,0
100714,-200,4,2,40,5,0,0
100790,-200,4,2,40,60,0,0
100866,-200,4,2,40,5,0,0
100943,-200,4,2,40,60,0,0
101095,-133.333333333333,4,2,40,60,0,0
101704,-44.4444444444445,4,2,40,60,0,1
102009,-200,4,2,40,60,0,0
102085,-200,4,2,40,5,0,0
102161,-200,4,2,40,60,0,0
102237,-200,4,2,40,5,0,0
102313,-200,4,2,40,60,0,0
102618,-133.333333333333,4,2,40,60,0,0
103075,-200,4,2,40,60,0,0
103151,-200,4,2,40,5,0,0
103227,-200,4,2,40,60,0,0
103836,-133.333333333333,4,2,13,60,0,0
103912,-133.333333333333,4,2,13,45,0,0
103988,-133.333333333333,4,2,13,30,0,0
104064,-133.333333333333,4,2,13,15,0,0
104141,-44.4444444444445,4,2,40,60,0,1
104445,-200,4,2,40,60,0,0
104521,-200,4,2,40,5,0,0
104597,-200,4,2,40,60,0,0
104674,-200,4,2,40,5,0,0
104750,-133.333333333333,4,2,40,60,0,0
105054,-66.6666666666667,4,2,40,60,0,0
105359,-200,4,2,40,60,0,0
105435,-200,4,2,40,5,0,0
105511,-200,4,2,40,60,0,0
105587,-200,4,2,40,5,0,0
105663,-200,4,2,40,60,0,0
105740,-200,4,2,40,5,0,0
105816,-200,4,2,40,60,0,0
105968,-133.333333333333,4,2,40,60,0,0
106577,-44.4444444444445,4,2,40,60,0,1
106882,-200,4,2,40,60,0,0
106958,-200,4,2,40,5,0,0
107034,-200,4,2,40,60,0,0
107110,-200,4,2,40,5,0,0
107186,-100,4,2,40,60,0,0
107491,-133.333333333333,4,2,40,60,0,0
107871,-200,4,2,40,60,0,0
108024,-200,4,2,40,5,0,0
108100,-200,4,2,40,60,0,0
108404,-133.333333333333,4,2,40,60,0,0
108709,-133.333333333333,4,2,13,60,0,0
108785,-133.333333333333,4,2,13,45,0,0
108861,-133.333333333333,4,2,13,30,0,0
108937,-133.333333333333,4,2,13,15,0,0
109014,-133.333333333333,4,2,40,60,0,0
109623,-100,4,2,40,60,0,0
109927,-44.4444444444445,4,2,40,60,0,1
110232,-200,4,2,41,60,0,0
110308,-200,4,2,41,5,0,0
110384,-200,4,2,41,60,0,0
110460,-200,4,2,41,5,0,0
110536,-200,4,2,41,60,0,0
110841,-133.333333333333,4,2,41,60,0,0
111450,-44.4444444444445,4,2,41,60,0,1
111755,-100,4,2,41,60,0,0
111831,-200,4,2,41,5,0,0
111907,-100,4,2,41,60,0,0
111983,-200,4,2,41,5,0,0
112059,-133.333333333333,4,2,41,60,0,0
112364,-66.6666666666667,4,2,41,60,0,0
112668,-200,4,2,41,60,0,0
112745,-200,4,2,41,5,0,0
112821,-200,4,2,41,60,0,0
112897,-200,4,2,41,5,0,0
112973,-200,4,2,41,60,0,0
113582,-200,4,2,13,60,0,0
113658,-200,4,2,13,45,0,0
113734,-200,4,2,13,30,0,0
113811,-200,4,2,13,15,0,0
113887,-44.4444444444445,4,2,41,60,0,1
114191,-100,4,2,41,60,0,0
114267,-200,4,2,41,5,0,0
114344,-100,4,2,41,60,0,0
114420,-200,4,2,41,5,0,0
114496,-133.333333333333,4,2,41,60,0,0
114800,-66.6666666666667,4,2,41,60,0,0
115105,-200,4,2,41,60,0,0
115181,-200,4,2,41,5,0,0
115257,-200,4,2,41,60,0,0
115333,-200,4,2,41,5,0,0
115410,-200,4,2,41,60,0,0
115714,-153.846153846153,4,2,41,60,0,0
116323,-44.4444444444445,4,2,41,60,0,1
116628,-66.6666666666667,4,2,41,60,0,0
116704,-200,4,2,41,5,0,0
116780,-66.6666666666667,4,2,41,60,0,0
116856,-200,4,2,41,5,0,0
116932,-133.333333333333,4,2,41,60,0,0
117237,-100,4,2,41,60,0,0
118760,-37.7358490566038,4,2,12,60,0,0
119369,-142.857142857143,4,2,12,60,0,1
119445,-142.857142857143,4,2,12,60,0,0
119978,-37.7358490566038,4,2,12,60,0,0
120587,-66.6666666666667,4,2,12,60,0,1
120663,-66.6666666666667,4,2,12,5,0,0
120892,-200,4,2,12,60,0,0
121196,-44.4444444444445,4,2,13,60,0,1
121501,-200,4,2,13,60,0,0
121577,-200,4,2,13,5,0,0
121653,-200,4,2,13,60,0,0
121729,-200,4,2,13,5,0,0
121806,-100,4,2,13,60,0,0
122110,-44.4444444444445,4,2,13,60,0,1
122415,-133.333333333333,4,2,13,60,0,0
122491,-200,4,2,13,5,0,0
122567,-133.333333333333,4,2,13,60,0,0
122643,-200,4,2,13,5,0,0
122719,-50,4,2,13,60,0,0
123405,-50,4,2,13,45,0,0
123481,-50,4,2,13,30,0,0
123557,-50,4,2,13,15,0,0
123633,-42.5531914893617,4,2,12,60,0,1
123937,-200,4,2,12,60,0,0
124014,-200,4,2,12,5,0,0
124090,-200,4,2,12,60,0,0
124166,-200,4,2,12,5,0,0
124242,-100,4,2,12,60,0,0
124547,-50,4,2,12,60,0,0
124623,-200,4,2,12,5,0,0
124699,-133.333333333333,4,2,12,60,0,0
124775,-200,4,2,12,5,0,0
124851,-133.333333333333,4,2,12,60,0,0
124927,-200,4,2,12,5,0,0
125003,-133.333333333333,4,2,12,60,0,0
125080,-200,4,2,12,5,0,0
125156,-133.333333333333,4,2,12,60,0,0
125460,-66.6666666666667,4,2,12,60,0,0
126069,-44.4444444444445,4,2,13,60,0,1
126374,-133.333333333333,4,2,13,60,0,0
126450,-200,4,2,13,5,0,0
126526,-133.333333333333,4,2,13,60,0,0
126602,-200,4,2,13,5,0,0
126679,-100,4,2,13,60,0,0
126983,-40,4,2,13,60,0,1
127288,-133.333333333333,4,2,13,60,0,0
127364,-200,4,2,13,5,0,0
127440,-133.333333333333,4,2,13,60,0,0
127516,-200,4,2,13,5,0,0
127592,-133.333333333333,4,2,13,60,0,0
127897,-153.846153846153,4,2,13,60,0,0
128050,-153.846153846153,4,2,13,45,0,0
128126,-153.846153846153,4,2,13,30,0,0
128202,-153.846153846153,4,2,13,60,0,0
128278,-153.846153846153,4,2,13,45,0,0
128354,-153.846153846153,4,2,13,30,0,0
128430,-153.846153846153,4,2,13,15,0,0
128506,-44.4444444444445,4,2,12,60,0,1
128811,-133.333333333333,4,2,12,60,0,0
128887,-200,4,2,12,5,0,0
128963,-133.333333333333,4,2,12,60,0,0
129039,-200,4,2,12,5,0,0
129115,-100,4,2,12,60,0,0
129420,-57.1428571428571,4,2,12,60,0,1
129724,-80,4,2,12,60,0,0
129800,-200,4,2,12,5,0,0
129877,-80,4,2,12,60,0,0
129953,-200,4,2,12,5,0,0
130029,-80,4,2,12,60,0,0
130333,-100,4,2,12,60,0,0
130943,-40,4,2,13,60,0,1
131247,-100,4,2,13,60,0,0
131323,-200,4,2,13,5,0,0
131399,-100,4,2,13,60,0,0
131476,-200,4,2,13,5,0,0
131552,-66.6666666666667,4,2,13,60,0,0
131856,-66.6666666666667,4,2,13,60,0,0
131932,-66.6666666666667,4,2,13,5,0,0
132009,-66.6666666666667,4,2,13,60,0,0
132085,-66.6666666666667,4,2,13,5,0,0
132161,-66.6666666666667,4,2,13,60,0,0
132465,-50,4,2,13,60,0,0
133151,-50,4,2,13,45,0,0
133227,-50,4,2,13,30,0,0
133303,-50,4,2,13,15,0,0
133379,-66.6666666666667,4,2,12,60,0,1
133455,-66.6666666666667,4,2,12,5,0,1
133531,-66.6666666666667,4,2,12,60,0,1
133608,-66.6666666666667,4,2,12,5,0,0
133684,-62.5,4,2,12,60,0,0
133760,-66.6666666666667,4,2,12,5,0,0
133836,-52.6315789473684,4,2,12,60,0,0
133912,-66.6666666666667,4,2,12,5,0,0
133988,-52.6315789473684,4,2,12,60,0,0
134293,-40,4,2,12,60,0,1
134597,-66.6666666666667,4,2,12,60,0,0
134674,-66.6666666666667,4,2,12,5,0,0
134750,-66.6666666666667,4,2,12,60,0,0
134826,-66.6666666666667,4,2,12,5,0,0
134902,-66.6666666666667,4,2,12,60,0,0
135816,-50,4,2,13,60,0,1
135892,-66.6666666666667,4,2,13,5,0,1
135968,-50,4,2,13,60,0,1
136044,-66.6666666666667,4,2,13,5,0,0
136120,-50,4,2,13,60,0,0
136729,-25,4,2,13,60,0,1
137034,-25,4,2,13,60,0,0
137796,-25,4,2,13,45,0,0
137872,-25,4,2,13,30,0,0
137948,-25,4,2,99,75,0,0
138252,-40,4,2,1,75,0,1
138328,-40,4,2,1,5,0,1
138404,-66.6666666666667,4,2,1,75,0,1
138481,-40,4,2,1,5,0,1
138557,-40,4,2,1,75,0,1
138633,-40,4,2,1,5,0,1
138709,-28.5714285714286,4,2,1,75,0,1
138785,-40,4,2,1,5,0,1
138861,-28.5714285714286,4,2,1,75,0,1
139470,-100,4,2,1,75,0,1
139547,-40,4,2,1,5,0,1
139623,-40,4,2,1,75,0,1
139699,-40,4,2,1,5,0,1
139775,-40,4,2,1,75,0,1
139927,-66.6666666666667,4,2,1,75,0,1
140003,-40,4,2,1,5,0,1
140080,-40,4,2,1,75,0,1
140156,-40,4,2,1,5,0,1
140232,-28.5714285714286,4,2,1,75,0,1
140308,-40,4,2,1,5,0,1
140384,-28.5714285714286,4,2,1,75,0,1
140689,-40,4,2,1,75,0,1
140765,-40,4,2,1,5,0,1
140841,-66.6666666666667,4,2,1,75,0,1
140917,-40,4,2,1,5,0,1
140993,-66.6666666666667,4,2,1,75,0,1
141526,-66.6666666666667,4,2,1,5,0,1
141602,-28.5714285714286,4,2,1,75,0,1
142364,-66.6666666666667,4,2,1,75,0,1
142440,-40,4,2,1,5,0,1
142516,-40,4,2,1,75,0,1
142592,-40,4,2,1,5,0,1
142668,-28.5714285714286,4,2,1,75,0,1
142745,-40,4,2,1,5,0,1
142821,-200,4,2,1,75,0,1
143125,-40,4,2,1,75,0,1
143201,-40,4,2,1,5,0,1
143278,-66.6666666666667,4,2,1,75,0,1
143354,-40,4,2,1,5,0,1
143430,-66.6666666666667,4,2,1,75,0,1
143963,-40,4,2,1,5,0,1
144039,-28.5714285714286,4,2,1,75,0,1
144115,-40,4,2,1,5,0,1
144191,-40,4,2,1,75,0,1
144267,-40,4,2,1,5,0,1
144344,-40,4,2,1,75,0,1
144496,-66.6666666666667,4,2,1,75,0,1
144572,-40,4,2,1,5,0,1
144648,-66.6666666666667,4,2,2,75,0,1
144800,-40,4,2,2,75,0,1
144877,-40,4,2,2,5,0,1
144953,-28.5714285714286,4,2,1,75,0,1
145029,-40,4,2,1,5,0,1
145105,-28.5714285714286,4,2,2,75,0,1
145181,-40,4,2,2,5,0,1
145257,-28.5714285714286,4,2,1,75,0,1
145562,-40,4,2,1,75,0,1
145638,-40,4,2,1,5,0,1
145714,-66.6666666666667,4,2,1,75,0,1
145790,-40,4,2,1,5,0,1
145866,-66.6666666666667,4,2,1,75,0,1
146399,-40,4,2,1,5,0,1
146476,-28.5714285714286,4,2,1,75,0,1
147085,-28.5714285714286,4,2,2,75,0,1
147237,-66.6666666666667,4,2,2,75,0,1
147313,-40,4,2,2,5,0,1
147389,-40,4,2,1,75,0,1
147465,-40,4,2,1,5,0,1
147542,-100,4,2,1,75,0,1
147618,-40,4,2,1,5,0,1
147694,-33.3333333333333,4,2,1,75,0,1
147770,-40,4,2,1,5,0,1
147846,-33.3333333333333,4,2,1,75,0,1
147998,-40,4,2,2,83,0,1
148227,-40,4,2,2,5,0,1
148303,-40,4,2,2,83,0,1
148379,-40,4,2,2,5,0,1
148455,-40,4,2,2,83,0,1
148760,-66.6666666666667,4,2,2,83,0,1
148836,-40,4,2,2,5,0,1
148912,-66.6666666666667,4,2,2,83,0,1
149064,-28.5714285714286,4,2,2,83,0,1
149141,-40,4,2,2,5,0,1
149217,-66.6666666666667,4,2,2,83,0,1
149293,-40,4,2,2,5,0,1
149369,-40,4,2,2,83,0,0
149521,-40,4,2,2,83,0,1
149597,-40,4,2,2,5,0,1
149674,-40,4,2,2,83,0,1
149750,-40,4,2,2,5,0,1
149826,-40,4,2,2,83,0,1
150283,-66.6666666666667,4,2,2,83,0,1
150359,-40,4,2,2,5,0,1
150435,-66.6666666666667,4,2,2,83,0,1
150587,-28.5714285714286,4,2,2,83,0,1
150663,-40,4,2,2,5,0,1
150740,-40,4,2,2,83,0,1
150816,-40,4,2,2,5,0,1
150892,-33.3333333333333,4,2,2,83,0,1
151349,-66.6666666666667,4,2,2,83,0,1
151425,-40,4,2,2,5,0,1
151501,-28.5714285714286,4,2,2,83,0,1
151577,-40,4,2,2,5,0,1
151653,-28.5714285714286,4,2,2,83,0,1
152110,-40,4,2,2,83,0,1
152186,-40,4,2,2,5,0,1
152262,-66.6666666666667,4,2,2,83,0,1
152338,-40,4,2,2,5,0,1
152415,-66.6666666666667,4,2,2,83,0,1
152795,-40,4,2,2,5,0,1
152871,-28.5714285714286,4,2,2,83,0,1
153176,-40,4,2,2,83,0,1
153252,-40,4,2,2,5,0,1
153328,-66.6666666666667,4,2,2,83,0,1
153404,-40,4,2,2,5,0,1
153481,-66.6666666666667,4,2,2,83,0,1
153785,-66.6666666666667,4,2,2,83,0,1
153861,-40,4,2,2,5,0,1
153937,-40,4,2,2,83,0,1
154014,-40,4,2,2,5,0,1
154090,-28.5714285714286,4,2,2,83,0,1
154166,-40,4,2,2,5,0,1
154242,-28.5714285714286,4,2,2,83,0,1
154699,-66.6666666666667,4,2,2,83,0,1
155232,-40,4,2,2,5,0,1
155308,-33.3333333333333,4,2,2,83,0,1
155613,-40,4,2,2,83,0,1
155689,-40,4,2,2,5,0,1
155765,-28.5714285714286,4,2,2,83,0,1
155841,-40,4,2,2,5,0,1
155917,-28.5714285714286,4,2,2,83,0,1
156069,-66.6666666666667,4,2,2,83,0,1
156146,-40,4,2,2,5,0,1
156222,-40,4,2,2,83,0,1
156298,-40,4,2,2,5,0,1
156374,-28.5714285714286,4,2,2,83,0,1
156450,-40,4,2,2,5,0,1
156526,-133.333333333333,4,2,2,83,0,1
156602,-40,4,2,2,5,0,1
156679,-133.333333333333,4,2,2,83,0,1
157135,-25,4,2,2,83,0,1
157212,-40,4,2,2,5,0,1
157288,-40,4,2,2,83,0,1
157440,-133.333333333333,4,2,2,83,0,1
157745,-133.333333333333,4,2,2,83,0,0
182852,-86.2068965517241,4,2,98,30,0,0

[Colours]
Combo1 : 219,129,68
Combo2 : 156,211,211
Combo3 : 204,165,138

[HitObjects]
474,354,1806,5,2,0:2:0:0:
297,313,1958,1,2,0:2:0:0:
395,301,2110,5,2,0:2:0:0:
387,304,2262,1,2,0:2:0:0:
416,60,2567,6,0,P|417:95|411:131,1,71.2500027179719,2|2,0:1|0:1,0:0:0:0:
492,105,2871,5,2,0:1:0:0:
341,90,3024,2,0,P|265:105|237:206,2,180.49999518013,2|2|2,0:1|0:1|0:1,0:0:0:0:
222,281,3937,6,0,P|148:245|52:224,1,180.49999518013,2|2,0:1|0:2,0:0:0:0:
17,155,4394,5,2,0:1:0:0:
87,311,4547,2,0,P|53:321|21:337,1,71.2500027179719,2|0,0:1|0:0,0:0:0:0:
212,61,5003,5,2,0:1:0:0:
151,121,5156,2,0,P|185:130|217:146,1,71.2500027179719,2|2,0:1|0:1,0:0:0:0:
162,0,5460,6,0,P|90:9|75:105,2,180.49999518013,2|0|2,0:1|0:0|0:1,0:0:0:0:
294,341,6374,2,0,P|260:350|228:366,1,71.2500027179719,2|0,0:1|0:0,0:0:0:0:
317,254,6679,5,2,0:0:0:0:
309,257,6831,1,2,0:0:0:0:
219,266,6983,5,2,0:0:0:0:
396,307,7135,1,2,0:1:0:0:
326,167,7288,6,0,P|320:131|329:21,1,142.500005435944,2|2,0:1|0:1,0:0:0:0:
180,164,7897,6,0,P|214:173|246:189,1,71.2500027179719,2|0,0:1|0:0,0:0:0:0:
145,93,8201,1,2,0:1:0:0:
116,328,8354,6,0,P|82:337|50:353,1,71.2500027179719,2|0,0:1|0:0,0:0:0:0:
0,295,8658,1,2,0:2:0:0:
177,380,8811,6,0,P|238:379|259:272,1,180.49999518013,2|0,0:1|0:0,0:0:0:0:
327,210,9267,5,2,0:1:0:0:
390,257,9420,2,0,P|455:239|521:228,1,123.499994346619,2|0,0:1|0:0,0:0:0:0:
212,4,9877,5,2,0:2:0:0:
264,59,10029,2,0,P|259:89|259:122,1,61.7499971733095,2|0,0:1|0:0,0:0:0:0:
182,85,10333,6,0,P|113:66|42:56,1,142.500005435944,2|2,0:1|0:1,0:0:0:0:
7,304,10943,6,0,P|32:284|73:287,1,71.2500027179719,10|0,0:1|0:0,0:0:0:0:
79,205,11247,2,0,P|110:207|138:238,1,71.2500027179719,2|0,0:1|0:0,0:0:0:0:
207,379,11552,6,0,P|210:318|224:254,2,123.499994346619,2|2|10,0:2|0:2|0:1,0:0:0:0:
136,307,12313,5,2,0:2:0:0:
284,328,12465,2,0,P|314:319|351:316,1,61.7499971733095,2|0,0:1|0:0,0:0:0:0:
273,107,12770,6,0,P|189:126|180:208,2,161.500003080368,2|2|10,0:1|0:1|0:1,0:0:0:0:
322,171,13455,6,0,P|326:188|329:210,2,40.375000770092,2|2|2,0:2|0:2|0:2,0:0:0:0:
404,178,13684,2,0,P|443:185|478:200,1,71.2500027179719,2|0,0:1|0:0,0:0:0:0:
498,22,13988,5,2,0:0:0:0:
436,80,14141,1,2,0:0:0:0:
365,37,14293,2,0,P|326:30|291:15,1,71.2500027179719,2|0,0:1|0:0,0:0:0:0:
147,223,14597,6,0,P|186:153|211:45,2,180.49999518013,10|2|0,0:1|0:1|0:0,0:0:0:0:
185,293,15359,5,0,0:0:0:0:
61,357,15511,2,0,P|50:321|27:279,1,71.2500027179719,2|0,0:1|0:0,0:0:0:0:
239,227,15816,5,10,0:1:0:0:
30,171,15968,1,0,0:0:0:0:
103,123,16120,6,0,P|123:54|155:-8,1,142.500005435944,2|0,0:1|0:0,0:0:0:0:
431,345,16729,6,0,P|389:315|338:325,1,104.500003189087,2|10,0:1|0:1,0:0:0:0:
170,370,17338,2,0,B|129:374|93:348|86:308|86:308|78:268|103:230|142:221|142:221|181:211|221:234|232:272|232:272|156:295,1,418,2|0,0:1|0:0,0:0:0:0:
162,293,18252,5,10,0:1:0:0:
263,35,18557,2,0,P|255:75|252:112,1,76,2|0,0:1|0:0,0:0:0:0:
277,187,18861,6,0,P|325:172|385:162,2,104.500003189087,0|2|10,0:0|0:1|0:1,0:0:0:0:
240,258,19623,1,0,0:0:0:0:
9,73,19775,6,0,B|15:204|178:212|182:101|135:51|73:85,1,299.249990867615,2|0,0:1|0:0,0:0:0:0:
90,79,20384,2,0,P|81:122|74:254,1,161.500003080368,2|2,0:1|0:1,0:0:0:0:
258,348,20993,6,0,L|252:386,2,35.625001358986,8|0|0,1:3|0:0|0:0,0:0:0:0:
323,310,21450,5,2,0:2:0:0:
182,332,21602,2,0,P|151:324|114:318,1,61.7499971733095,2|0,0:2|0:0,0:0:0:0:
249,274,21907,5,8,0:0:0:0:
403,307,22059,1,0,0:0:0:0:
335,225,22212,2,0,P|337:184|348:130,1,80.750001540184,0|2,3:0|0:2,0:0:0:0:
261,169,22516,5,2,0:2:0:0:
416,193,22668,1,2,0:2:0:0:
283,93,22821,6,0,P|280:71|273:42,2,40.375000770092,2|0|0,0:2|0:0|0:0,0:0:0:0:
512,39,23125,6,0,P|446:47|414:128,1,149.624995433808,8|0,0:0|0:0,0:0:0:0:
483,145,23430,1,2,0:2:0:0:
17,122,23734,5,0,3:0:0:0:
171,107,23887,1,2,0:0:0:0:
98,76,24039,6,0,P|95:116|84:170,1,80.750001540184,2|0,0:0|0:0,0:0:0:0:
170,369,24344,2,0,P|173:329|184:275,1,80.750001540184,8|0,0:0|0:0,0:0:0:0:
20,199,24648,5,0,3:0:0:0:
260,258,24800,1,2,0:2:0:0:
48,295,24953,6,0,P|58:348|61:388,1,90.2499975900651,2|2,0:2|0:2,0:0:0:0:
296,129,25257,6,0,P|222:138|202:215,1,149.624995433808,0|0,3:0|0:0,0:0:0:0:
135,241,25562,2,0,L|78:226,2,40.375000770092,8|0|8,0:0|0:0|1:3,0:0:0:0:
429,372,26171,5,0,3:0:0:0:
457,223,26323,1,2,0:2:0:0:
400,290,26476,6,0,P|439:296|487:307,1,80.750001540184,2|0,0:2|0:0,0:0:0:0:
362,66,26780,6,0,P|312:64|273:143,1,135.374996385098,8|0,0:0|0:0,0:0:0:0:
313,194,27085,1,0,3:0:0:0:
382,161,27237,1,2,0:2:0:0:
181,121,27389,5,2,0:2:0:0:
205,290,27542,1,2,0:2:0:0:
231,201,27694,6,0,P|192:207|144:218,1,80.750001540184,2|0,0:2|0:0,0:0:0:0:
8,32,27998,6,0,P|66:20|100:111,1,161.500003080368,8|2,0:0|0:2,0:0:0:0:
6,346,28608,5,0,3:0:0:0:
170,379,28760,1,2,0:0:0:0:
73,301,28912,6,0,P|84:338|90:393,1,80.750001540184,2|0,0:0|0:0,0:0:0:0:
201,195,29217,5,8,0:0:0:0:
5,262,29369,1,0,0:0:0:0:
154,301,29521,6,0,P|157:275|162:254,2,40.375000770092,0|0|2,3:0|0:0|0:2,0:0:0:0:
39,186,29826,5,2,0:2:0:0:
246,271,29978,1,2,0:2:0:0:
135,117,30130,6,0,P|124:154|118:209,1,80.750001540184,0|0,3:0|0:0,0:0:0:0:
254,374,30435,6,0,P|301:333|368:346,1,135.374996385098,8|0,0:0|0:0,0:0:0:0:
438,311,30740,6,0,P|457:318|489:325,2,45.1249987950325,8|0|8,1:3|0:0|1:3,0:0:0:0:
16,357,31044,5,0,3:0:0:0:
184,332,31196,1,2,0:2:0:0:
96,374,31349,6,0,P|105:328|108:255,1,90.2499975900651,2|0,0:2|0:0,0:0:0:0:
213,84,31653,6,0,P|204:128|200:173,1,90.2499975900651,8|0,0:0|0:0,0:0:0:0:
289,101,31958,5,0,3:0:0:0:
127,123,32110,1,2,0:2:0:0:
286,192,32262,6,0,P|342:197|366:309,1,180.49999518013,2|2,0:2|0:2,0:0:0:0:
302,340,32719,5,0,0:0:0:0:
422,364,32871,1,8,0:0:0:0:
370,302,33024,6,0,P|378:257|395:212,1,90.2499975900651,0|2,0:0|0:2,0:0:0:0:
105,357,33481,6,0,P|97:312|75:256,1,99.7499969558717,0|2,3:0|0:0,0:0:0:0:
211,118,33785,2,0,P|135:121|119:192,1,149.624995433808,2|0,0:0|0:0,0:0:0:0:
158,248,34090,5,8,0:0:0:0:
193,24,34242,1,0,0:0:0:0:
299,190,34394,5,0,3:0:0:0:
294,117,34547,1,2,0:2:0:0:
110,39,34699,6,0,L|51:48,1,40.375000770092,2|0,0:2|0:0,0:0:0:0:
70,45,34851,1,2,0:2:0:0:
368,149,35003,6,0,L|457:168,1,80.750001540184,0|0,3:0|0:0,0:0:0:0:
251,384,35308,6,0,P|249:368|247:341,3,40.375000770092,8|0|0|0,0:0|0:0|0:0|0:0,0:0:0:0:
306,296,35613,1,0,0:0:0:0:
230,3,35917,5,0,3:0:0:0:
210,75,36069,1,2,0:2:0:0:
385,44,36222,6,0,P|458:50|485:164,2,199.499993911743,2|8|0,0:2|0:0|3:0,0:0:0:0:
344,236,36983,5,2,0:2:0:0:
417,285,37135,2,0,P|419:244|425:204,1,80.750001540184,2|2,0:2|0:2,0:0:0:0:
187,149,37440,6,0,P|122:170|30:188,1,161.500003080368,2|8,0:2|0:0,0:0:0:0:
0,79,37897,2,0,P|34:98|77:107,1,71.2500027179719,0|2,0:0|0:2,0:0:0:0:
278,294,38354,6,0,P|275:334|266:393,1,90.2499975900651,0|2,3:0|0:0,0:0:0:0:
35,289,38658,6,0,P|114:303|191:327,2,161.500003080368,2|8|0,0:0|0:0|3:0,0:0:0:0:
0,357,39420,1,2,0:2:0:0:
341,233,39572,6,0,P|380:224|419:214,1,80.750001540184,2|2,0:2|0:2,0:0:0:0:
365,150,39877,5,0,3:0:0:0:
396,300,40029,1,0,0:0:0:0:
268,194,40181,6,0,L|217:180,2,40.375000770092,8|0|8,0:0|0:0|1:3,0:0:0:0:
340,377,40486,2,0,P|316:337|242:333,1,121.125002310276
172,383,40790,6,0,B|172:380|171:377|171:377|167:376|167:376|174:375|174:375|171:374|171:374|170:371|170:368|170:368|166:368|166:368|173:367|173:367|169:366|169:366|168:361|168:360|168:360|164:360|164:360|172:358|172:358|168:357|168:357|167:353|167:352|167:352|162:352|162:352|170:350|170:350|166:350|166:350|165:345|165:344|165:344|161:343|161:343|168:341|168:341|164:341|164:341|163:337|163:336|163:336|158:335|158:335|166:333|166:333|162:333|162:333|161:330|161:327|161:327|157:327|157:327|164:325|164:325|160:325|160:325|158:320|158:319|158:319|155:319|155:319|162:317|162:317|157:317|157:317|157:312|157:311|157:311|152:311|152:311|159:309|159:309|156:309|156:309|154:304|154:303|154:303|150:303|150:303|157:301|157:301|153:300|153:300|152:298|151:296|151:296|147:296|147:296|154:293|154:293|150:293|150:293|148:288|148:287|148:287|144:287|144:287|151:284|151:284|147:284|147:284|146:282|145:280|145:280|142:280|142:280|148:277|148:277|144:277|144:277|143:272|143:271|143:271|138:272|138:272|145:269|145:269|141:269|141:269|140:267|139:264|139:264|135:264|135:264|142:261|142:261|138:261|138:261|137:259|135:256|135:256|131:256|131:256|138:253|138:253|134:253|134:253|133:252|132:249|132:249|128:249|128:249|135:246|135:246|130:246|130:246|129:243|128:241|128:241|124:241|124:241|131:239|131:239|127:239|127:239|126:236|125:234|125:234|120:234|120:234|127:231|127:231|123:231|123:231|122:228|120:226|120:226|116:226|116:226|123:224|123:224|119:224|119:224|117:222|116:219|116:219|113:220|113:220|119:216|119:216|114:216|114:216|114:214|112:211|112:211|108:212|108:212|114:209|114:209|111:210|111:210|109:207|108:205|108:205|103:205|103:205|110:201|110:201|106:202|106:202|103:198|103:197|103:197|100:198|100:198|105:195|105:195|101:195|101:195|99:191|99:190|99:190|95:192|95:192|100:187|100:187|97:188|97:188|94:184|94:183|94:183|90:184|90:184|96:181|96:181|92:181|92:181|90:179|88:177|88:177|85:178|85:178|91:173|91:173|87:174|87:174|85:170|84:170|84:170|80:171|80:171|85:167|85:167|82:167|82:167|80:166|78:164|78:164|74:165|74:165|81:160|81:160|77:161|77:161|75:159|73:157|73:157|70:158|70:158|75:153|75:153|71:154|71:154|69:151|68:151|68:151|64:152|64:152|70:147|70:147|66:148|66:148|64:146|62:144|62:144|58:145|58:145|64:140|64:140|60:142|60:142|58:139|56:138|56:138|53:139|53:139|58:134|58:134|55:136|55:136|53:134|51:132|51:132|47:133|47:133|53:128|53:128|49:130|49:130|47:127|44:125|44:125|42:127|42:127|46:122|46:122|42:124|42:124|41:122|39:120|39:120|35:122|35:122|41:116|41:116|37:118,1,760,4|0,3:0|0:0,0:0:0:0:
340,1,41704,6,0,B|340:4|341:7|341:7|345:8|345:8|338:9|338:9|341:10|341:10|342:13|342:16|342:16|346:16|346:16|339:17|339:17|343:18|343:18|344:23|344:24|344:24|348:24|348:24|340:26|340:26|344:27|344:27|345:31|345:32|345:32|350:32|350:32|342:34|342:34|346:34|346:34|347:39|347:40|347:40|351:41|351:41|344:43|344:43|348:43|348:43|349:47|349:48|349:48|354:49|354:49|346:51|346:51|350:51|350:51|351:54|351:57|351:57|355:57|355:57|348:59|348:59|352:59|352:59|354:64|354:65|354:65|357:65|357:65|350:67|350:67|355:67|355:67|355:72|355:73|355:73|360:73|360:73|353:75|353:75|356:75|356:75|358:80|358:81|358:81|362:81|362:81|355:83|355:83|359:84|359:84|360:86|361:88|361:88|365:88|365:88|358:91|358:91|362:91|362:91|364:96|364:97|364:97|368:97|368:97|361:100|361:100|365:100|365:100|366:102|367:104|367:104|370:104|370:104|364:107|364:107|368:107|368:107|369:112|369:113|369:113|374:112|374:112|367:115|367:115|371:115|371:115|372:117|373:120|373:120|377:120|377:120|370:123|370:123|374:123|374:123|375:125|377:128|377:128|381:128|381:128|374:131|374:131|378:131|378:131|379:132|380:135|380:135|384:135|384:135|377:138|377:138|382:138|382:138|383:141|384:143|384:143|388:143|388:143|381:145|381:145|385:145|385:145|386:148|387:150|387:150|392:150|392:150|385:153|385:153|389:153|389:153|390:156|392:158|392:158|396:158|396:158|389:160|389:160|393:160|393:160|395:162|396:165|396:165|399:164|399:164|393:168|393:168|398:168|398:168|398:170|400:173|400:173|404:172|404:172|398:175|398:175|401:174|401:174|403:177|404:179|404:179|409:179|409:179|402:183|402:183|406:182|406:182|409:186|409:187|409:187|412:186|412:186|407:189|407:189|411:189|411:189|413:193|413:194|413:194|417:192|417:192|412:197|412:197|415:196|415:196|418:200|418:201|418:201|422:200|422:200|416:203|416:203|420:203|420:203|422:205|424:207|424:207|427:206|427:206|421:211|421:211|425:210|425:210|427:214|428:214|428:214|432:213|432:213|427:217|427:217|430:217|430:217|432:218|434:220|434:220|438:219|438:219|431:224|431:224|435:223|435:223|437:225|439:227|439:227|442:226|442:226|437:231|437:231|441:230|441:230|443:233|444:233|444:233|448:232|448:232|442:237|442:237|446:236|446:236|448:238|450:240|450:240|454:239|454:239|448:244|448:244|452:242|452:242|454:245|456:246|456:246|459:245|459:245|454:250|454:250|457:248|457:248|459:250|461:252|461:252|465:251|465:251|459:256|459:256|463:254|463:254|465:257|468:259|468:259|470:257|470:257|466:262|466:262|470:260|470:260|471:262|473:264|473:264|477:262|477:262|471:268|471:268|475:266,1,760,6|0,3:1|0:0,0:0:0:0:
437,337,42618,6,0,P|387:335|353:373,1,104.500003189087,10|2,0:0|0:0,0:0:0:0:
126,120,43227,5,4,3:0:0:0:
286,146,43379,1,8,0:3:0:0:
198,171,43531,6,0,P|206:220|207:272,1,95,2|8,0:0|0:3,0:0:0:0:
213,95,43836,2,0,P|205:46|204:-6,1,95,10|0,0:0|0:0,0:0:0:0:
131,254,44141,6,0,B|130:250|130:250|129:248|129:248|131:247|131:247|129:245|129:245|128:242|128:242|126:240|126:240|128:240|128:240|126:238|126:238|126:236|125:235|125:235|123:233|123:233|125:232|125:232|123:230|123:230|122:229|122:228|122:228|120:226|120:226|122:225|122:225|120:224|120:224|117:220|117:220|115:219|115:219|117:219|117:219|115:217|115:217|113:216|113:214|113:214|111:213|111:213|112:212|112:212|107:209|107:209|108:210|107:209|107:209|105:208|105:208|106:206|106:206|104:205|104:205|103:204|101:203|101:203|99:202|99:202|100:201|100:201|97:201|97:201|96:199|95:198|95:198|92:198|92:198|93:196|93:196|91:196|91:196|89:195|88:194|88:194|86:194|86:194|86:193|86:193|84:193|84:193|82:192|80:191|80:191|78:191|78:191|79:189|79:189|76:189|76:189|73:188|73:188|71:189|71:189|71:187|71:187|69:187|69:187|67:187|65:186|65:186|62:187|62:187|63:185|63:185|61:185|61:185|57:185|57:185|54:186|54:186|55:185|55:185|53:185|53:185|51:185|49:185|49:185|47:186|47:186|46:185|46:185|45:185|45:185|43:185|41:185|41:185|39:187|39:187|38:185|38:185|37:186|37:186|33:187|33:187|31:188|31:188|31:186|31:186|28:188|28:188|27:189|26:189|26:189|24:191|24:191|23:189|23:189|21:191|21:191|20:192|18:192|18:192|16:194|16:194|16:192|16:192|14:194|14:194|12:194|11:195|11:195|10:197|10:197|9:196|9:196|7:198|7:198|4:200|4:200|3:202|3:202|2:201|2:201|1:202|1:202|0:203|0:203,1,218.500004167557,6|2,3:1|0:0,0:0:0:0:
296,60,44597,5,8,0:3:0:0:
346,118,44750,2,0,B|347:117|349:117|349:117|351:115|351:115|351:117|351:117|354:115|354:115|355:115|356:114|356:114|358:112|358:112|359:114|359:114|361:112|361:112|363:112|365:111|365:111|366:110|366:110|367:111|367:111|369:110|369:110|371:109|373:109|373:109|375:108|375:108|375:109|375:109|376:108|376:108|380:107|380:107|382:106|382:106|383:107|383:107|385:106|385:106|388:105|388:105|390:103|390:103|391:105|391:105|393:104|393:104|395:103|396:103|396:103|398:101|398:101|398:103|398:103|400:101|400:101|402:101|404:101|404:101|406:99|406:99|406:101|406:101|408:99|408:99|410:99|412:99|412:99|414:98|414:98|415:99|415:99|416:98|416:98|418:98|420:98|420:98|422:96|422:96|423:98|423:98|425:97|425:97|428:96|428:96|430:95|430:95|430:97|430:97|433:95|433:95|435:95|436:95|436:95|438:93|438:93|438:95|438:95|441:94|441:94|442:93|444:93|444:93|446:92|446:92|446:94|446:94|448:92|448:92|452:92|452:92|455:90|455:90|455:92|455:92|456:91|456:91|458:91|460:91|460:91|463:89|463:89|463:91|463:91|465:90|465:90|468:90|468:90|471:88|471:88|471:90|471:90|473:89|473:89|475:89|476:89|476:89|479:88|479:88|479:89|479:89|481:88|481:88|483:88|485:88|485:88|487:88|487:88|487:89|487:89|489:88|489:88|491:88|493:88|493:88|495:87|495:87|495:88|495:88|497:88|497:88|499:88|501:88|501:88|504:87|504:87|504:88|504:88|505:87|505:87|509:87|509:87|512:86|512:86|512:88|512:88|514:87|514:87|515:87|517:87|517:87|520:86|520:86|520:88|520:88|522:87|522:87|526:87|527:87,1,218.500004167557,6|10,3:1|0:0,0:0:0:0:
253,378,45359,6,0,P|256:359|258:324,2,47.5,8|0|8,1:3|0:0|1:3,0:0:0:0:
179,348,45663,5,6,3:0:0:0:
336,367,45816,1,8,0:3:0:0:
118,287,45968,6,0,P|75:307|30:321,1,95,2|8,0:0|0:3,0:0:0:0:
400,313,46273,2,0,P|443:333|489:347,1,95,10|0,0:0|0:0,0:0:0:0:
142,129,46577,6,0,B|142:128|144:126|144:126|146:126|146:126|144:125|144:125|146:124|146:124|149:123|149:123|151:122|151:122|150:121|150:121|151:121|151:121|153:120|154:119|154:119|156:119|156:119|156:118|156:118|157:118|157:118|160:116|160:116|162:116|162:116|161:115|161:115|164:116|164:116|166:114|166:114|168:115|168:115|167:114|167:114|169:114|169:114|172:113|172:113|174:114|174:114|174:112|174:112|176:112|176:112|177:112|179:112|179:112|180:113|180:113|180:111|180:111|182:112|182:112|184:111|185:112|185:112|186:113|186:113|186:111|186:111|189:112|189:112|190:112|191:112|191:112|193:113|193:113|193:111|193:111|195:113|195:113|196:113|198:114|198:114|199:114|199:114|199:113|199:113|201:114|201:114|202:114|204:115|204:115|205:116|205:116|206:115|206:115|207:116|207:116|209:116|210:117|210:117|211:119|211:119|211:117|211:117|213:119|213:119|216:120|216:120|216:122|216:122|217:121|217:121|219:122|219:122|221:124|221:124|222:126|222:126|223:124|223:124|223:126|223:126|226:128|226:128|226:129|226:129|228:129|228:129|228:130|228:130|229:131|231:132|231:132|231:134|231:134|232:133|232:133|233:135|233:135|234:137|234:137|235:139|235:139|236:138|236:138|236:140|236:140|238:143|238:143|238:144|238:144|239:143|239:143|240:146|240:146|241:147|241:148|241:148|241:150|241:150|242:150|242:150|242:151|242:151|243:153|243:154|243:154|243:156|243:156|244:156|244:156|244:158|244:158|245:159|245:161|245:161|245:162|245:162|246:162|246:162|246:163|246:163|246:165|246:166|246:166|246:168|246:168|247:168|247:168|246:170|246:170|246:171|246:173|246:173|246:175|246:175|247:175|247:175|246:176|246:176|246:178|246:179|246:179|246:181|246:181|247:181|247:181|246:183|246:183|246:184|246:186|246:186|244:188|244:188|246:188|246:188|245:189|245:189|244:192|244:192|243:193|243:193|244:194|244:194|243:196|243:196|243:197|242:198|242:198|241:199|241:199|242:200|242:200|241:201|241:201|240:203|239:204|239:204|238:205|238:205|239:206|239:206|237:207|237:207|236:208|236:209|236:209|234:210|234:210|236:211|236:211|233:212|233:212|233:213|232:214|232:214|230:215|230:215|231:216|231:216|230:217|230:217|228:218|226:220,1,246.999988693238,6|2,3:1|0:0,0:0:0:0:
265,285,47034,2,0,P|257:327|252:388,1,95,8|0,0:3|0:0,0:0:0:0:
480,57,47491,5,10,0:0:0:0:
402,84,47795,5,2,0:0:0:0:
337,35,48100,5,4,3:0:0:0:
370,330,48252,1,8,0:3:0:0:
438,203,48404,6,0,B|437:202|435:202|435:202|433:200|433:200|433:202|433:202|430:200|430:200|429:200|428:199|428:199|426:197|426:197|425:199|425:199|423:197|423:197|421:197|419:196|419:196|418:195|418:195|417:196|417:196|415:195|415:195|413:194|411:194|411:194|409:193|409:193|409:194|409:194|408:193|408:193|404:192|404:192|402:191|402:191|401:192|401:192|399:191|399:191|396:190|396:190|394:188|394:188|393:190|393:190|391:189|391:189|389:188|388:188|388:188|386:186|386:186|386:188|386:188|384:186|384:186|382:186|380:186|380:186|378:184|378:184|378:186|378:186|376:184|376:184|374:184|372:184|372:184|370:183|370:183|369:184|369:184|368:183|368:183|366:183|364:183|364:183|362:181|362:181|361:183|361:183|359:182|359:182|356:181|356:181|354:180|354:180|354:182|354:182|351:180|351:180|349:180|348:180|348:180|346:178|346:178|346:180|346:180|343:179|343:179|342:178|340:178|340:178|338:177|338:177|338:179|338:179|336:177|336:177|332:177|332:177|329:175|329:175|329:177|329:177|328:176|328:176|326:176|324:176|324:176|321:174|321:174|321:176|321:176|319:175|319:175|316:175|316:175|313:173|313:173|313:175|313:175|311:174|311:174|309:174|308:174|308:174|305:173|305:173|305:174|305:174|303:173|303:173|301:173|299:173|299:173|297:173|297:173|297:174|297:174|295:173|295:173|293:173|291:173|291:173|289:172|289:172|289:173|289:173|287:173|287:173|285:173|283:173|283:173|280:172|280:172|280:173|280:173|279:172|279:172|275:172|275:172|272:171|272:171|272:173|272:173|270:172|270:172|269:172|267:172|267:172|264:171|264:171|264:173|264:173|262:172|262:172|258:172|257:172,1,218.500004167557,2|10,0:0|0:0,0:0:0:0:
49,272,49014,6,0,B|50:271|52:271|52:271|54:269|54:269|54:271|54:271|57:269|57:269|58:269|59:268|59:268|61:266|61:266|62:268|62:268|64:266|64:266|66:266|68:265|68:265|69:264|69:264|70:265|70:265|72:264|72:264|74:263|76:263|76:263|78:262|78:262|78:263|78:263|79:262|79:262|83:261|83:261|85:260|85:260|86:261|86:261|88:260|88:260|91:259|91:259|93:257|93:257|94:259|94:259|96:258|96:258|98:257|99:257|99:257|101:255|101:255|101:257|101:257|103:255|103:255|105:255|107:255|107:255|109:253|109:253|109:255|109:255|111:253|111:253|113:253|115:253|115:253|117:252|117:252|118:253|118:253|119:252|119:252|121:252|123:252|123:252|125:250|125:250|126:252|126:252|128:251|128:251|131:250|131:250|133:249|133:249|133:251|133:251|136:249|136:249|138:249|139:249|139:249|141:247|141:247|141:249|141:249|144:248|144:248|145:247|147:247|147:247|149:246|149:246|149:248|149:248|151:246|151:246|155:246|155:246|158:244|158:244|158:246|158:246|159:245|159:245|161:245|163:245|163:245|166:243|166:243|166:245|166:245|168:244|168:244|171:244|171:244|174:242|174:242|174:244|174:244|176:243|176:243|178:243|179:243|179:243|182:242|182:242|182:243|182:243|184:242|184:242|186:242|188:242|188:242|190:242|190:242|190:243|190:243|192:242|192:242|194:242|196:242|196:242|198:241|198:241|198:242|198:242|200:242|200:242|202:242|204:242|204:242|207:241|207:241|207:242|207:242|208:241|208:241|212:241|212:241|215:240|215:240|215:242|215:242|217:241|217:241|218:241|220:241|220:241|223:240|223:240|223:242|223:242|225:241|225:241|229:241|230:241,1,218.500004167557,6|2,3:1|0:0,0:0:0:0:
146,329,49470,5,8,0:3:0:0:
118,169,49623,2,0,B|119:168|119:166|119:166|121:164|121:164|119:164|119:164|121:161|121:161|121:160|122:159|122:159|124:157|124:157|122:156|122:156|124:154|124:154|124:152|125:150|125:150|126:149|126:149|125:148|125:148|126:146|126:146|127:144|127:142|127:142|128:140|128:140|127:140|127:140|128:139|128:139|129:135|129:135|130:133|130:133|129:132|129:132|130:130|130:130|131:127|131:127|133:125|133:125|131:124|131:124|132:122|132:122|133:120|133:119|133:119|135:117|135:117|133:117|133:117|135:115|135:115|135:113|135:111|135:111|137:109|137:109|135:109|135:109|137:107|137:107|137:105|137:103|137:103|138:101|138:101|137:100|137:100|138:99|138:99|138:97|138:95|138:95|140:93|140:93|138:92|138:92|139:90|139:90|140:87|140:87|141:85|141:85|139:85|139:85|141:82|141:82|141:80|141:79|141:79|143:77|143:77|141:77|141:77|142:74|142:74|143:73|143:71|143:71|144:69|144:69|142:69|142:69|144:67|144:67|144:63|144:63|146:60|146:60|144:60|144:60|145:59|145:59|145:57|145:55|145:55|147:52|147:52|145:52|145:52|146:50|146:50|146:47|146:47|148:44|148:44|146:44|146:44|147:42|147:42|147:40|147:39|147:39|148:36|148:36|147:36|147:36|148:34|148:34|148:32|148:30|148:30|148:28|148:28|147:28|147:28|148:26|148:26|148:24|148:22|148:22|149:20|149:20|148:20|148:20|148:18|148:18|148:16|148:14|148:14|149:11|149:11|148:11|148:11|149:10|149:10|149:6|149:6|150:3|150:3|148:3|148:3|149:1|149:1|149:0|149:-2|149:-2|150:-5|150:-5|148:-5|148:-5|149:-7|149:-7|149:-11|149:-12,1,218.500004167557,6|10,3:1|0:0,0:0:0:0:
399,32,50232,6,0,P|322:37|314:122,1,142.5,2|0,1:2|0:0,0:0:0:0:
258,149,50536,5,6,3:0:0:0:
419,201,50689,1,8,0:3:0:0:
343,257,50841,6,0,P|340:207|335:151,1,95,2|8,0:0|0:3,0:0:0:0:
166,351,51146,2,0,P|220:352|252:399,1,95,10|0,0:0|0:0,0:0:0:0:
128,203,51450,6,0,B|127:207|127:207|126:209|126:209|128:210|128:210|126:212|126:212|125:215|125:215|123:217|123:217|125:217|125:217|123:219|123:219|123:221|122:222|122:222|120:224|120:224|122:225|122:225|120:227|120:227|119:228|119:229|119:229|117:231|117:231|119:232|119:232|117:233|117:233|114:237|114:237|112:238|112:238|114:238|114:238|112:240|112:240|110:241|110:243|110:243|108:244|108:244|109:245|109:245|104:248|104:248|105:247|104:248|104:248|102:249|102:249|103:251|103:251|101:252|101:252|100:253|98:254|98:254|96:255|96:255|97:256|97:256|94:256|94:256|93:258|92:259|92:259|89:259|89:259|90:261|90:261|88:261|88:261|86:262|85:263|85:263|83:263|83:263|83:264|83:264|81:264|81:264|79:265|77:266|77:266|75:266|75:266|76:268|76:268|73:268|73:268|70:269|70:269|68:268|68:268|68:270|68:270|66:270|66:270|64:270|62:271|62:271|59:270|59:270|60:272|60:272|58:272|58:272|54:272|54:272|51:271|51:271|52:272|52:272|50:272|50:272|48:272|46:272|46:272|44:271|44:271|43:272|43:272|42:272|42:272|40:272|38:272|38:272|36:270|36:270|35:272|35:272|34:271|34:271|30:270|30:270|28:269|28:269|28:271|28:271|25:269|25:269|24:268|23:268|23:268|21:266|21:266|20:268|20:268|18:266|18:266|17:265|15:265|15:265|13:263|13:263|13:265|13:265|11:263|11:263|9:263|8:262|8:262|7:260|7:260|6:261|6:261|4:259|4:259|1:257|1:257|0:255|0:255|-1:256|-1:256|-2:255|-2:255|-3:254|-3:254,1,218.500004167557,6|2,3:1|0:0,0:0:0:0:
49,195,51907,1,8,0:3:0:0:
89,340,52059,1,2,0:0:0:0:
245,110,52364,6,0,P|255:41|266:-8,1,104.500003189087,10|2,0:0|0:0,0:0:0:0:
481,359,52973,5,4,3:0:0:0:
304,318,53125,1,8,0:3:0:0:
402,306,53278,5,2,0:0:0:0:
394,309,53430,1,8,0:3:0:0:
416,226,53582,6,0,P|406:157|396:116,1,95,10|0,0:0|0:0,0:0:0:0:
114,207,53887,6,0,B|111:208|112:207|112:207|113:206|113:206|114:207|114:207|115:205|115:205|118:203|118:203|120:201|120:201|121:202|121:202|122:200|122:200|123:199|125:199|125:199|127:197|127:197|127:199|127:199|129:197|129:197|131:197|132:196|132:196|134:194|134:194|135:196|135:196|137:194|137:194|138:194|139:193|139:193|142:191|142:191|142:193|142:193|144:192|144:192|148:191|148:191|149:190|149:190|150:192|150:192|152:190|152:190|154:190|156:190|156:190|157:190|157:190|158:191|158:191|160:190|160:190|162:190|164:190|164:190|166:190|166:190|165:191|165:191|168:190|168:190|172:190|172:190|174:190|174:190|173:192|173:192|176:191|176:191|178:192|180:192|180:192|182:192|182:192|182:194|182:194|184:193|184:193|187:194|187:194|190:194|190:194|189:196|189:196|191:196|191:196|193:197|195:198|195:198|197:198|197:198|197:199|197:199|199:199|199:199|200:200|202:201|202:201|204:201|204:201|203:203|203:203|206:203|206:203|207:204|208:206|208:206|211:206|211:206|210:207|210:207|212:208|212:208|214:209|215:210|215:210|217:211|217:211|216:213|216:213|218:214|218:214|219:215|218:214|218:214|223:217|223:217|222:218|222:218|224:219|224:219|224:221|226:222|226:222|228:224|228:224|226:224|226:224|228:225|228:225|231:229|231:229|233:230|233:230|231:231|231:231|233:233|233:233|233:234|234:235|234:235|236:237|236:237|234:238|234:238|236:240|236:240|237:241|237:243|237:243|239:245|239:245|237:245|237:245|239:247|239:247|240:250|240:250|242:252|242:252|240:253|240:253|241:255|241:255|242:259,1,218.500004167557,6|2,3:1|0:0,0:0:0:0:
66,29,54344,5,8,0:3:0:0:
138,69,54496,2,0,B|139:70|138:69|138:69|137:68|137:68|136:69|136:69|135:67|135:67|132:65|132:65|130:63|130:63|129:64|129:64|128:62|128:62|127:61|125:61|125:61|123:59|123:59|123:61|123:61|121:59|121:59|119:59|118:58|118:58|116:56|116:56|115:58|115:58|113:56|113:56|112:56|111:55|111:55|108:53|108:53|108:55|108:55|106:54|106:54|102:53|102:53|101:52|101:52|100:54|100:54|98:52|98:52|96:52|94:52|94:52|93:52|93:52|92:53|92:53|90:52|90:52|88:52|86:52|86:52|84:52|84:52|85:53|85:53|82:52|82:52|78:52|78:52|76:52|76:52|77:54|77:54|74:53|74:53|72:54|70:54|70:54|68:54|68:54|68:56|68:56|66:55|66:55|63:56|63:56|60:56|60:56|61:58|61:58|59:58|59:58|57:59|55:60|55:60|53:60|53:60|53:61|53:61|51:61|51:61|50:62|48:63|48:63|46:63|46:63|47:65|47:65|44:65|44:65|43:66|42:68|42:68|39:68|39:68|40:69|40:69|38:70|38:70|36:71|35:72|35:72|33:73|33:73|34:75|34:75|32:76|32:76|31:77|32:76|32:76|27:79|27:79|28:80|28:80|26:81|26:81|26:83|24:84|24:84|22:86|22:86|24:86|24:86|22:87|22:87|19:91|19:91|17:92|17:92|19:93|19:93|17:95|17:95|17:96|16:97|16:97|14:99|14:99|16:100|16:100|14:102|14:102|13:103|13:105|13:105|11:107|11:107|13:107|13:107|11:109|11:109|10:112|10:112|8:114|8:114|10:115|10:115|9:117|9:117|9:118,1,218.500004167557,6|10,3:1|0:0,0:0:0:0:
415,32,55105,6,0,L|474:44,2,54.6250010418892,8|0|8,1:3|0:0|1:3,0:0:0:0:
345,70,55410,5,4,3:0:0:0:
369,231,55562,1,8,0:3:0:0:
403,145,55714,6,0,P|356:151|309:157,1,95,2|8,0:0|0:3,0:0:0:0:
331,315,56019,2,0,P|378:309|426:303,1,95,10|0,0:0|0:0,0:0:0:0:
202,249,56323,6,0,B|201:248|199:248|199:248|197:246|197:246|197:248|197:248|194:246|194:246|193:246|192:245|192:245|190:243|190:243|189:245|189:245|187:243|187:243|185:243|183:242|183:242|182:241|182:241|181:242|181:242|179:241|179:241|177:240|175:240|175:240|173:239|173:239|173:240|173:240|172:239|172:239|168:238|168:238|166:237|166:237|165:238|165:238|163:237|163:237|160:236|160:236|158:234|158:234|157:236|157:236|155:235|155:235|153:234|152:234|152:234|150:232|150:232|150:234|150:234|148:232|148:232|146:232|144:232|144:232|142:230|142:230|142:232|142:232|140:230|140:230|138:230|136:230|136:230|134:229|134:229|133:230|133:230|132:229|132:229|130:229|128:229|128:229|126:227|126:227|125:229|125:229|123:228|123:228|120:227|120:227|118:226|118:226|118:228|118:228|115:226|115:226|113:226|112:226|112:226|110:224|110:224|110:226|110:226|107:225|107:225|106:224|104:224|104:224|102:223|102:223|102:225|102:225|100:223|100:223|96:223|96:223|93:221|93:221|93:223|93:223|92:222|92:222|90:222|88:222|88:222|85:220|85:220|85:222|85:222|83:221|83:221|80:221|80:221|77:219|77:219|77:221|77:221|75:220|75:220|73:220|72:220|72:220|69:219|69:219|69:220|69:220|67:219|67:219|65:219|63:219|63:219|61:219|61:219|61:220|61:220|59:219|59:219|57:219|55:219|55:219|53:218|53:218|53:219|53:219|51:219|51:219|49:219|47:219|47:219|44:218|44:218|44:219|44:219|43:218|43:218|39:218|39:218|36:217|36:217|36:219|36:219|34:218|34:218|33:218|31:218|31:218|28:217|28:217|28:219|28:219|26:218|26:218|22:218|21:218,1,218.500004167557,6|2,3:1|0:0,0:0:0:0:
0,286,56780,2,0,P|10:329|16:363,1,71.2500027179719,8|0,0:3|0:0,0:0:0:0:
281,212,57237,5,10,0:0:0:0:
231,141,57542,5,2,0:0:0:0:
295,80,57846,6,0,B|297:80|297:80|299:82|299:82|299:80|299:80|302:82|302:82|302:82|303:83|303:83|305:85|305:85|306:83|306:83|308:85|308:85|309:85|311:86|311:86|312:87|312:87|313:86|313:86|315:87|315:87|316:87|318:87|318:87|320:88|320:88|320:87|320:87|321:88|321:88|324:89|324:89|326:90|326:90|327:89|327:89|329:90|329:90|331:91|331:91|333:93|333:93|334:91|334:91|336:92|336:92|338:93|338:93|338:93|340:94|340:94|340:93|340:93|342:94|342:94|344:94|345:94|345:94|347:96|347:96|347:94|347:94|349:96|349:96|351:96|352:96|352:96|354:97|354:97|355:96|355:96|356:97|356:97|358:97|359:97|359:97|361:99|361:99|362:97|362:97|364:98|364:98|366:99|366:99|368:100|368:100|368:98|368:98|371:100|371:100|373:100|374:100|374:100|375:101|375:101|375:100|375:100|378:101|378:101|379:101|381:101|381:101|382:102|382:102|382:101|382:101|384:102|384:102|388:102|388:102|390:104|390:104|390:102|390:102|391:103|391:103|393:103|395:103|395:103|397:105|397:105|397:103|397:103|399:104|399:104|402:104|402:104|404:106|404:106|404:104|404:104|406:105|406:105|408:105|409:105|409:105|411:106|411:106|411:105|411:105|413:106|413:106|415:106|417:106|417:106|418:106|418:106|418:105|418:105|420:106|420:106|422:106|424:106|424:106|425:107|425:107|425:106|425:106|427:106|427:106|429:106|431:106|431:106|433:107|433:107|433:106|433:106|434:107|434:107|438:107|438:107|440:108|440:108|440:106|440:106|442:107|442:107|443:107|445:107|445:107|447:108|447:108|447:106|447:106|449:107|449:107|453:107|453:107,1,185.249991519928,6|0,3:0|0:0,0:0:0:0:
503,70,58151,6,0,P|493:27|487:-7,1,71.2500027179719,2|8,0:0|0:3,0:0:0:0:
420,31,58455,1,10,0:0:0:0:
508,290,58760,6,0,B|508:289|506:287|506:287|504:287|504:287|506:286|506:286|504:285|504:285|501:284|501:284|499:283|499:283|500:282|500:282|499:282|499:282|497:281|496:280|496:280|494:280|494:280|494:279|494:279|493:279|493:279|490:277|490:277|488:277|488:277|489:276|489:276|486:277|486:277|484:275|484:275|482:276|482:276|483:275|483:275|481:275|481:275|478:274|478:274|476:275|476:275|476:273|476:273|474:273|474:273|473:273|471:273|471:273|470:274|470:274|470:272|470:272|468:273|468:273|466:272|465:273|465:273|464:274|464:274|464:272|464:272|461:273|461:273|460:273|459:273|459:273|457:274|457:274|457:272|457:272|455:274|455:274|454:274|452:275|452:275|451:275|451:275|451:274|451:274|449:275|449:275|448:275|446:276|446:276|445:277|445:277|444:276|444:276|443:277|443:277|441:277|440:278|440:278|439:280|439:280|439:278|439:278|437:280|437:280|434:281|434:281|434:283|434:283|433:282|433:282|431:283|431:283|429:285|429:285|428:287|428:287|427:285|427:285|427:287|427:287|424:289|424:289|424:290|424:290|422:290|422:290|422:291|422:291|421:292|419:293|419:293|419:295|419:295|418:294|418:294|417:296|417:296|416:298|416:298|415:300|415:300|414:299|414:299|414:301|414:301|412:304|412:304|412:305|412:305|411:304|411:304|410:307|410:307|409:308|409:309|409:309|409:311|409:311|408:311|408:311|408:312|408:312|407:314|407:315|407:315|407:317|407:317|406:317|406:317|406:319|406:319|405:320|405:322|405:322|405:323|405:323|404:323|404:323|404:324|404:324|404:326|404:327|404:327|404:329|404:329|403:329|403:329|404:331|404:331|404:332|404:334|404:334|404:336|404:336|403:336|403:336|404:337|404:337|404:339|404:340|404:340|404:342|404:342|403:342|403:342|404:344|404:344|404:345|404:347|404:347|406:349|406:349|404:349|404:349|405:350|405:350|406:353|406:353|407:354|407:354|406:355|406:355|407:357|407:357|407:358|408:359|408:359|409:360|409:360|408:361|408:361|409:362|409:362|410:364|411:365|411:365|412:366|412:366|411:367|411:367|413:368|413:368|414:369|414:370|414:370|416:371|416:371|414:372|414:372|417:373|417:373|417:374|418:375|418:375|420:376|420:376|419:377|419:377|420:378|420:378|422:379|424:381,1,246.999988693238,6|2,3:1|0:0,0:0:0:0:
493,365,59217,5,8,0:3:0:0:
139,174,59369,2,0,P|149:131|160:62,1,104.500003189087,6|2,3:1|0:0,0:0:0:0:
323,356,59674,5,8,0:0:0:0:
323,356,60587,5,0,0:0:0:0:
254,320,60740,1,0,0:0:0:0:
184,343,60892,1,8,0:0:0:0:
480,288,61044,5,2,0:0:0:0:
409,368,61196,2,0,B|409:366|409:365|409:365|409:362|409:362|408:360|408:360|408:358|408:357|408:357|407:355|407:355|407:352|407:352|407:350|407:349|407:349|408:347|408:347|406:344|406:344|406:342|406:341|406:341|405:339|405:339|405:336|405:336|405:334|405:333|405:333|405:331|405:331|404:329|404:329|404:326|404:326|402:323|402:323|403:321|403:321|403:318|402:318|402:318|403:315|403:315|402:313|402:313|401:310|401:310|400:308|400:308|400:305|400:305|400:303|400:302|400:302|400:299|400:299|399:297|399:297|398:295|398:294|398:294|397:292|397:292|397:289|397:289|397:287|397:286|397:286|397:284|397:284|396:281|396:281|395:279|395:279|394:276|394:276|394:274|394:274|394:271|394:271|394:268|394:268|393:266|393:266|392:263|392:263|390:261|390:261|391:258|391:258|390:256|390:255,1,113.999996520996,6|2,3:1|0:0,0:0:0:0:
127,129,61501,5,2,0:0:0:0:
274,157,61653,1,8,0:3:0:0:
185,200,61806,2,0,P|195:157|207:74,1,113.999996520996,10|0,0:3|0:0,0:0:0:0:
466,25,62110,5,10,0:0:0:0:
474,36,62415,6,0,P|413:35|409:156,1,170.999994781494,10|0,0:3|0:0,0:0:0:0:
433,185,62719,5,6,3:0:0:0:
129,139,62871,1,8,0:3:0:0:
312,255,63024,5,2,0:0:0:0:
212,271,63176,1,10,0:3:0:0:
262,141,63328,6,0,P|257:167|249:207,1,56.9999982604981,10|0,0:0|0:0,0:0:0:0:
251,196,63481,1,2,0:0:0:0:
151,367,63633,6,0,B|150:365|150:365|151:364|151:364|150:362|150:362|149:359|149:359|147:358|147:358|149:358|149:358|147:356|147:356|147:354|146:353|146:353|144:351|144:351|146:350|146:350|144:349|144:349|143:348|143:347|143:347|142:345|142:345|143:344|143:344|142:343|142:343|139:340|139:340|137:339|137:339|139:339|139:339|137:337|137:337|135:336|135:334|135:334|133:333|133:333|134:332|134:332|130:330|130:330|131:331|130:330|130:330|128:329|128:329|129:327|129:327|127:326|127:326|126:325|124:324|124:324|123:323|123:323|123:322|123:322|121:322|121:322|120:321|119:320|119:320|116:320|116:320|117:318|117:318|115:318|115:318|114:317|113:316|113:316|111:316|111:316|111:315|111:315|109:315|109:315|107:314|105:313|105:313|104:313|104:313|104:312|104:312|102:312|102:312|99:311|99:311|97:312|97:312|97:310|97:310|95:310|95:310|94:310|92:309|92:309|89:310|89:310|90:308|90:308|88:308|88:308|85:308|85:308|82:309|82:309|83:308|83:308|81:308|81:308|79:308|77:308|77:308|76:309|76:309|75:308|75:308|74:308|74:308|72:308|70:308|70:308|68:310|68:310|67:308|67:308|67:309|67:309|63:310|63:310|61:311|61:311|61:309|61:309|58:311|58:311|57:312|57:312|57:312|55:313|55:313|54:312|54:312|52:313|52:313|51:314|49:314|49:314|48:316|48:316|48:314|48:314|46:316|46:316|44:316|43:317|43:317|42:319|42:319|41:318|41:318|39:320|39:320|37:321|37:321|36:323|36:323|35:322|35:322|34:323|34:323|33:324|36:323,1,170.999994781494,6|0,3:1|0:0,0:0:0:0:
1,372,63937,5,2,0:0:0:0:
57,100,64090,1,8,0:3:0:0:
0,244,64242,6,0,B|0:243|2:243|2:243|4:241|4:241|4:243|4:243|7:241|7:241|8:241|9:240|9:240|11:238|11:238|12:240|12:240|13:238|13:238|15:238|17:237|17:237|18:236|18:236|19:237|19:237|21:236|21:236|23:235|25:235|25:235|26:234|26:234|26:235|26:235|27:234|27:234|31:233|31:233|33:232|33:232|34:233|34:233|36:232|36:232|38:231|38:231|40:230|40:230|41:231|41:231|43:231|43:231|45:230|46:230|46:230|48:228|48:228|48:230|48:230|50:228|50:228|51:228|53:228|53:228|55:226|55:226|55:228|55:228|57:226|57:226|59:226|61:226|61:226|63:225|63:225|63:226|63:226|64:225|64:225|66:225|68:225|68:225|70:223|70:223|71:225|71:225|73:224|73:224|76:223|76:223|77:222|77:222|77:224|77:224|80:222|80:222|82:222|83:222|83:222|85:220|85:220|85:222|85:222|88:221|88:221|88:220|90:220|90:220|92:219|92:219|92:221|92:221|94:219|94:219|98:219|98:219|101:218|101:218|101:219|101:219|101:218|101:218|103:218|105:218|105:218|108:217|108:217|108:218|108:218|110:218|110:218|113:218|113:218|115:216|115:216|115:218|115:218|117:217|117:217|119:217|120:217|120:217|123:216|123:216|123:217|123:217|125:216|125:216|126:216|128:216|128:216|130:216|130:216|130:217|130:217|132:216|132:216|134:216|136:216|136:216|138:215|138:215|138:216|138:216|139:216|139:216|141:216|143:216|143:216|146:215|146:215|146:216|146:216|147:215|147:215|151:215|151:215|153:214|153:214|153:216|153:216|155:215|155:215|156:215|158:215|158:215|161:214|161:214|161:216|161:216|163:215|163:215|166:215|167:215,1,185.249991519928,6|0,3:1|0:0,0:0:0:0:
189,160,64547,1,10,0:0:0:0:
337,384,64851,6,0,P|334:361|328:330,2,52.2500015945435,8|0|8,1:3|0:0|1:3,0:0:0:0:
409,318,65156,5,6,3:0:0:0:
258,297,65308,1,8,0:3:0:0:
464,205,65460,5,2,0:0:0:0:
196,244,65613,1,10,0:3:0:0:
325,178,65765,6,0,P|336:126|369:45,1,104.500003189087,10|0,0:0|0:0,0:0:0:0:
36,47,66069,6,0,B|35:47|35:47|37:46|37:46|37:44|37:44|39:44|39:44|42:42|42:42|45:42|45:42|43:41|43:41|46:41|46:41|47:40|48:40|48:40|51:40|51:40|50:38|50:38|53:38|53:38|54:38|55:37|55:37|58:37|58:37|57:35|57:35|59:36|59:36|64:35|64:35|66:35|66:35|64:34|64:34|67:34|67:34|69:35|70:33|70:33|72:34|72:34|72:33|72:33|78:34|78:34|76:34|78:34|78:34|80:35|80:35|80:33|80:33|82:33|82:33|84:33|86:34|86:34|88:34|88:34|88:33|88:33|90:35|90:35|92:34|93:34|93:34|95:36|95:36|95:34|95:34|97:36|97:36|99:36|100:36|100:36|102:37|102:37|102:37|102:37|104:38|104:38|106:39|108:39|108:39|109:41|109:41|110:39|110:39|112:41|112:41|114:42|114:42|115:44|115:44|116:42|116:42|118:44|118:44|119:45|121:46|121:46|122:48|122:48|123:46|123:46|124:48|124:48|127:50|127:50|128:53|128:53|128:52|128:52|130:53|130:53|131:54|132:55|132:55|133:57|133:57|134:57|134:57|135:58|135:58|136:59|138:61|138:61|138:63|138:63|140:63|140:63|140:64|140:64|142:67|142:67|143:69|143:69|144:68|144:68|145:71|145:71|145:73|145:73|145:73|145:76|145:76|147:75|147:75|147:78|147:78|147:79|149:80|149:80|149:83|149:83|150:82|150:82|150:84|150:84|151:86|151:87|151:87|151:89|151:89|152:89|152:89|152:92|152:92|153:95|153:95|152:97|152:97|154:97|154:97|154:98|154:98|154:100|152:97,1,185.249991519928,6|0,3:1|0:0,0:0:0:0:
199,145,66374,5,10,0:3:0:0:
75,363,66526,2,0,P|64:311|31:230,1,104.500003189087,8|10,0:3|0:3,0:0:0:0:
214,20,66983,5,8,0:0:0:0:
276,74,67288,1,2,0:0:0:0:
352,40,67592,6,0,B|354:40|354:40|355:42|355:42|355:40|355:40|358:42|358:42|358:42|359:43|359:43|361:44|361:44|361:43|361:43|363:44|363:44|364:44|366:45|366:45|367:46|367:46|367:45|367:45|369:46|369:46|371:46|372:46|372:46|374:47|374:47|374:46|374:46|374:47|374:47|377:48|377:48|379:49|379:49|380:48|380:48|381:49|381:49|383:49|383:49|385:51|385:51|386:49|386:49|387:50|387:50|389:51|390:51|390:51|391:52|391:52|391:51|391:51|393:52|393:52|394:52|396:52|396:52|397:54|397:54|397:52|397:52|399:54|399:54|400:54|402:54|402:54|403:55|403:55|404:54|404:54|405:55|405:55|406:55|408:55|408:55|409:56|409:56|410:55|410:55|412:55|412:55|414:56|414:56|415:57|415:57|415:55|415:55|418:57|418:57|419:57|420:57|420:57|421:59|421:59|421:57|421:57|424:58|424:58|424:59|426:59|426:59|428:59|428:59|428:58|428:58|429:59|429:59|432:59|432:59|434:61|434:61|434:59|434:59|435:60|435:60|437:60|438:60|438:60|440:62|440:62|440:60|440:60|442:61|442:61|444:61|444:61|447:62|447:62|447:61|447:61|448:62|448:62|450:62|450:62|450:62|453:62|453:62|453:62|453:62|454:62|454:62|456:62|457:62|457:62|459:62|459:62|459:62|459:62|460:62|460:62|462:62|463:62|463:62|465:63|465:63|465:62|465:62|466:62|466:62|468:62|469:62|469:62|472:63|472:63|472:62|472:62|472:63|472:63|475:63|475:63|478:64|478:64|478:62|478:62|479:63|479:63|480:63|481:63|481:63|484:64|484:64|484:62|484:62|485:63|485:63|488:63|489:63,1,156.750004783631,6|0,3:0|0:0,0:0:0:0:
500,136,67897,5,2,0:0:0:0:
329,210,68049,1,8,0:3:0:0:
397,366,68201,2,0,P|453:347|504:339,1,104.500003189087,10|2,0:0|0:0,0:0:0:0:
335,130,68506,6,0,B|334:130|333:129|333:129|331:128|331:128|328:128|328:128|327:128|326:128|326:128|324:128|324:128|321:127|321:127|320:127|319:127|319:127|317:126|317:126|314:126|314:126|313:126|312:126|312:126|310:128|310:128|307:127|307:127|306:127|305:127|305:127|302:127|302:127|300:128|300:128|299:128|298:129|298:129|296:131|296:131|294:130|294:130|292:131|292:131|289:132|289:132|287:134|287:134|286:134|285:135|285:135|284:137|284:137|281:138|281:138|280:138|280:139|280:139|277:140|277:140|276:142|276:142|275:143|274:144|274:144|273:146|273:146|271:147|271:147|270:148|270:149|270:149|267:150|267:150|266:153|266:153|265:154|265:154|264:157|264:157|262:158|262:158|261:159|260:160|260:160|258:161|258:161|257:164|257:164|257:165|256:165|256:165|255:168|255:168|253:169|253:169|252:170|252:171|252:171|249:172|249:172|248:175|248:175|248:176|247:176|247:176|246:179|246:179|244:180|244:180|243:181|242:182|242:182|240:183|240:183|239:185|239:185|238:186|237:187|237:187|236:189|236:189|234:190|234:190|233:191|232:191|232:191|229:192|229:192|228:194|228:194|227:195|226:195|226:195|225:198|225:198|222:198|222:198|221:199|220:199|220:199|217:199|217:199|216:201|216:201|214:201|214:202|214:202|212:203|212:203|209:203|209:203|207:203|207:204|207:204|204:203|204:203|202:204|202:204|201:205|200:205|200:205|197:206|197:206|195:205|195:205|193:205|193:205|190:204|190:204|188:205|188:205|186:205,1,185.249991519928,6|0,3:1|0:0,0:0:0:0:
128,162,68811,5,2,0:0:0:0:
150,384,68963,1,8,0:3:0:0:
33,219,69115,6,0,B|34:219|35:218|35:218|37:217|37:217|40:217|40:217|41:217|42:217|42:217|44:217|44:217|47:216|47:216|48:216|49:216|49:216|51:215|51:215|54:215|54:215|55:215|56:215|56:215|58:217|58:217|61:216|61:216|62:216|63:216|63:216|66:216|66:216|68:217|68:217|69:217|70:218|70:218|72:220|72:220|74:219|74:219|76:220|76:220|79:221|79:221|81:223|81:223|82:223|83:224|83:224|84:226|84:226|87:227|87:227|88:227|88:228|88:228|91:229|91:229|92:231|92:231|93:232|94:233|94:233|95:235|95:235|97:236|97:236|98:237|98:238|98:238|101:239|101:239|102:242|102:242|103:243|103:243|104:246|104:246|106:247|106:247|107:248|108:249|108:249|110:250|110:250|111:253|111:253|111:254|112:254|112:254|113:257|113:257|115:258|115:258|116:259|116:260|116:260|119:261|119:261|120:264|120:264|120:265|121:265|121:265|122:268|122:268|124:269|124:269|125:270|126:271|126:271|128:272|128:272|129:274|129:274|130:275|131:276|131:276|132:278|132:278|134:279|134:279|135:280|136:280|136:280|139:281|139:281|140:283|140:283|141:284|142:284|142:284|143:287|143:287|146:287|146:287|147:288|148:288|148:288|151:288|151:288|152:290|152:290|154:290|154:291|154:291|156:292|156:292|159:292|159:292|161:292|161:293|161:293|164:292|164:292|166:293|166:293|167:294|168:294|168:294|171:295|171:295|173:294|173:294|175:294|175:294|178:293|178:293|180:294|180:294|182:294,1,185.249991519928,6|0,3:1|0:0,0:0:0:0:
228,355,69420,1,10,0:0:0:0:
19,61,69724,6,0,P|15:35|10:9,2,52.2500015945435,8|0|8,1:3|0:0|1:3,0:0:0:0:
78,115,70029,6,0,B|80:115|81:115|81:115|84:115|84:115|86:116|86:116|88:116|89:116|89:116|91:117|91:117|94:117|94:117|96:117|97:117|97:117|99:116|99:116|102:118|102:118|104:118|105:118|105:118|107:119|107:119|110:119|110:119|112:119|113:119|113:119|115:119|115:119|117:120|117:120|120:120|120:120|123:122|123:122|125:121|125:121|128:121|128:122|128:122|131:121|131:121|133:122|133:122|136:123|136:123|138:124|138:124|141:124|141:124|143:124|144:124|144:124|147:124|147:124|149:125|149:125|151:126|152:126|152:126|154:127|154:127|157:127|157:127|159:127|160:127|160:127|162:127|162:127|165:128|165:128|167:129|167:129|170:130|170:130|172:130|172:130|175:130|175:130|178:130|178:130|180:131|180:131|183:132|183:132|185:134|185:134|188:133|188:133|195:135|191:134,1,113.999996520996,6|8,3:0|0:3,0:0:0:0:
241,84,70333,5,2,0:0:0:0:
4,144,70486,1,8,0:3:0:0:
112,287,70638,6,0,P|139:248|111:188,1,95,10|0,0:0|0:0,0:0:0:0:
268,0,70943,6,0,B|267:2|267:2|268:3|268:3|267:5|267:5|266:8|266:8|264:9|264:9|266:9|266:9|264:11|264:11|264:13|263:14|263:14|261:16|261:16|263:17|263:17|261:18|261:18|260:19|260:20|260:20|259:22|259:22|260:23|260:23|259:24|259:24|256:27|256:27|254:28|254:28|256:28|256:28|254:30|254:30|252:31|252:33|252:33|250:34|250:34|251:35|251:35|247:37|247:37|248:36|247:37|247:37|245:38|245:38|246:40|246:40|244:41|244:41|243:42|241:43|241:43|240:44|240:44|240:45|240:45|238:45|238:45|237:46|236:47|236:47|233:47|233:47|234:49|234:49|232:49|232:49|231:50|230:51|230:51|228:51|228:51|228:52|228:52|226:52|226:52|224:53|222:54|222:54|221:54|221:54|221:55|221:55|219:55|219:55|216:56|216:56|214:55|214:55|214:57|214:57|212:57|212:57|211:57|209:58|209:58|206:57|206:57|207:59|207:59|205:59|205:59|202:59|202:59|199:58|199:58|200:59|200:59|198:59|198:59|196:59|194:59|194:59|193:58|193:58|192:59|192:59|191:59|191:59|189:59|187:59|187:59|185:57|185:57|184:59|184:59|184:58|184:58|180:57|180:57|178:56|178:56|178:58|178:58|175:56|175:56|174:55|174:55|174:55|172:54|172:54|171:55|171:55|169:54|169:54|168:53|166:53|166:53|165:51|165:51|165:53|165:53|163:51|163:51|161:51|160:50|160:50|159:48|159:48|158:49|158:49|156:47|156:47|154:46|154:46|153:44|153:44|152:45|152:45|151:44|151:44|150:43|153:44,1,185.249991519928,6|0,3:1|0:0,0:0:0:0:
83,20,71247,5,2,0:0:0:0:
403,98,71399,1,8,0:3:0:0:
309,220,71552,6,0,P|308:172|291:107,1,104.500003189087,2|0,0:0|0:0,0:0:0:0:
217,284,71856,5,10,0:0:0:0:
424,240,72161,1,2,0:0:0:0:
330,305,72465,5,4,3:0:0:0:
113,261,72618,1,8,0:3:0:0:
247,370,72770,5,2,0:0:0:0:
174,378,72922,1,8,0:3:0:0:
244,120,73075,6,0,P|243:72|226:7,1,104.500003189087,10|0,0:0|0:0,0:0:0:0:
79,183,73379,6,0,B|81:182|81:182|81:180|81:180|83:180|83:180|86:179|86:179|88:179|88:179|86:178|86:178|89:178|89:178|91:177|92:177|92:177|95:177|95:177|94:175|94:175|96:175|96:175|98:175|99:175|99:175|101:174|101:174|101:173|101:173|102:173|102:173|106:173|106:173|109:174|109:174|107:172|107:172|110:172|110:172|112:173|114:172|114:172|116:172|116:172|116:171|116:171|120:173|120:173|118:173|120:173|120:173|122:173|122:173|123:171|123:171|125:172|125:172|126:172|128:173|128:173|130:173|130:173|131:172|131:172|132:174|132:174|133:174|135:174|135:174|137:176|137:176|138:174|138:174|139:175|139:175|140:175|142:176|142:176|143:177|143:177|144:176|144:176|145:178|145:178|147:179|149:179|149:179|150:180|150:180|151:179|151:179|152:181|152:181|155:182|155:182|156:184|156:184|157:183|157:183|158:185|158:185|159:185|161:186|161:186|162:189|162:189|163:187|163:187|165:188|165:188|167:191|167:191|168:193|168:193|168:192|168:192|169:193|169:193|171:195|172:196|172:196|172:198|172:198|173:198|173:198|174:199|174:199|176:200|177:202|177:202|177:204|177:204|179:204|179:204|178:204|178:204|180:208|180:208|181:210|181:210|182:209|182:209|183:212|183:212|183:214|183:214|183:214|183:216|183:216|185:216|185:216|186:218|186:218|185:219|187:221|187:221|186:223|186:223|188:222|188:222|187:225|187:225|189:226|189:227|189:227|188:229|188:229|189:230|189:230|189:232|189:232|190:235|190:235|189:237|189:237|191:237|191:237|190:238|190:238|190:239|189:237,1,185.249991519928,6|0,3:1|0:0,0:0:0:0:
201,301,73684,5,8,0:3:0:0:
425,31,73988,6,0,B|422:30|422:30|422:28|422:28|420:28|420:28|417:27|417:27|415:27|415:27|417:26|417:26|414:26|414:26|412:25|411:25|411:25|408:25|408:25|409:23|409:23|407:23|407:23|405:23|404:23|404:23|402:22|402:22|402:21|402:21|401:21|401:21|397:21|397:21|394:22|394:22|396:20|396:20|393:20|393:20|391:21|389:20|389:20|387:20|387:20|387:19|387:19|383:21|383:21|385:21|383:21|383:21|381:21|381:21|380:19|380:19|378:20|378:20|377:20|375:21|375:21|373:21|373:21|372:20|372:20|371:22|371:22|370:22|368:22|368:22|366:24|366:24|365:22|365:22|364:23|364:23|363:23|361:24|361:24|360:25|360:25|359:24|359:24|358:26|358:26|356:27|354:27|354:27|353:28|353:28|352:27|352:27|351:29|351:29|348:30|348:30|347:32|347:32|346:31|346:31|345:33|345:33|344:33|342:34|342:34|341:37|341:37|340:35|340:35|338:36|338:36|336:39|336:39|335:41|335:41|335:40|335:40|334:41|334:41|332:43|331:44|331:44|331:46|331:46|330:46|330:46|329:47|329:47|327:48|326:50|326:50|326:52|326:52|324:52|324:52|325:52|325:52|323:56|323:56|322:58|322:58|321:57|321:57|320:60|320:60|320:62|320:62|320:62|320:64|320:64|318:64|318:64|317:66|317:66|318:67|316:69|316:69|317:71|317:71|315:70|315:70|316:73|316:73|314:74|314:75|314:75|315:77|315:77|314:78|314:78|314:80|314:80|313:83|313:83|314:85|314:85|312:85|312:85|313:86|313:86|313:87|314:85,1,185.249991519928,6|0,3:1|0:0,0:0:0:0:
252,124,74293,2,0,P|264:174|266:226,1,104.500003189087,10|0,0:0|0:0,0:0:0:0:
462,372,74597,6,0,L|521:386,2,52.2500015945435,8|0|8,1:3|0:0|1:3,0:0:0:0:
444,296,74902,5,4,3:0:0:0:
161,366,75054,1,8,0:3:0:0:
353,359,75207,5,2,0:0:0:0:
260,324,75359,1,8,0:3:0:0:
447,211,75511,6,0,P|381:220|372:276,1,104.500003189087,10|0,0:0|0:0,0:0:0:0:
99,296,75816,6,0,B|99:295|101:296|101:296|103:296|103:296|106:295|106:295|107:294|108:294|108:294|110:293|110:293|113:293|113:293|114:292|115:292|115:292|118:292|118:292|121:291|121:291|122:291|123:290|123:290|124:288|124:288|127:287|127:287|128:287|129:287|129:287|132:285|132:285|134:284|134:284|135:283|135:282|135:282|136:279|136:279|139:279|139:279|140:277|140:277|143:275|143:275|144:273|144:273|145:272|146:271|146:271|146:268|146:268|148:266|148:266|149:266|149:265|149:265|151:263|151:263|152:260|152:260|152:259|153:258|153:258|153:255|153:255|155:253|155:253|155:252|155:251|155:251|157:249|157:249|157:246|157:246|158:244|158:244|158:241|158:241|159:239|159:239|160:238|160:236|160:236|162:235|162:235|162:231|162:231|161:230|162:230|162:230|162:226|162:226|164:225|164:225|164:223|164:222|164:222|166:220|166:220|166:217|166:217|166:216|167:215|167:215|166:212|166:212|168:210|168:210|169:209|169:208|169:208|171:206|171:206|171:203|171:203|172:202|172:201|172:201|172:198|172:198|174:197|174:197|174:195|175:195|175:195|178:193|178:193|178:190|178:190|179:189|180:188|180:188|180:185|180:185|182:184|182:184|183:183|184:182|184:182|187:181|187:181|187:179|187:179|189:178|189:177|189:177|190:175|190:175|193:174|193:174|195:173|195:172|195:172|198:172|198:172|200:170|200:170|200:169|201:168|201:168|204:166|204:166|206:166|206:166|208:166|208:166|212:165|212:165|213:164|213:164|215:163,1,199.499993911743,6|0,3:1|0:0,0:0:0:0:
252,103,76120,5,8,0:3:0:0:
48,54,76273,2,0,P|71:139|80:193,1,104.500003189087,8|2,0:3|0:0,0:0:0:0:
411,351,76729,5,10,0:0:0:0:
470,294,77034,1,2,0:0:0:0:
446,219,77338,5,4,3:0:0:0:
159,257,77491,1,8,0:3:0:0:
243,336,77643,5,2,0:0:0:0:
270,84,77795,1,8,0:3:0:0:
355,239,77948,6,0,P|306:220|257:205,1,104.500003189087,10|0,0:0|0:0,0:0:0:0:
45,27,78252,6,0,B|45:26|47:24|47:24|49:24|49:24|47:23|47:23|49:22|49:22|52:21|52:21|54:20|54:20|53:19|53:19|54:19|54:19|56:18|57:17|57:17|59:17|59:17|59:16|59:16|60:16|60:16|63:14|63:14|65:14|65:14|64:13|64:13|67:14|67:14|69:12|69:12|71:13|71:13|70:12|70:12|72:12|72:12|75:11|75:11|77:12|77:12|77:10|77:10|79:10|79:10|80:10|82:10|82:10|83:11|83:11|83:9|83:9|85:10|85:10|87:9|88:10|88:10|89:11|89:11|89:9|89:9|92:10|92:10|93:10|94:10|94:10|96:11|96:11|96:9|96:9|98:11|98:11|99:11|101:12|101:12|102:12|102:12|102:11|102:11|104:12|104:12|105:12|107:13|107:13|108:14|108:14|109:13|109:13|110:14|110:14|112:14|113:15|113:15|114:17|114:17|114:15|114:15|116:17|116:17|119:18|119:18|119:20|119:20|120:19|120:19|122:20|122:20|124:22|124:22|125:24|125:24|126:22|126:22|126:24|126:24|129:26|129:26|129:27|129:27|131:27|131:27|131:28|131:28|132:29|134:30|134:30|134:32|134:32|135:31|135:31|136:33|136:33|137:35|137:35|138:37|138:37|139:36|139:36|139:38|139:38|141:41|141:41|141:42|141:42|142:41|142:41|143:44|143:44|144:45|144:46|144:46|144:48|144:48|145:48|145:48|145:49|145:49|146:51|146:52|146:52|146:54|146:54|147:54|147:54|147:56|147:56|148:57|148:59|148:59|148:60|148:60|149:60|149:60|149:61|149:61|149:63|149:64|149:64|149:66|149:66|150:66|150:66|149:68|149:68|149:69|149:71|149:71|149:73|149:73|150:73|150:73|149:74|149:74|149:76|149:77|149:77|149:79|149:79|150:79|150:79|149:81|149:81|149:82|149:84|149:84|147:86|147:86|149:86|149:86|148:87|148:87|147:90|147:90|146:91|146:91|147:92|147:92|146:94|146:94|146:95|145:96|145:96|144:97|144:97|145:98|145:98|144:99|144:99|143:101|142:102|142:102|141:103|141:103|142:104|142:104|140:105|140:105|139:106|139:107|139:107|137:108|137:108|139:109|139:109|136:110|136:110|136:111|135:112|135:112|133:113|133:113|134:114|134:114|133:115|133:115|131:116|129:118,1,246.999988693238,6|2,3:1|0:0,0:0:0:0:
84,384,78861,5,6,3:1:0:0:
37,319,79166,6,0,L|-17:328,1,47.5,8|0,0:0|0:0,0:0:0:0:
413,38,79775,6,0,B|414:38|414:38|417:38|417:38|422:39|422:39|420:38|421:38|421:38|423:37|423:37|425:38|425:38|426:38|427:38|427:38|430:38|430:38|431:38|431:38|432:38|433:38|433:38|436:38|436:38|438:39|438:39|439:39|440:40|440:40|441:41|441:41|444:41|444:41|445:41|446:42|446:42|449:42|449:42|450:44|450:44|451:44|452:45|452:45|453:47|453:47|456:47|456:47|457:47|458:47|458:47|459:48|459:48|461:50|461:50|462:51|463:51|463:51|464:54|464:54|467:54|467:54|467:55|467:56|467:56|470:56|470:56|471:58|471:58|472:59|472:60|472:60|473:62|473:62|475:64|475:64|476:65|476:65|476:65|478:66|478:66|479:69|479:69|479:70|480:70|480:70|480:73|480:73|482:74|482:74|483:75|483:76|483:76|485:78|485:78|485:80|485:80|485:82|485:82|485:82|485:84|485:84|486:86|486:86|487:87|487:88|487:88|488:90|488:90|488:92|488:92|488:93|488:93|488:94|488:94|488:97|488:97|489:99|489:99|489:100|489:101|489:101|490:102|490:102|489:105|489:105|489:106|489:107|489:107|488:110|488:110|489:111|489:111|489:112|489:113|489:113|490:116|490:116|488:118|488:118|488:119|488:119|488:119|487:121|487:121|487:124|487:125|486:126|486:126|487:129|487:129|485:130|485:130|485:131|485:132|485:132|483:134|483:134|483:136|483:136|482:137|482:138|482:138|482:140|482:140|480:142|480:142|479:143|478:143|478:143|476:145|476:145|476:147|476:147|476:148|475:148|475:148|474:151|474:151|472:152|472:152|471:153|470:154|470:154|468:155|468:155|467:156|467:156|467:157|466:157|466:157|465:160|465:160|462:161|462:161|461:161|461:162|461:162|458:162|458:162|457:164|457:164|456:165|456:165|454:167|454:167|451:167|451:167|450:167|449:168|449:168|447:168|447:168|445:170|445:170|444:170|443:170|443:170|441:172|441:172|440:172|440:172|438:172|438:172|437:172|437:172|435:172|435:172|433:173|433:173|431:173|431:174|431:174|429:174|429:174|426:174|426:174|425:174|424:174|424:174|422:173|422:173|420:174|420:174|419:174|418:174|418:174|416:174|416:174|413:174|413:174|413:174|412:174|412:174|410:172|410:172|407:173|407:173|406:173|405:172|405:172|403:173|403:173|401:171|401:171|400:171|400:170|400:170|398:169|398:169|395:169|395:169|394:168|394:168|394:168|391:168|391:168|389:166|389:166|389:165|388:165|388:165|386:163|386:163|384:163|384:163|383:162|383:162|380:161|380:161|379:159|379:159|378:158|377:158|377:158|376:156|376:156|374:155|374:155|373:154|373:154|371:153|371:153|370:150|370:150|369:149|368:149|368:149|368:147|368:147|366:146|366:146|365:144|365:144|363:142|363:142|363:140|363:140|362:138|362:138|361:136|361:136|359:134|359:134|359:133|358:132|358:132|358:130|358:130|358:129|358:129|357:127|357:126|357:126|359:126|359:126|361:125|361:125|363:124|363:124|365:122|365:122|367:122|367:122|369:122|369:122|372:122|372:122|374:120|374:120|376:119|376:119|378:119|378:119|380:119|380:119|383:118|383:118|385:119|385:119|386:117|386:117|389:116|389:116|391:114|391:114|394:115|394:115|395:114|395:114|398:114|398:114|400:113|400:113|402:112|402:112|403:110|403:110|406:110|406:110|408:110|408:110|411:110|411:110|413:109|413:109|415:108|415:108|417:107|417:107|419:107|419:107|421:106,1,356.25,2|0,3:2|0:0,0:0:0:0:
373,120,80232,2,0,B|374:118|374:118|389:123|389:123|398:135,1,23.75,2|0,0:1|0:0,0:0:0:0:
174,50,80384,6,0,P|104:65|116:164,1,142.500005435944,8|0,0:0|0:0,0:0:0:0:
218,362,80689,6,0,B|218:360|218:359|218:359|219:357|219:357|218:354|218:354|218:352|218:351|218:351|218:348|218:348|219:346|219:346|219:344|219:343|219:343|220:342|220:342|220:339|220:339|220:337|220:336|220:336|219:334|219:334|221:331|221:331|221:329|221:328|221:328|222:326|222:326|222:324|222:324|222:322|222:321|222:321|221:319|221:319|223:316|223:316|223:314|223:313|223:313|224:311|224:311|224:308|224:308|224:306|224:306|223:304|223:304|225:302|225:302|225:299|225:299|226:296|226:296|226:294|226:294|226:291|226:291|225:288|225:288|227:287|227:287|227:284|227:284|229:281|229:281|228:279|228:279|228:276|228:276|228:273|228:273|229:271|229:271|229:268|230:268|230:268|231:267|231:267|230:264|230:264|231:262|231:261|231:261|230:258|230:258|232:256|232:256|232:254|232:253|232:253|233:251|233:251|233:249|233:249|233:247|233:246|233:246|233:244|233:244|234:241|234:241|234:239|235:238|235:238|236:236|236:236|235:233|235:233|236:231|236:231|235:229|235:229|236:227|236:227|236:224|236:224|238:221|238:221|237:219|237:219|238:216|238:216|237:213|237:213|238:212|238:212|239:209|239:209|240:207|240:207|240:204|240:204|240:202|240:201|240:201|240:198|240:198|241:196|241:196|242:194|242:194|242:194|243:192|243:192|243:189|243:189|243:187|243:186|243:186|243:184|243:184|244:181|244:181|245:179|245:179|246:176|246:176|246:175|246:175|246:172|246:172|246:169|246:169|247:167|247:167|248:164|248:164|250:162|250:162|249:159|249:159|250:157|250:157|250:157|249:154|249:154|251:152|251:152|251:150|251:149|251:149|253:147|253:147|252:144|252:144|253:142|253:141|253:141|253:139|253:139|254:138|254:138|255:135|255:135|255:132|255:132|255:130|255:130|255:127|255:127|255:124|255:124|256:122|256:122|257:120|257:120|257:120|259:118|259:118|258:115|258:115|259:113|259:112|259:112|258:110|258:110|260:107|260:107|261:105|261:104|261:104|262:102|262:102|262:101|262:101|262:98|263:98|263:98|262:95|262:95|264:93|264:93|264:90|264:90|266:88|266:88|266:85|266:85|266:83|266:82|266:82|266:81|266:81|267:78|267:78|268:76|268:75|268:75|270:73|270:73|269:71|269:71|270:68|270:68|270:65|270:65|271:64|271:64|272:61|272:61|273:59|273:59|273:56|273:56|273:54|273:53|273:53|273:51|273:51|274:48|274:48|275:46|275:45|275:45|277:44|277:44|276:42|276:42|277:39|277:39|277:36|277:36|279:34|279:34|279:32|279:31|279:31|281:29|281:29|281:27|281:27|281:25|281:24|281:24|281:22|281:22|283:20|283:20|283:17|284:17|284:17|285:15|285:15|285:12|285:12|285:10|286:8|286:8|286:8,1,380,2|0,3:2|0:0,0:0:0:0:
285,12,81146,2,0,B|284:10|284:10|269:15|269:15|260:27,1,23.75,2|0,0:1|0:0,0:0:0:0:
165,137,81298,5,8,0:3:0:0:
309,337,81450,5,2,0:1:0:0:
9,215,81602,6,0,B|10:213|10:213|13:212|13:212|14:210|14:210|16:209|17:208|17:208|18:206|18:206|21:206|21:206|23:204|24:204|24:204|26:204|26:204|28:202|28:202|29:201|30:201|30:201|32:199|32:199|35:199|35:199|37:199|37:198|37:198|40:199|40:199|42:197|42:197|45:197|45:197|48:195|48:195|49:196|49:196|52:196|52:196|55:197|55:197|57:196|57:196|60:196|60:196|63:195|63:195|65:196|65:196|68:196|68:196|69:198|69:198|72:197|72:197|75:198|75:198|78:198|78:198|80:199|80:199|82:200|83:200|83:200|85:202|85:202|87:202|87:202|89:203|89:204|89:204|92:204|92:204|93:206|93:206|96:207|96:207|97:210|97:210|100:210|100:210|102:212|102:212|105:213|105:213|106:215|106:215|108:216|108:216|108:216|109:219|109:219|111:220|111:220|113:222|113:222|115:224|115:224|116:226|116:226|117:228|118:229|118:231|118:231|120:233|120:233|122:234|122:234|124:236|124:239|124:239|125:241|125:242|125:242|125:244|125:244|127:246|127:246|127:249|127:249|128:251|128:251|128:254|128:254|129:256|129:256|128:259|128:259|129:261|129:261|130:264|130:264|131:266|131:266|130:269|130:269|130:272|130:272|129:274|129:274|129:276|129:276|129:278|129:279|129:279|130:282|130:282|128:284|128:284|128:286|128:287|128:287|127:289|127:289|127:292|127:292|126:294|126:294|126:296|126:296|124:298|124:298|123:300|123:301|123:301|121:303|121:303|121:305|121:305|118:310,1,213.750008153916,8|0,0:1|0:0,0:0:0:0:
139,372,81907,1,2,0:0:0:0:
371,0,82212,6,0,B|371:1|371:1|370:4|370:4|371:5|371:5|371:6|371:7|371:7|372:10|372:10|372:11|372:11|372:13|373:13|373:13|373:16|373:16|374:17|374:17|375:18|375:19|375:19|377:20|377:20|377:22|377:22|378:23|378:23|380:26|380:26|381:26|381:26|382:27|383:27|383:27|385:28|385:28|387:30|387:30|387:31|388:31|388:31|389:32|389:32|392:33|392:33|393:33|393:33|396:33|396:33|397:35|397:35|399:36|399:36|402:37|402:37|403:37|403:37|404:37|404:37|405:37|405:37|408:37|408:37|409:38|409:38|410:38|411:38|411:38|413:40|413:40|415:40|415:40|416:41|417:41|417:41|419:41|419:41|420:42|420:42|421:43|422:43|422:43|423:46|423:46|425:46|425:46|426:47|427:47|427:47|429:48|429:48|430:50|430:50|431:50|431:51|431:51|432:53|432:53|435:53|435:53|435:54|435:55|435:55|438:56|438:56|438:59|438:59|439:59|440:60|440:60|440:62|440:62|441:64|441:64|442:64|443:64|443:64|445:66|445:66|445:69|445:69|445:69|446:70|446:70|446:73|446:73|447:75|447:75|447:75|447:76|447:76|449:78|449:78|449:80|449:80|449:81|449:82|449:82|449:84|449:84|450:85|450:85|450:87|450:88|450:88|451:90|451:90|451:92|451:92|451:93|451:94|451:94|450:96|450:96|451:98|451:98|450:99|450:100|450:100|451:102|451:102|450:104|450:104|450:105|449:106|449:106|448:107|448:107|448:110|448:110|448:111|448:112|448:112|448:113|448:113|446:115|446:115|446:117|446:117|446:117|444:118|444:118|444:121|444:121|444:122|443:123|443:123|443:124|443:124|441:126|441:126|440:127|440:128|440:128|438:128|438:128|438:131|438:131|437:132|436:132|436:132|435:134|435:134|434:135|434:135|433:136|433:137|433:137|430:138|430:138|430:139|430:139|429:140|428:141|428:141|427:143|427:143|424:144|424:144|424:144|424:144|424:144|421:144|421:144|419:146|419:146|419:147|418:147|418:147|417:149|417:149|414:149|414:149|413:150|413:150|413:150|410:150|410:150|408:151|408:151|408:151|407:151|407:151|405:153|405:153|403:153|403:153|402:153|401:153|401:153|399:152|399:152|397:154|397:154|396:154|395:154|395:154|393:155|393:155|391:154|391:154|390:154|389:154|389:154|387:153|387:153|385:153|385:153|384:153|383:153|383:153|381:154|381:154|379:152|379:152|378:152|377:152|377:152|376:150|376:150|373:150|373:150|372:150|371:150|371:150|369:150|369:150|367:148|367:148|366:148|365:147|365:147|365:145|365:145|362:145|362:145|361:144|360:144|360:144|359:144|359:144|357:142|357:142|356:141|356:141|354:139|354:139|353:138|353:138|352:137|351:137|351:137|349:136|349:136|349:134|349:134|348:133|347:133|347:133|347:130|347:130|344:129|344:129|344:128|344:128|344:128|342:126|342:126|341:124|341:124|341:123|340:123|340:123|340:120|340:120|338:118|338:118|338:118|338:117|338:117|336:115|336:115|336:113|336:113|336:112|336:112|336:112|336:109|336:109|334:107|334:107|334:107|334:106|334:106|333:103|333:103|333:102|333:102|333:101|333:100|333:100|333:97|333:97|333:96|333:96|333:94|333:94|332:91|332:91|333:90|333:90|333:88|333:88|333:88|334:85|334:85|333:84|333:84|333:83|334:81|334:81|333:80|333:80|335:78|335:78|335:77|336:76|336:76|338:75|338:75|338:72|338:72|338:70|340:68,1,356.25,2|0,3:2|0:0,0:0:0:0:
333,89,82668,6,0,B|334:87|334:87|345:95|345:95|320:101,1,23.75,2|0,0:1|0:0,0:0:0:0:
512,230,82821,6,0,P|444:240|365:257,1,142.500005435944,8|0,0:0|0:0,0:0:0:0:
224,376,83125,6,0,B|221:376|221:376|219:376|219:376|217:375|217:375|216:374|215:375|215:375|212:373|212:373|210:374|210:374|209:374|208:373|208:373|206:374|206:374|203:372|203:372|201:373|201:373|199:371|199:371|196:372|196:372|195:371|195:371|192:371|192:371|190:369|190:369|189:370|187:369|187:369|186:367|186:367|184:368|184:368|182:367|181:367|181:367|179:367|179:367|177:365|177:365|176:364|175:364|175:364|174:362|174:362|171:362|171:362|170:362|169:362|169:362|166:361|166:361|165:359|165:359|164:359|163:358|163:358|162:356|162:356|159:356|159:356|158:355|158:354|158:354|155:354|155:354|154:351|154:351|153:351|152:351|152:351|151:348|151:348|149:347|149:347|148:347|148:346|148:346|145:345|145:345|144:342|144:342|143:342|142:341|142:341|141:338|141:338|140:338|140:338|139:336|138:336|138:336|136:334|136:334|136:332|136:332|135:331|135:329|135:329|135:327|135:327|132:325|132:325|132:324|132:324|130:321|130:321|130:319|130:319|129:318|130:317|130:317|129:315|129:315|128:313|128:313|127:312|128:311|128:311|126:308|126:308|127:307|127:307|126:305|126:305|126:305|127:302|127:302|125:300|125:300|126:299|125:298|125:298|124:295|124:295|125:293|125:293|125:292|126:291|126:291|127:288|127:288|126:286|126:286|126:285|126:284|126:284|125:282|125:282|126:279|126:279|127:278|127:277|127:277|128:276|128:276|128:273|128:273|128:273|128:271|128:271|128:268|128:268|130:266|130:266|130:265|130:264|130:264|132:263|132:263|132:260|132:260|133:259|133:258|133:258|133:256|133:256|135:254|135:254|135:253|135:252|135:252|137:251|137:251|138:248|138:248|138:247|139:246|139:246|139:244|139:244|141:242|141:242|142:241|142:240|142:240|145:239|145:239|145:238|145:238|146:237|147:236|147:236|147:233|147:233|150:232|150:232|151:232|151:231|151:231|154:230|154:230|154:228|154:228|156:227|156:227|156:227|158:224|158:224|160:223|160:223|162:223|162:223|164:222|164:222|166:220|166:220|167:220|168:219|168:219|170:218|170:218|172:218|172:218|173:217|174:217|174:217|176:217|176:217|178:215|178:215|179:215|180:215|180:215|183:214|183:214|185:215|185:215|186:214|186:214|189:215|189:215|191:214|191:214|192:215|194:214|194:214|196:214|196:214|198:216|198:216|199:215|200:216|200:216|202:218|202:218|205:218|205:218|205:218|206:218|206:218|209:219|209:219|210:221|210:221|211:221|212:222|212:222|213:224|213:224|216:225|216:225|216:226|217:227|217:227|219:227|219:227|220:231|220:231|220:231|221:232|221:232|221:234|221:234|223:236|223:236|224:237|224:238|224:238|226:240|226:240|226:243|226:243|227:244|227:244|226:247|226:247|228:248|228:248|228:250|228:251|228:251|229:253|229:253|228:256|228:256|228:257|228:258|228:258|227:260|227:260|228:262|228:262|228:264|228:264|228:267|228:267|227:268|227:268|226:270|226:270|224:273|224:273|224:275|224:275|224:276|224:276|223:279|223:279|221:280|221:280|219:282|219:282|217:284|217:284|217:286|217:286|216:286|215:287|215:287|214:290|214:290|212:291|212:291|210:291|209:293,1,380,2|0,3:2|0:0,0:0:0:0:
220,280,83582,2,0,B|221:278|221:278|236:283|236:283|245:295,1,23.75,2|0,0:1|0:0,0:0:0:0:
301,335,83734,5,8,3:0:0:0:
156,136,83887,5,2,0:1:0:0:
447,20,84039,6,0,B|445:17|445:17|442:16|442:16|441:14|441:14|439:13|438:12|438:12|437:10|437:10|434:10|434:10|432:8|431:8|431:8|429:8|429:8|426:6|426:6|425:5|424:5|424:5|422:3|422:3|419:3|419:3|417:3|417:2|417:2|414:3|414:3|412:0|412:0|408:0|408:0|405:-1|405:-1|404:0|404:0|401:0|401:0|398:0|398:0|396:0|396:0|393:0|393:0|389:-1|389:-1|387:0|387:0|384:0|384:0|383:2|383:2|380:0|380:0|377:2|377:2|374:2|374:2|372:3|372:3|369:4|368:4|368:4|366:6|366:6|364:6|364:6|362:7|362:8|362:8|359:8|359:8|358:10|358:10|355:11|355:11|354:14|354:14|350:14|350:14|348:16|348:16|345:17|345:17|344:20|344:20|342:21|342:21|342:21|341:24|341:24|339:25|339:25|337:27|337:27|335:29|335:29|334:31|334:31|332:33|331:34|331:34|331:36|331:36|329:39|329:39|327:40|327:40|325:42|325:42|325:45|325:45|324:47|324:48|324:48|324:50|324:50|322:52|322:52|322:55|322:55|321:58|321:58|321:61|321:61|320:63|320:63|321:66|321:66|320:68|320:68|319:71|319:71|318:73|318:73|319:77|319:77|319:80|319:80|320:82|320:82|320:84|320:84|320:86|320:87|320:87|319:90|319:90|321:92|321:92|321:94|321:96|321:96|322:98|322:98|322:101|322:101|323:103|323:103|323:105|323:105|325:107|325:107|326:109|326:110|326:110|328:112|328:112|328:115|328:115|331:120,1,213.750008153916,8|0,0:1|0:0,0:0:0:0:
382,144,84344,2,0,L|418:153,2,23.75,8|0|8,1:3|0:0|1:3,0:0:0:0:
0,196,84648,6,0,B|1:196|2:196|2:196|4:196|4:196|7:196|7:196|9:196|10:196|10:196|13:196|13:196|14:196|14:196|16:196|17:196|17:196|18:197|18:197|21:197|21:197|23:197|24:197|24:197|26:196|26:196|28:198|28:198|30:198|31:198|31:198|33:199|33:199|35:199|35:199|37:199|38:199|38:199|40:198|40:198|43:200|43:200|44:200|45:200|45:200|47:201|47:201|50:201|50:201|52:201|52:201|54:200|54:200|56:202|56:202|58:202|58:202|61:203|61:203|63:203|63:203|66:203|66:203|69:202|69:202|70:204|70:204|72:204|72:204|75:206|75:206|77:205|77:205|80:205|80:205|83:205|83:205|85:206|85:206|87:206|87:207|87:207|88:208|88:208|91:207|91:207|93:208|94:208|94:208|97:207|97:207|99:209|99:209|100:209|101:209|101:209|103:210|103:210|105:210|105:210|107:210|108:210|108:210|110:210|110:210|113:210|113:210|115:210|115:211|115:211|117:212|117:212|120:211|120:211|122:212|122:212|124:211|124:211|126:212|126:212|129:212|129:212|131:214|131:214|133:213|133:213|136:214|136:214|139:213|139:213|140:214|140:214|143:215|143:215|144:216|144:216|147:216|147:216|149:216|150:216|150:216|153:216|153:216|155:217|155:217|157:218|157:218|157:218|158:219|158:219|161:219|161:219|163:219|164:219|164:219|166:219|166:219|169:220|169:220|171:221|171:221|173:222|173:222|174:222|174:222|177:222|177:222|180:222|180:222|182:223|182:223|185:224|185:224|186:225|186:225|189:224|189:224|191:225|191:225|191:225|194:224|194:224|196:226|196:226|198:226|199:226|199:226|201:228|201:228|203:227|203:227|205:228|206:228|206:228|208:228|208:228|209:229|209:229|212:230|212:230|215:230|215:230|216:230|216:230|219:230|219:230|222:230|222:230|224:231|224:231|226:232|226:232|226:232|228:234|228:234|230:233|230:233|232:234|233:234|233:234|235:233|235:233|238:235|238:235|240:236|241:236|241:236|243:237|243:237|244:237|244:237|246:237|246:238|246:238|249:237|249:237|251:239|251:239|254:239|254:239|256:240|256:240|258:240|258:240|260:240|261:240|261:240|262:240|262:240|265:241|265:241|267:242|268:242|268:242|270:244|270:244|272:243|272:243|274:244|274:244|277:244|277:244|278:245|278:245|281:246|281:246|283:247|283:247|286:247|286:247|287:247|288:247|288:247|290:247|290:247|293:248|293:248|295:249|296:249|296:249|297:251|297:251|299:250|299:250|302:251|302:251|304:251|304:251|306:253|306:253|308:253|309:253|309:253|311:254|311:254|313:254|313:254|315:254|316:254|316:254|317:254|317:254|319:256|319:256|322:256|322:257|322:257|324:258|324:258|327:258|327:258|329:258|330:259|330:259|330:259,1,356.25,2|0,3:2|0:0,0:0:0:0:
327,258,85105,2,0,B|323:258|323:258|301:266|301:266|290:268,1,23.75,2|0,0:1|0:0,0:0:0:0:
422,370,85257,6,0,P|441:305|507:293,1,142.500005435944,8|0,0:0|0:0,0:0:0:0:
365,27,85562,6,0,B|363:27|362:27|362:27|359:26|359:26|357:27|357:27|355:27|355:27|352:28|352:28|350:27|350:27|348:27|347:27|347:27|345:28|345:28|342:29|342:29|341:29|340:30|340:30|338:31|338:31|335:31|335:31|334:31|333:31|333:31|331:31|331:31|329:33|329:33|328:33|327:35|327:35|325:37|325:37|322:37|322:37|321:37|321:38|321:38|319:39|319:39|317:41|317:41|316:41|315:42|315:42|314:44|314:44|312:45|312:45|311:47|310:48|310:48|308:49|308:49|307:51|307:51|306:52|305:53|305:53|304:55|304:55|302:57|302:57|301:57|301:58|301:58|299:60|299:60|298:62|298:62|297:63|298:64|298:64|297:68|297:68|295:69|295:69|295:70|294:71|294:71|292:73|292:73|292:76|292:76|291:76|291:77|291:77|291:80|291:80|289:82|289:82|288:83|288:84|288:84|287:86|287:86|287:88|287:88|286:89|286:90|286:90|286:94|286:94|284:96|284:96|283:97|283:98|283:98|281:100|281:100|281:102|281:102|280:103|280:104|280:104|280:107|280:107|279:109|279:109|278:109|278:110|278:110|276:112|276:112|276:115|276:115|275:116|275:117|275:117|275:119|275:119|273:122|273:122|272:123|272:124|272:124|269:126|269:126|269:128|269:128|268:129|269:130|269:130|268:133|268:133|266:134|266:134|265:135|265:136|265:136|262:137|262:137|261:139|261:139|261:140|260:142|260:142|258:144|258:144|256:144|256:144|255:145|254:145|254:145|251:145|251:145|249:146|249:146|248:146|247:146|247:146|244:145|244:145|242:144|242:144|241:144|241:143|241:143|240:141|240:141|237:140|237:140|237:139|235:138|235:138|233:136|233:136|233:133|233:133|232:132|232:132|232:129|232:129|230:127|230:127|230:126|229:125|229:125|228:123|228:123|227:120|227:120|227:119|226:118|226:118|227:116|227:116|225:113|225:113|225:112|225:111|225:111|223:109|223:109|224:107|224:107|223:105|223:104|223:104|223:102|223:102|221:100|221:100|221:99|221:98|221:98|220:95|220:95|220:93|220:93|220:91|220:91|220:88|220:88|219:86|219:86|218:84|217:84|217:84|216:81|216:81|216:79|216:79|216:77|216:77|216:74|216:74|215:72|215:72|215:70|215:70|212:67|212:67|212:65|212:65|212:64|212:63|212:63|212:60|212:60|210:58|210:58|210:57|210:56|210:56|208:54|208:54|208:51|208:51|207:50|206:49|206:49|206:47|206:47|204:45|204:45|203:44|203:43|203:43|201:42|201:42|200:39|200:39|199:38|199:37|199:37|198:35|198:35|195:33|195:33|194:33|193:32|193:32|191:32|191:32|190:30|190:30|189:29|188:28|188:28|187:26|187:26|184:25|184:25|183:25|182:24|182:24|180:24|180:24|178:22|178:22|177:21|176:21|176:21|173:19|173:19|170:19|170:19|169:19|168:19|168:19|166:20|166:20|164:18|164:18|162:18|162:18|159:16|159:16|157:16|157:16|155:16|154:16|154:16|152:17|150:15,1,380,2|0,3:2|0:0,0:0:0:0:
151,16,86019,2,0,B|143:19|137:23|137:23|146:23|152:24,1,23.75,2|0,0:1|0:0,0:0:0:0:
76,74,86171,5,8,0:3:0:0:
150,174,86323,5,2,0:1:0:0:
43,354,86476,6,0,B|46:354|46:354|51:353|51:353|49:354|50:354|50:354|52:354|52:354|54:354|54:354|55:354|56:354|56:354|59:354|59:354|60:354|60:354|61:354|62:354|62:354|65:354|65:354|67:353|67:353|68:353|69:352|69:352|70:351|70:351|73:351|73:351|74:351|75:350|75:350|78:350|78:350|79:348|79:348|80:348|81:347|81:347|82:345|82:345|84:345|84:345|85:345|86:345|86:345|87:344|87:344|89:342|89:342|90:341|91:341|91:341|92:338|92:338|95:338|95:338|95:337|95:336|95:336|98:336|98:336|99:334|99:334|100:333|100:332|100:332|101:330|101:330|103:328|103:328|104:327|104:327|104:327|106:326|106:326|107:323|107:323|107:322|108:322|108:322|108:319|108:319|110:318|110:318|111:317|111:316|111:316|113:314|113:314|113:313|113:313|113:311|113:311|113:311|113:309|113:309|114:307|114:307|115:306|115:305|115:305|116:303|116:303|116:301|116:301|116:300|116:300|116:299|116:299|116:296|116:296|117:294|117:294|117:293|117:292|117:292|118:291|118:291|117:288|117:288|117:287|117:286|117:286|116:283|116:283|117:282|117:282|117:281|117:280|117:280|118:277|118:277|116:276|116:276|116:275|116:275|116:275|115:273|115:273|115:270|115:270|115:269|114:268|114:268|115:265|115:265|113:264|113:264|113:263|113:262|113:262|111:260|111:260|111:258|111:258|110:257|110:256|110:256|110:254|110:254|108:252|108:252|107:251|106:251|106:251|104:249|104:249|104:247|104:247|104:246|103:246|103:246|102:243|102:243|100:242|100:242|99:241|98:240|98:240|96:239|96:239|95:238|95:238|95:237|94:237|94:237|93:235|93:235|90:234|90:234|89:234|89:233|89:233|86:233|86:233|85:231|85:231|84:230|84:230|82:228|82:228|80:228|80:228|79:228|78:227|78:227|76:227|76:227|74:225|74:225|73:225|72:225|72:225|70:223|70:223|69:223|69:223|67:223|67:223|66:223|66:223|64:223|64:223|62:222|62:222|60:222|60:221|60:221|58:221|58:221|55:221|55:221|54:221|53:221|53:221|51:222|51:222|49:221|49:221|48:221|47:221|47:221|45:221|45:221|43:221|43:221|43:221|42:221|42:221|40:223|40:223|37:222|37:222|36:222|35:223|35:223|33:222|33:222|31:224|31:224|30:224|30:225|30:225|28:226|28:226|25:226|25:226|24:227|24:227|24:227|21:227|21:227|19:229|19:229|19:230|18:230|18:230|16:232|16:232|14:232|14:232|13:233|13:233|10:234|10:234|9:236|9:236|8:237|7:237|7:237|6:238|6:238|4:239|4:239|3:240|3:240|2:241|2:241|1:244|1:244|0:245|0:245|0:245|0:247|0:247|-2:248|-2:248|-3:250|-3:250|-5:252|-5:252|-5:254|-5:254|-6:256|-6:256|-7:258|-7:258|-9:260|-9:260|-9:261|-10:262|-10:262|-10:264|-10:264|-10:265|-10:265|-11:267|-11:268|-11:268|-9:268|-9:268|-7:269|-7:269|-5:270|-5:270|-3:272|-3:272|-1:272|-1:272|0:272|0:272|3:272|3:272|4:274|4:274|6:275|6:275|8:275|8:275|10:275|10:275|13:276|13:276|15:275|15:275|16:276|16:276|19:277|19:277|21:279|21:279|24:278|24:278|25:279|25:279|28:279|28:279|30:280|30:280|32:281|32:281|33:283|33:283|36:283|36:283|38:283|38:283|41:283|41:283|43:284|43:284|44:285|44:285|46:286|46:286|48:286|48:286|50:287,1,341.999989562989,8|2,0:1|0:0,0:0:0:0:
306,48,87085,6,0,B|308:49|308:49|308:49|310:50|310:50|312:49|312:49|314:52|314:52|315:52|316:53|316:53|317:55|317:55|320:56|320:56|321:57|321:57|323:59|323:59|324:61|324:61|325:62|325:63|325:63|326:65|326:65|328:66|328:66|328:68|328:68|330:71|330:71|331:73|331:73|331:75|331:75|331:77|331:77|332:79|332:79|332:81|332:81|334:84|334:84|333:86|333:86|332:88|332:88|331:91|331:91|332:94|332:94|332:96|331:98|331:98|331:101|331:101|330:103|330:103|330:105|330:105|328:107|328:107|328:110|328:110|327:112|327:112|329:115|329:115|327:117|327:117|326:119|326:119|324:121|324:121|326:124|326:124|325:127|325:127|325:129|325:129|323:131|323:131|324:134|324:134|322:136|322:136|322:137|322:137|321:140|321:140|321:142|321:142|321:145|321:145|320:147|320:147|318:149|318:149|318:152|318:152|319:154|319:154|319:157|319:157|317:159|317:159|316:161|316:161|316:163|316:163|316:166|316:166|315:168|315:168|315:171|315:171|315:173|315:173|314:175|314:175|313:177|313:177|313:179|313:179|313:180|313:181|313:181|315:184|315:184|314:186|314:186|314:187|314:188|314:188|314:191|314:191|315:193|315:193|316:193|316:194|316:194|319:196|319:196|319:199|319:199|320:200|320:201|320:201|321:203|321:203|323:204|323:204|324:205|324:205|327:206|327:206|328:209|328:209|329:210|329:210|331:211|331:211|334:212|334:212|335:213|336:213|336:213|338:213|338:213|340:214|340:214|341:214|341:214|342:214|342:214|345:216|345:216|347:215|347:215|348:215|349:215|349:215|352:213|352:213|354:214|354:214|355:214|355:214|355:214|358:214|358:214|360:213|360:213|361:213|362:211|362:211|364:209|364:209|367:209|367:209|367:209|368:208|368:208|371:208|371:208|372:205|372:205|373:205|374:204|374:204|374:202|374:202|376:201|376:201|377:199|378:199|378:199|380:197|380:197|381:195|381:195|381:191|382:189|382:189|382:186|382:186|383:184|383:184|383:182|383:182|385:180|385:180|385:177|385:177|386:175|386:175|385:172|385:172|386:170|386:170|387:168|387:168|389:166|389:166|388:163|388:163|388:161|388:161|388:158|388:158|390:156|390:156|390:154|390:154|391:152|391:152|391:150|391:150|392:147|392:147|392:145|392:145|393:143|393:143|393:140|393:140|395:138|395:138|395:136|395:136|395:133|395:133|395:131|395:131|396:129|396:129|397:126|397:126|398:124|398:124|398:121|398:121|398:119|398:119|398:117|398:117|399:114|399:114|400:112|400:112|402:109|402:109|402:108|402:108|402:107|401:106|401:106|402:103|402:103|404:101|404:101|404:100|405:99|405:99|406:97|406:97|406:95|406:95|407:93|407:93|408:90|408:90|410:89|410:89|410:88|411:87|411:87|413:85|413:85|414:84|414:84|415:82|416:81|416:81|417:79|417:79|419:78|419:78|420:78|421:77|421:77|424:77|424:77|426:75|426:75|426:74|427:74|427:74|429:72|429:72|431:72|431:72|433:71|434:71|434:71|436:72|436:72|438:70|438:70|439:70|440:70|440:70|442:69|442:69|444:69|444:69|445:69,1,413.25001261139,2|0,3:2|0:0,0:0:0:0:
438,71,87542,2,0,B|439:69|439:69|454:74|454:74|463:86,1,23.75,2|0,0:1|0:0,0:0:0:0:
444,286,87694,6,0,P|369:297|281:329,1,142.500005435944,8|0,0:0|0:0,0:0:0:0:
115,22,87998,6,0,B|115:23|116:24|116:24|116:26|116:26|118:29|118:29|119:31|119:31|119:31|120:34|120:34|120:36|120:36|121:38|122:39|122:39|121:40|121:40|122:43|122:43|123:45|124:46|124:46|125:47|125:47|125:51|125:51|126:53|126:54|126:54|126:56|126:56|127:58|127:58|128:59|128:60|128:60|130:62|130:62|129:65|129:65|130:67|131:68|131:68|131:70|131:70|132:73|132:73|133:75|133:75|134:76|134:76|134:79|134:79|135:82|135:82|135:85|135:85|136:87|136:87|137:89|137:89|139:92|139:92|138:93|138:93|139:96|139:96|139:100|139:100|141:101|141:101|142:104|142:104|143:106|143:106|143:109|143:109|144:111|143:112|143:112|143:113|143:113|145:115|145:115|145:118|145:119|145:119|148:121|148:121|147:123|147:123|147:125|148:126|148:126|148:128|148:128|149:130|149:130|150:132|150:133|150:133|151:135|151:135|151:138|151:138|152:140|151:141|151:141|151:143|151:143|154:146|154:146|154:148|154:148|155:149|155:149|155:151|155:151|157:154|157:154|156:158|156:158|158:159|158:159|158:162|158:162|160:165|160:165|160:166|160:166|160:169|160:169|160:171|160:171|161:174|161:174|162:176|163:177|163:177|164:179|164:179|164:182|164:182|164:184|164:184|164:184|164:186|164:186|165:189|165:189|166:191|166:192|166:192|167:193|167:193|167:197|167:197|167:199|167:199|168:202|168:202|168:203|168:203|169:206|169:206|171:208|171:208|171:210|171:210|171:214|171:214|170:216|170:216|172:219|172:219|172:221|172:221|172:221|174:223|174:223|173:226|173:226|174:228|175:228|175:228|174:231|174:231|176:233|176:233|176:236|176:237|176:237|177:238|177:238|177:240|177:240|177:243|177:243|178:246|178:246|179:247|179:247|180:250|180:250|182:253|182:253|181:255|181:255|181:257|181:257|181:257|180:260|180:260|183:262|183:262|183:264|183:265|183:265|185:267|185:267|184:270|184:270|184:273|185:274|185:274|185:276|185:276|185:277|185:277|186:279|185:280|185:280|187:282|187:282|186:285|186:285|188:287|188:287|187:290|187:290|188:293|188:293|189:295|189:296|189:296|190:296|190:296|190:300|190:300|190:302|190:303|190:303|190:305|190:305|191:307|191:307|192:310|192:310|193:313|193:313|192:314|192:314|193:317|193:317|193:319|193:319|194:322|194:322|195:324|195:325|195:325|196:327|196:327|196:330|196:330|196:332|197:333|197:333|195:335|195:335|197:336|197:336|198:339|198:339|199:342|199:342|198:345|198:345|199:346|199:347|199:347|198:350|198:350|199:352|199:352|200:354|200:354|200:354|201:356|201:356|200:359|200:359|201:362|200:362|200:362|200:364|200:364|202:367|202:367|203:369|202:371|202:371|202:371,1,380,2|0,3:2|0:0,0:0:0:0:
201,366,88455,2,0,B|200:364|200:364|185:369|185:369|176:381,1,23.75,2|0,0:1|0:0,0:0:0:0:
247,277,88608,5,8,3:0:0:0:
66,125,88760,5,2,0:1:0:0:
270,23,88912,6,0,B|272:20|272:20|275:19|275:19|276:17|276:17|278:16|279:15|279:15|280:13|280:13|283:13|283:13|285:11|286:11|286:11|288:11|288:11|291:9|291:9|292:8|293:8|293:8|295:6|295:6|298:6|298:6|300:6|300:5|300:5|303:6|303:6|305:3|305:3|309:3|309:3|312:2|312:2|313:3|313:3|316:3|316:3|319:3|319:3|321:3|321:3|324:3|324:3|328:2|328:2|330:3|330:3|333:3|333:3|334:5|334:5|337:3|337:3|340:5|340:5|343:5|343:5|345:6|345:6|348:7|349:7|349:7|351:9|351:9|353:9|353:9|355:10|355:11|355:11|358:11|358:11|359:13|359:13|362:14|362:14|363:17|363:17|367:17|367:17|369:19|369:19|372:20|372:20|373:23|373:23|375:24|375:24|375:24|376:27|376:27|378:28|378:28|380:30|380:30|382:32|382:32|383:34|383:34|385:36|386:37|386:37|386:39|386:39|388:42|388:42|390:43|390:43|392:45|392:45|392:48|392:48|393:50|393:51|393:51|393:53|393:53|395:55|395:55|395:58|395:58|396:61|396:61|396:64|396:64|397:66|397:66|396:69|396:69|397:71|397:71|398:74|398:74|399:76|399:76|398:80|398:80|398:83|398:83|397:85|397:85|397:87|397:87|397:89|397:90|397:90|398:93|398:93|396:95|396:95|396:97|396:99|396:99|395:101|395:101|395:104|395:104|394:106|394:106|394:108|394:108|392:110|392:110|391:112|391:113|391:113|389:115|389:115|389:118|389:118|386:123,1,213.750008153916,8|0,0:1|0:0,0:0:0:0:
335,147,89217,2,0,L|298:154,2,23.75,8|0|8,1:3|0:0|1:3,0:0:0:0:
512,356,89521,6,0,B|510:356|509:357|509:357|507:358|507:358|504:358|504:358|503:358|501:358|501:358|499:358|499:358|496:359|496:359|495:359|494:359|494:359|491:360|491:360|488:360|488:360|487:360|486:360|486:360|484:358|484:358|480:359|480:359|479:359|478:359|478:359|475:359|475:359|473:358|473:358|471:358|470:357|470:357|468:354|468:354|466:356|466:356|464:354|464:354|460:353|460:353|458:351|458:351|457:351|456:350|456:350|455:348|455:348|451:347|451:347|450:347|450:345|450:345|447:344|447:344|446:342|446:342|445:341|444:340|444:340|443:338|443:338|440:337|440:337|439:335|439:334|439:334|436:333|436:333|435:330|435:330|434:329|434:329|433:325|433:325|430:324|430:324|429:323|428:322|428:322|426:321|426:321|425:318|425:318|425:317|424:317|424:317|423:313|423:313|420:312|420:312|419:311|419:310|419:310|416:309|416:309|415:305|415:305|415:304|414:304|414:304|413:301|413:301|410:300|410:300|409:299|408:298|408:298|406:297|406:297|405:294|405:294|404:293|402:292|402:292|397:289|397:289|399:289|399:289|398:288|397:288|397:288|394:287|394:287|392:284|392:284|391:283|390:283|390:283|389:280|389:280|386:280|386:280|385:279|384:279|384:279|380:279|380:279|379:277|379:277|377:277|377:275|377:275|375:274|375:274|371:274|371:274|369:274|369:273|369:273|366:274|366:274|364:273|364:273|362:272|361:272|361:272|358:271|358:271|356:272|356:272|354:272|354:272|350:273|350:273|348:272|348:272|346:272,1,213.750008153916,0|0,3:0|0:0,0:0:0:0:
292,314,89826,2,0,P|298:349|301:384,1,71.2500027179719,2|0,0:0|0:0,0:0:0:0:
448,208,90130,5,10,0:0:0:0:
123,249,90283,1,0,0:0:0:0:
224,210,90435,6,0,B|224:207|223:204|223:204|224:203|224:203|223:202|223:202|223:200|223:197|223:197|222:196|222:196|222:195|222:195|222:192|222:190|222:190|223:189|223:189|222:188|222:188|222:185|222:183|222:183|221:182|221:182|222:181|222:181|222:178|222:175|222:175|223:174|223:174|222:174|222:174|222:171|222:168|222:168|221:167|221:167|222:166|222:166|222:164|222:161|222:161|223:160|223:160|222:159|222:159|222:156|222:154|222:154|221:153|221:153|222:152|222:152|223:149|223:147|223:147|224:146|224:146|223:145|223:145|223:142|224:139|224:139|223:138|223:138|224:138|224:138|224:135|224:132|224:132|225:132|225:132|224:131|224:131|224:129|225:126|225:126|224:124|224:124|225:124|225:124|226:121|226:119|226:119|227:118|227:118|227:117|227:117|227:114|228:111|228:111|227:111|227:111|228:110|228:110|229:107|229:104|229:104|231:103|231:103|230:102|230:102|231:100|231:97|231:97|231:96|231:96|232:95|232:95|233:93|233:91|233:91|234:90|234:90|233:89|233:89|234:86|235:83|235:83|234:83|234:83|235:82|235:82|236:79|237:76|237:76|239:76|239:76|238:75|238:75|239:73|240:70|240:70|239:69|239:69|241:68|241:68|242:65|242:63|242:63|243:63|243:63|242:62|242:62|244:59|245:56|245:56|244:56|244:56|245:55|245:55|247:53|248:50|248:50|249:49|249:49|249:48|249:48|250:46|251:44|251:44|251:42|251:42|251:42|251:42|253:38|254:37|254:37|255:37|255:37|255:36|255:36|256:33|257:30|257:30|257:29|257:29|258:29|258:29|260:27|260:24|260:24|262:24|262:24|261:23|261:23|263:20|264:18|264:18|264:17|264:17|265:17|265:17|267:14|268:12|268:12|269:11|269:11|269:11|269:11|270:8|272:6|272:6|271:5|271:5|273:4|273:4|275:2|276:0|276:0|278:0|278:0|277:0|277:0|278:-3|280:-5|280:-5|280:-6|280:-6|281:-6|281:-6|282:-7|283:-9,1,249.375002378225,2|0,3:2|0:0,0:0:0:0:
387,35,90740,6,0,P|346:41|326:81,1,71.2500027179719,2|0,0:0|0:0,0:0:0:0:
303,232,91044,5,2,0:0:0:0:
110,104,91196,6,0,B|108:95|108:95|108:90|108:90|104:84|104:84|102:79,1,19
0,202,91349,6,0,B|5:200|5:200|7:202|7:202|7:199|7:199|13:198|13:198|13:197|13:197|15:198|15:198|20:197|20:197|21:197|21:197|22:196|22:196|27:195|27:195|28:194|28:194|29:195|29:195|35:193|35:193|36:194|36:194|36:193|36:193|42:192|42:192|43:191|43:191|44:191|44:191|49:190|49:190|50:191|50:191|51:190|51:190|56:189|56:189|57:188|57:188|58:188|58:188|64:187|64:187|65:188|65:188|66:187|66:187|71:186|71:186|72:184|72:184|73:185|73:185|78:184|78:184|79:185|79:185|80:183|80:183|87:182|87:182|87:181|87:181|88:180|88:180|90:175|90:175|92:175|92:175|91:174|91:174|94:169|94:169|93:167|93:167|95:167|95:167|97:162|97:162|99:162|99:162|98:160|98:160|101:155|101:155|100:154|100:154|102:154|102:154|104:149|104:149|105:148|105:148|105:147|105:147|107:142|107:142|107:141|107:141|108:140|108:140|109:139|109:139|114:138|114:138|115:139|115:139|116:138|116:138|121:137|121:137|122:135|122:135|123:136|123:136|129:135|129:135|130:136|130:136|130:135|130:135|136:134|136:134|137:132|137:132|138:133|138:133|143:132|143:132|144:133|144:133|145:132|145:132|150:131|150:131|151:129|151:129|152:130|152:130|158:129|158:129|159:130|159:130|160:129|160:129|165:128|165:128|166:126|166:126|167:127|167:127|172:126|172:126|174:127|174:127|174:126|174:126|180:124|180:124|181:123|181:123|182:124|182:124|185:123,1,249.375002378225,8|0,0:1|0:0,0:0:0:0:
234,65,91653,1,2,0:0:0:0:
492,374,91958,6,0,B|491:373|491:373|490:373|490:373|488:372|488:372|487:373|487:373|485:372|485:372|485:372|484:371|484:371|482:370|482:370|481:370|481:369|481:369|479:368|479:368|477:368|477:368|477:368|476:368|476:368|475:368|475:368|474:366|474:366|473:366|473:364|473:364|472:363|472:363|470:363|470:363|469:362|469:362|469:362|468:361|468:361|467:359|467:359|466:359|466:358|466:358|465:357|465:357|464:356|464:356|464:355|463:354|463:354|462:353|462:353|462:352|462:352|461:351|461:350|461:350|460:349|460:349|459:347|459:347|459:347|459:346|459:346|458:345|458:345|457:343|457:343|457:342|458:342|458:342|457:339|457:339|456:338|456:338|456:338|456:337|456:337|455:335|455:335|455:333|455:333|454:333|455:333|455:333|455:331|455:331|454:329|454:329|453:328|454:328|454:328|453:326|453:326|453:325|453:325|453:324|453:323|453:323|453:321|453:321|452:319|452:319|452:318|452:318|452:318|451:316|451:316|451:315|451:315|451:314|451:314|451:314|451:312|451:312|451:310|451:310|450:310|450:309|450:309|449:308|449:308|450:306|450:306|449:305|449:304|449:304|449:303|449:303|449:301|449:301|448:300|448:299|448:299|446:298|446:298|447:297|447:297|446:296|447:295|447:295|447:293|447:293|446:292|446:292|445:291|445:291|445:291|443:290|443:290|443:288|443:288|443:288|443:286|443:286|442:285|442:285|440:284|440:284|440:284|439:284|439:284|437:283|437:283|436:282|436:282|435:282|435:282|435:282|433:282|433:282|431:283|431:283|431:283|430:283|430:283|429:284|429:284|427:285|427:285|427:285|426:286|426:286|424:287|424:287|424:289|424:289|423:289|423:289|423:291|423:291|421:292|421:292|421:293|420:293|420:293|419:295|419:295|418:296|418:296|418:297|417:298|417:298|418:299|418:299|416:301|416:301|416:301|416:302|416:302|414:303|414:303|415:304|415:304|414:306|414:306|414:306|413:308|413:308|412:309|412:309|412:309|412:310|412:310|411:312|411:312|410:313|410:313|410:314|410:314|410:316|410:316|409:318|409:318|408:319|407:319|407:319|406:320|406:320|406:322|406:322|406:323|406:323|405:325|405:325|404:326|404:326|404:327|404:327|402:329|402:329|402:330|402:330|401:331|401:332|401:332|401:334|401:334|399:335|399:335|399:335|399:336|399:336|398:337|398:337|397:339|397:339|396:339|396:340|396:340|395:341|395:341|394:342|394:342|393:343|393:344|393:344|392:344|392:344|390:346|390:346|390:346|390:347|390:347|389:348|389:348|386:349|386:349|386:349|385:349|385:349|384:349|384:349|383:350|383:350|382:351|381:351|381:351|380:353|380:353|378:353|378:353|378:353|377:353|377:353|376:353|376:353|374:354|374:354|373:355|373:354|373:354|370:355|370:355|368:355|368:355|368:355|367:355|367:355|366:354|366:354|364:355|364:355|363:355|363:355|361:356|361:356|360:355|360:355|358:355|358:355|358:355|356:354|355:355,1,249.375002378225,0|0,3:0|0:0,0:0:0:0:
303,311,92262,2,0,P|309:272|313:225,1,71.2500027179719,2|0,0:0|0:0,0:0:0:0:
512,145,92567,5,10,0:0:0:0:
6,283,92871,6,0,B|8:283|11:283|11:283|12:283|12:283|13:283|13:283|15:283|18:283|18:283|19:282|19:282|20:283|20:283|24:283|25:283|25:283|26:283|26:283|27:283|27:283|29:283|32:283|32:283|33:283|33:283|34:283|34:283|36:283|39:283|39:283|40:284|40:284|41:283|41:283|43:284|46:284|46:284|47:283|47:283|48:284|48:284|51:284|53:284|53:284|54:286|54:286|55:285|55:285|58:285|60:285|60:285|61:284|61:284|62:286|62:286|65:286|67:286|67:286|68:287|68:287|69:287|69:287|72:287|74:287|74:287|75:287|75:287|76:288|76:288|79:288|81:289|81:289|81:290|81:290|82:289|82:289|85:289|88:290|88:290|89:289|89:289|89:290|89:290|92:290|95:290|95:290|96:291|96:291|96:291|96:291|99:291|102:292|102:292|103:291|103:291|104:292|104:292|106:293|109:294|109:294|110:295|110:295|111:294|111:294|115:295|116:295|116:295|117:295|117:295|118:296|118:296|119:296|122:297|122:297|123:298|123:298|124:298|124:298|126:298|129:298|129:298|130:298|130:298|131:299|131:299|134:300|136:300|136:300|136:302|136:302|138:301|138:301|141:302|142:303|142:303|144:302|144:302|144:303|144:303|149:305|149:305|149:305|150:305|150:305|151:305|151:305|154:306|156:306|156:306|157:306|157:306|158:307|158:307|160:308|163:309|163:309|164:310|164:310|164:310|164:310|167:311|170:312|170:312|171:311|171:311|172:312|172:312|173:313|176:314|176:314|177:315|177:315|178:314|178:314|182:316|183:317|183:317|184:316|184:316|184:317|184:317|187:318|189:320|189:320|189:320|189:320|191:320|191:320|194:321|195:322|195:322|197:321|197:321|197:323|197:323|202:325|202:325|202:325|202:326|202:326|203:326|203:326|208:328|209:328|209:328|209:328|209:328|210:328|210:328|212:330|215:331|215:331|215:332|215:332|217:332|217:332|218:333|221:335|221:335|222:334|222:334|223:335|223:335|224:335|225:336,1,249.375002378225,2|0,3:2|0:0,0:0:0:0:
279,384,93176,5,2,0:0:0:0:
98,210,93328,5,2,0:0:0:0:
249,131,93481,5,2,3:2:0:0:
91,27,93633,6,0,L|98:51,1,19
44,99,93785,1,8,0:1:0:0:
423,340,94090,6,0,L|419:363,2,19,8|0|8,1:3|0:0|1:3,0:0:0:0:
461,137,94394,6,0,B|460:137|460:137|457:137|457:137|452:137|452:137|454:137|453:137|453:137|452:136|452:136|450:137|450:137|449:137|448:137|448:137|445:137|445:137|444:137|444:137|443:137|443:137|443:137|440:137|440:137|438:137|438:137|437:137|436:138|436:138|435:139|435:139|433:139|433:139|432:139|431:140|431:140|428:140|428:140|427:142|427:142|426:142|426:143|426:143|425:145|425:145|422:145|422:145|421:145|420:145|420:145|419:145|419:145|418:147|418:147|417:148|416:148|416:148|415:151|415:151|412:151|412:151|412:152|412:153|412:153|409:153|409:153|409:154|409:154|408:155|408:156|408:156|407:158|407:158|405:160|405:160|404:161|404:161|404:161|402:162|402:162|401:164|401:164|401:165|401:165|401:165|401:168|401:168|399:169|399:169|398:170|398:171|398:171|396:172|396:172|396:174|396:174|396:176|396:176|396:176|396:178|396:178|395:179|395:179|394:180|394:181|394:181|393:183|393:183|393:185|393:185|393:186|393:186|393:187|393:187|393:189|393:189|392:191|392:191|392:192|392:193|392:193|392:194|392:194|392:196|392:196|392:197|392:198|392:198|393:201|393:201|392:202|392:202|392:203|392:204|392:204|392:206|392:206|393:208|393:208|393:209|393:209|393:209|394:211|394:211|394:213|394:214|395:215|395:215|394:218|394:218|396:219|396:219|396:220|396:221|396:221|398:222|398:222|398:224|398:224|399:225|399:226|399:226|399:228|399:228|401:230|401:230|401:230|402:230|402:230|404:232|404:232|404:234|404:234|404:235|405:235|405:235|406:238|406:238|408:239|408:239|409:239|409:240|409:240|411:241|411:241|412:242|412:242|412:243|413:243|413:243|414:246|414:246|417:247|417:247|418:247|418:247|418:247|420:247|420:247|421:249|421:249|422:250|422:250|424:252|424:252|426:252|426:252|427:252|428:253|428:253|430:253|430:253|432:255|432:255|433:255|434:255|434:255|435:256|435:256|436:256|436:256|438:256|438:256|439:256|439:256|441:256|441:256|443:257|443:257|444:257|444:258|444:258|446:258|446:258|449:258|449:258|450:258|451:258|451:258|452:257|452:257|454:258|454:258|455:258|456:258|456:258|458:258|458:258|461:258|461:258|461:258|461:258|461:258|463:256|463:256|466:257|466:257|467:257|468:256|468:256|469:257|469:257|471:256|471:256|472:256|472:255|472:255|474:254|474:254|477:254|477:254|478:253|478:253|478:253|480:253|480:253|482:251|482:251|482:250|483:250|483:250|485:248|485:248|486:248|486:248|487:247|487:247|490:247|490:247|491:245|491:245|492:244|493:244|493:244|494:242|494:242|495:241|495:241|496:240|496:240|498:239|498:239|499:237|499:237|500:236|501:236|501:236|501:234|501:234|503:233|503:233|503:231|503:231|505:230|505:230|505:228|505:228|506:226|506:226|507:224|507:224|509:222|509:222|509:222|510:221|510:221|510:219|510:219|510:218|510:218|511:216|511:215|511:215|509:215|509:215|507:214|507:214|505:213|505:213|503:212|503:212|502:212|502:212|500:212|500:212|497:212|497:212|495:210|495:210|494:209|494:209|492:209|492:209|490:209|490:209|487:208|487:208|486:209|486:209|485:207|485:207|482:206|482:206|480:205|480:205|478:205|478:205|477:205|477:205|474:205|474:205|472:204|472:204|470:203|470:203|469:201|469:201|467:201|467:201|465:201|465:201|462:201|462:201|461:200|461:200|459:199|459:199|457:198|457:198|455:198|455:198|453:197,1,313.500009567261,0|0,3:0|0:0,0:0:0:0:
482,286,94699,1,10,0:3:0:0:
301,100,94851,6,0,B|305:89|305:89|304:81|304:81|311:69,1,19,2|0,0:0|0:0,0:0:0:0:
158,135,95003,6,0,P|228:148|236:210,1,142.5,10|0,0:0|0:0,0:0:0:0:
310,264,95308,6,0,B|307:264|304:264|304:264|303:264|303:264|301:264|301:264|299:264|296:264|296:264|294:262|294:262|293:264|293:264|289:264|287:264|287:264|286:264|286:264|285:264|285:264|283:264|279:264|279:264|278:264|278:264|277:264|277:264|275:264|271:264|271:264|270:265|270:265|269:264|269:264|267:265|263:265|263:265|262:264|262:264|261:265|261:265|257:265|255:265|255:265|254:267|254:267|253:266|253:266|249:266|247:266|247:266|246:265|246:265|245:267|245:267|241:267|239:267|239:267|238:268|238:268|237:268|237:268|233:268|231:268|231:268|230:268|230:268|228:269|228:269|225:269|223:270|223:270|223:272|223:272|221:270|221:270|218:270|215:272|215:272|213:270|213:270|213:272|213:272|210:272|206:272|206:272|205:273|205:273|205:273|205:273|202:273|198:274|198:274|197:273|197:273|196:274|196:274|194:275|190:276|190:276|189:277|189:277|188:276|188:276|183:277|182:277|182:277|181:277|181:277|180:279|180:279|179:279|175:280|175:280|174:281|174:281|173:281|173:281|171:281|167:281|167:281|166:281|166:281|165:282|165:282|161:283|159:283|159:283|159:286|159:286|157:284|157:284|153:286|152:287|152:287|150:286|150:286|150:287|150:287|144:289|144:289|144:289|143:289|143:289|142:289|142:289|138:290|136:290|136:290|135:290|135:290|133:291|133:291|131:292|128:294|128:294|127:295|127:295|127:295|127:295|123:296|120:297|120:297|118:296|118:296|117:297|117:297|116:298|113:299|113:299|111:301|111:301|110:299|110:299|106:302|105:303|105:303|103:302|103:302|103:303|103:303|100:304|98:306|98:306|98:306|98:306|95:306|95:306|92:308|91:309|91:309|88:308|88:308|88:310|88:310|83:312|83:312|83:312|83:313|83:313|81:313|81:313|76:316|74:316|74:316|74:316|74:316|73:316|73:316|71:318|67:319|67:319|67:320|67:320|65:320|65:320|64:321|61:324|61:324|59:323|59:323|58:324|58:324|57:324|56:325,1,285,0|0,3:2|0:0,0:0:0:0:
13,383,95613,5,0,0:0:0:0:
161,209,95765,5,2,0:0:0:0:
49,95,95917,5,2,0:0:0:0:
269,19,96069,6,0,L|278:-9,1,19,2|0,0:0|0:0,0:0:0:0:
212,75,96222,2,0,B|197:45|197:45|97:2,1,132.999995941162,8|2,0:1|0:0,0:0:0:0:
99,375,96831,6,0,B|100:371|100:371|102:371|102:371|101:369|101:369|103:366|103:366|102:365|102:365|104:365|104:365|105:361|105:361|106:360|106:360|106:359|106:359|108:355|108:355|108:355|108:355|108:355|108:355|110:351|110:351|111:351|111:351|112:351|112:351|112:351|112:351|117:350|117:350|118:349|118:349|118:350|118:350|122:349|122:349|123:349|123:349|124:348|124:348|128:348|128:348|128:347|128:347|129:348|129:348|134:346|134:346|135:347|135:347|135:346|135:346|139:345|139:345|140:345|140:345|141:345|141:345|145:344|145:344|146:345|146:345|146:344|146:344|151:343|151:343|151:342|151:342|152:342|152:342|156:342|156:342|157:342|157:342|158:342|158:342|161:341|161:341|162:339|162:339|163:340|163:340|168:339|168:339|168:340|168:340|169:339|169:339|173:338|173:338|174:337|174:337|174:338|174:338|178:337|178:337|180:338|180:338|180:336|180:336|184:335|184:335|185:335|185:335|186:335|186:335|190:335|190:335|191:335|191:335|191:334|191:334|195:333|195:333|196:332|196:332|197:333|197:333|201:332|201:332|202:332|202:332|203:332|203:332|207:331|207:331|207:330|207:330|208:331|208:331|212:329|212:329|214:330|214:330|214:329|214:329|218:328|218:328|219:328|219:328|220:328|220:328|224:327|224:327|224:328|224:328|225:327|225:327|229:326|229:326|230:325|230:325|230:325|230:325|235:325|235:325|236:325|236:325|237:325|237:325|240:324|240:324|241:322|241:322|242:323|242:323|246:322|246:322|247:323|247:323|247:322|247:322|252:322|252:322|253:320|253:320|253:321|253:321|257:320|257:320|258:321|258:321|259:320|259:320|263:319|263:319|263:318|263:318|264:319|264:319|269:318|269:318|270:319|270:319|270:317|270:317|274:316|274:316|275:315|275:315|276:316|276:316|280:315|280:315|281:315|281:315|281:315|281:315|286:314|286:314|286:313|286:313|287:314|287:314|291:313|291:313|292:313|292:313|293:312|293:312|296:312|296:312|297:311|297:311|298:312|298:312|303:310|303:310|303:311|303:311|304:310|304:310|308:309|308:309|309:309|309:309|309:309|309:309|311:309|311:309|313:310|313:310|313:312|313:312|314:312|314:312|317:314|317:314|318:314|318:314|319:315|319:315|322:318|322:318|322:319|322:319|322:319|322:319|326:322|326:322|326:322|326:322|327:323|327:323|329:325,1,285,0|0,3:0|0:0,0:0:0:0:
378,366,97135,2,0,P|424:376|455:388,1,71.2500027179719,2|0,0:0|0:0,0:0:0:0:
285,13,97440,5,10,0:0:0:0:
512,124,97745,6,0,B|510:123|507:122|507:122|506:121|506:121|505:122|505:122|503:121|501:120|501:120|500:121|500:121|500:120|500:120|497:119|494:118|494:118|494:117|494:117|493:118|493:118|491:117|489:117|489:117|488:118|488:118|487:117|487:117|484:116|482:116|482:116|481:115|481:115|480:116|480:116|478:116|475:116|475:116|474:117|474:117|473:116|473:116|471:116|469:116|469:116|468:115|468:115|467:116|467:116|465:116|462:116|462:116|461:117|461:117|460:116|460:116|458:117|456:117|456:117|455:116|455:116|454:117|454:117|451:118|449:118|449:118|449:120|449:120|448:119|448:119|446:119|443:120|443:120|442:119|442:119|441:121|441:121|439:121|437:122|437:122|437:124|437:124|435:123|435:123|433:124|431:124|431:124|429:124|429:124|429:125|429:125|427:126|425:127|425:127|425:128|425:128|424:128|424:128|421:130|419:131|419:131|418:130|418:130|418:132|418:132|416:133|414:134|414:134|414:135|414:135|413:135|413:135|410:137|409:138|409:138|408:138|408:138|408:139|408:139|406:141|405:143|405:143|405:144|405:144|403:144|403:144|401:146|400:147|400:147|398:147|398:147|398:149|398:149|398:151|396:153|396:153|396:154|396:154|395:154|395:154|394:155|392:157|392:157|391:158|391:158|391:159|391:159|390:162|389:164|389:164|389:165|389:165|388:165|388:165|387:167|387:169|387:169|385:170|385:170|386:171|386:171|385:174|384:175|384:175|385:176|385:176|383:177|383:177|382:180|382:182|382:182|381:182|381:182|381:183|381:183|380:186|380:187|380:187|381:189|381:189|380:189|380:189|379:192|379:195|379:195|378:195|378:195|378:196|378:196|378:199|378:201|378:201|379:202|379:202|377:202|377:202|377:206|377:207|377:207|377:208|377:208|377:209|377:209|377:212|377:214|377:214|378:215|378:215|377:216|377:216|377:217|377:217|378:215|379:213|379:213|381:213|381:213|380:212|380:212|382:209|383:207|383:207|383:206|383:206|384:206|384:206|386:204|387:202|387:202|388:202|388:202|388:201|388:201|389:199|391:197|391:197|391:196|391:196|392:196|392:196|394:194|396:193|396:193|397:193|397:193|397:191|397:191|398:189|400:188|400:188|400:186|400:186|401:186|401:186|403:186|405:184|405:184|407:184|407:184|407:183|407:183|408:181|410:180|410:180|410:179|410:179|412:179|412:179|414:178|416:176|416:176|418:177|418:177|418:175|418:175|420:175|422:174|422:174|422:173|422:173|424:173|424:173|426:172|428:171|428:171|429:172|429:172|429:170|429:170|432:169|434:169|434:169|435:168|435:168|436:168|436:168|439:168|440:167|440:167|441:168|441:168|442:167|442:167|445:166|447:166|447:166|448:165|448:165|449:166|449:166|452:165|455:165,1,332.500003170967,2|2,3:2|0:0,0:0:0:0:
502,226,98201,5,2,0:0:0:0:
320,105,98354,5,2,3:2:0:0:
209,165,98506,5,0,0:0:0:0:
11,35,98658,6,0,L|0:40,3,12.6666666666667,8|0|0|0,0:1|0:0|0:0|0:0,0:0:0:0:
205,5,99267,6,0,B|201:7|200:8|200:8|198:7|198:7|199:9|199:9|196:11|194:12|194:12|194:15|194:15|192:14|192:14|188:17|188:17|187:16|187:16|187:19|187:19|185:20|182:22|182:22|183:24|183:24|181:23|181:23|177:26|176:27|176:27|174:26|174:26|175:28|175:28|173:30|170:32|170:32|171:34|171:34|169:33|169:33|166:37|166:37|164:37|164:37|164:39|164:39|162:40|160:42|160:42|161:44|161:44|159:44|159:44|155:47|154:48|154:48|152:47|152:47|153:49|153:49|151:53|150:54|150:54|151:56|151:56|149:55|149:55|145:58|145:59|145:59|143:58|143:58|143:60|143:60|141:62|140:65|140:65|140:67|140:67|138:66|138:66|135:70|135:71|135:71|133:70|133:70|133:73|133:73|132:75|131:76|131:76|132:78|132:78|129:78|129:78|126:82|126:83|126:83|124:82|124:82|125:84|125:84|122:88|121:89|121:89|122:91|122:91|120:91|120:91|117:94|117:95|117:95|115:95|115:95|116:96|116:96|115:99|113:102|113:102|115:103|115:103|112:103|112:103|111:106|109:108|109:108|107:108|107:108|108:110|108:110|107:112|105:114|105:114|107:116|107:116|104:116|104:116|103:119|101:121|101:121|99:121|99:121|100:123|100:123|98:127|98:128|98:128|99:130|99:130|97:130|97:130|96:134|95:134|95:134|93:134|93:134|94:136|94:136|93:139|92:142|92:142|93:143|93:143|91:143|91:143|90:146|89:148|89:148|86:148|86:148|88:150|88:150|86:154|85:155|85:155|87:157|87:157|85:157|85:157|84:160|83:163|83:163|80:163|80:163|82:165|82:165|81:166|80:169|80:169|81:171|81:171|79:171|79:171|79:176|78:177|78:177|76:177|76:177|78:179|78:179|76:183|76:183|76:183|77:185|77:185|75:185|75:185|74:188|74:191|74:191|71:191|71:191|73:193|73:193|72:196|71:199|71:199|73:200|73:200|71:201|71:201|70:203|70:206|70:206|67:206|67:206|69:207|69:207|68:212|68:213|68:213|70:215|70:215|67:215|67:215|67:218|66:220|66:220|64:221|64:221|66:222|66:222|65:226|65:227|65:227|65:228,1,320.625012230874,2|0,3:2|0:0,0:0:0:0:
5,239,99572,6,0,L|11:276,1,23.75,8|0,0:3|0:0,0:0:0:0:
21,336,99724,2,0,L|27:373,1,23.75,2|0,0:1|0:0,0:0:0:0:
231,230,99877,6,0,B|244:228|244:228|336:260,1,106.875004076958,8|0,0:0|0:0,0:0:0:0:
257,375,100181,6,0,P|200:274|174:143,1,213.750008153916,2|0,3:2|0:0,0:0:0:0:
242,138,100486,6,0,L|260:153,1,23.75
123,126,100638,6,0,L|100:133,1,23.75,2|0,0:1|0:0,0:0:0:0:
187,82,100790,6,0,L|190:58,1,23.75,8|0,0:3|0:0,0:0:0:0:
126,15,100943,5,2,0:1:0:0:
95,376,101095,6,0,P|126:322|207:321,1,142.500005435944,8|2,0:1|0:0,0:0:0:0:
511,135,101704,6,0,B|507:133|505:133|505:133|505:130|505:130|503:132|503:132|501:131|498:131|498:131|497:133|497:133|496:130|496:130|493:130|491:130|491:130|490:128|490:128|489:130|489:130|486:129|484:129|484:129|483:131|483:131|482:130|482:130|479:130|477:130|477:130|476:129|476:129|475:130|475:130|472:131|470:132|470:132|470:135|470:135|468:132|468:132|465:135|463:136|463:136|462:133|462:133|462:136|462:136|459:138|457:139|457:139|458:141|458:141|456:140|456:140|453:142|451:144|451:144|449:143|449:143|449:145|449:145|447:147|446:149|446:149|447:151|447:151|445:150|445:150|443:153|442:155|442:155|439:154|439:154|441:156|441:156|439:159|438:161|438:161|440:163|440:163|437:163|437:163|436:165|435:167|435:167|433:168|433:168|434:169|434:169|433:172|432:174|432:174|433:176|433:176|431:176|431:176|430:179|430:181|430:181|428:181|428:181|429:182|429:182|428:185|428:187|428:187|430:189|430:189|427:189|427:189|426:193|426:196|426:196|424:196|424:196|425:198|425:198|425:199|425:199|425:201|424:203|424:203|426:204|426:204|424:205|424:205|423:207|423:209|423:209|420:210|420:210|422:211|422:211|421:214|421:216|421:216|422:218|422:218|420:218|420:218|419:221|418:223|418:223|416:223|416:223|418:225|418:225|417:228|416:230|416:230|417:231|417:231|415:232|415:232|413:234|412:236|412:236|410:236|410:236|411:238|411:238|410:240|408:242|408:242|409:244|409:244|407:244|407:244|405:246|404:247|404:247|402:247|402:247|402:250|402:250|400:252|398:253|398:253|399:255|399:255|396:254|396:254|394:256|392:257|392:257|390:256|390:256|390:258|390:258|387:260|385:261|385:261|385:263|385:263|383:261|383:261|381:262|379:263|379:263|377:261|377:261|377:264|377:264|374:264|372:265|372:265|371:267|371:267|370:265|370:265|367:266|365:266|365:266|363:264|363:264|363:266|363:266|360:266|358:267|358:267|357:269|357:269|355:267|355:267|352:267|350:267,1,320.625012230874,2|0,3:2|0:0,0:0:0:0:
295,219,102009,6,0,L|301:182,1,23.75,8|0,0:3|0:0,0:0:0:0:
283,293,102161,2,0,L|279:316,1,23.75,2|0,0:1|0:0,0:0:0:0:
475,384,102313,5,8,0:0:0:0:
352,139,102618,2,0,P|348:85|346:21,1,106.875004076958,2|0,3:2|0:0,0:0:0:0:
416,2,102922,5,0,0:0:0:0:
260,119,103075,6,0,B|248:103|248:103|251:89,1,23.75,2|0,0:1|0:0,0:0:0:0:
140,58,103227,5,8,3:0:0:0:
68,115,103379,5,2,0:1:0:0:
1,82,103531,5,8,0:1:0:0:
67,379,103836,6,0,L|61:336,2,35.625001358986,8|0|8,1:3|0:0|1:2,0:0:0:0:
222,219,104141,6,0,B|221:219|221:219|218:218|218:218|217:219|217:219|216:219|215:219|215:219|212:219|212:219|211:219|211:219|209:219|209:219|209:219|207:219|207:219|206:220|206:220|205:221|204:221|204:221|203:223|203:223|201:223|201:223|200:224|200:224|197:226|197:226|197:227|197:227|196:228|196:229|196:229|195:231|195:231|193:232|193:232|193:232|193:233|193:233|192:234|192:234|191:237|191:237|191:238|191:238|191:241|191:241|189:242|189:242|188:244|188:244|187:246|187:246|187:247|187:247|187:248|187:248|187:249|187:249|187:252|187:252|186:253|186:253|186:254|186:255|186:255|185:256|185:256|185:258|185:258|184:259|184:260|184:260|184:261|184:261|183:262|183:262|182:263|182:264|182:264|179:265|179:265|179:267|179:267|179:268|179:269|179:269|178:271|178:271|176:272|176:272|176:273|175:273|175:273|173:274|173:274|173:276|173:276|172:276|171:276|171:276|170:279|170:279|167:279|167:279|167:280|166:281|166:281|165:281|165:281|163:282|163:282|163:283|163:284|163:284|161:286|161:286|158:286|158:286|158:286|157:287|157:287|154:287|154:287|152:288|152:288|152:288|151:288|151:288|150:289|150:289|149:289|149:289|148:289|147:289|147:289|145:289|145:289|144:290|144:290|142:290|141:290|141:290|139:291|139:291|137:291|137:291|137:291|136:291|136:291|134:290|134:290|132:291|132:291|131:290|130:290|130:290|128:291|128:291|126:290|126:290|125:290|124:289|124:289|123:288|123:288|121:288|121:288|120:288|119:288|119:288|118:288|118:288|116:287|116:287|114:287|114:287|114:287|113:285|113:285|111:285|111:285|110:285|109:284|109:284|109:284|109:284|107:282|107:282|106:281|105:281|105:281|105:279|105:279|102:279|102:279|101:278|101:277|101:277|99:276|99:276|98:275|98:275|97:274|96:274|96:274|95:272|95:272|95:272|95:272|94:271|93:270|93:270|91:269|91:269|90:266|90:266|90:266|90:266|90:266|90:263|90:263|88:261|88:261|87:261|87:260|87:260|85:260|85:260|85:257|85:257|84:256|84:256|84:256|84:254|84:254|83:252|83:252|83:252|83:251|83:251|81:249|81:249|81:247|81:247|81:246|81:246|81:246|82:244|82:244|81:242|81:242|81:241|81:240|81:240|80:238|80:238|81:236|81:236|81:235|81:234|81:234|81:232|81:232|81:231|81:231|81:230|81:229|81:229|81:227|81:227|82:225|82:225|82:224|82:223|82:223|84:222|84:222|84:219|84:219|84:219|84:219|84:219|84:217|84:217|86:215|86:215|86:214|87:213|87:213|89:213|89:213|89:210|89:210|90:209|90:208|90:208|90:207|90:207|92:205|92:205|93:204|93:204|95:203|95:203|95:202|95:202|96:201|96:200|96:200|97:198|97:198|99:198|99:198|100:197|100:196|100:196|103:196|103:196|104:193|104:193|105:193|105:193|105:193|107:191|107:191|109:190|109:190|109:190|109:190|109:190|112:190|112:190|113:188|113:188|113:188|114:188|114:188|116:186|116:186|118:186|118:186|119:186|119:186|119:186|122:186|122:186|123:184|123:184|123:184|124:184|124:184|127:183|127:183|128:183|128:183|129:183|130:183|130:183|133:183|133:183|134:183|134:183|136:183|136:183|138:182|138:182|139:183|139:183|141:183|141:183|141:183|144:184|144:184|145:183|145:183|146:183|148:184|148:184|149:183|149:183|150:185|150:185|151:185|151:186|151:186|152:188|152:188|155:188|155:188|157:188|159:190,1,320.625012230874,2|0,3:2|0:0,0:0:0:0:
197,138,104445,6,0,L|201:105,1,23.75,8|0,0:3|0:0,0:0:0:0:
209,42,104597,2,0,L|213:9,1,23.75,2|0,0:1|0:0,0:0:0:0:
265,286,104750,6,0,B|277:294|277:294|359:311|359:311|391:304,1,106.875004076958,8|0,0:0|0:0,0:0:0:0:
487,155,105054,6,0,P|408:130|364:245,1,213.750008153916,2|0,3:2|0:0,0:0:0:0:
427,260,105359,6,0,L|457:254,1,23.75
389,87,105511,6,0,L|395:57,1,23.75,2|0,0:1|0:0,0:0:0:0:
225,64,105663,6,0,L|200:45,1,23.75,8|0,0:3|0:0,0:0:0:0:
134,79,105816,1,2,0:1:0:0:
159,303,105968,6,0,B|55:328|55:328|33:356,1,142.500005435944,8|2,0:1|0:0,0:0:0:0:
57,32,106577,6,0,B|54:33|54:33|52:30|52:30|52:33|52:33|49:34|47:35|47:35|47:37|47:37|44:36|44:36|42:37|40:38|40:38|38:37|38:37|38:39|38:39|35:41|33:44|33:44|33:45|33:45|32:45|32:45|30:47|28:49|28:49|26:48|26:48|27:50|27:50|26:54|24:56|24:56|26:58|26:58|23:58|23:58|22:61|21:64|21:64|20:64|20:64|21:66|21:66|20:69|20:71|20:71|22:72|22:72|20:74|20:74|20:77|20:79|20:79|18:80|18:80|20:81|20:81|20:82|20:84|20:84|20:87|20:87|22:88|22:88|20:89|20:89|21:95|21:95|19:97|19:97|21:97|21:97|22:103|22:103|24:105|24:105|22:106|22:106|22:111|22:111|20:113|20:113|22:113|22:113|23:120|23:120|26:121|26:121|23:122|23:122|23:128|23:128|21:129|21:129|24:130|24:130|24:137|24:137|27:138|27:138|24:139|24:139|26:144|26:144|23:146|23:146|26:147|26:147|26:153|26:153|28:154|28:154|26:155|26:155|27:161|27:161|24:162|24:162|27:163|27:163|28:170|28:170|30:170|30:170|28:172|28:172|28:178|28:178|26:179|26:179|28:180|28:180|29:186|29:186|31:186|31:186|29:189|29:189|29:194|29:194|28:195|28:195|30:196|30:196|30:202|30:202|32:203|32:203|30:204|30:204|31:208|32:210|32:210|30:212|30:212|33:212|33:212|34:215|35:217|35:217|38:216|38:216|37:220|37:220|38:222|40:224|40:224|39:226|39:226|41:225|41:225|43:229|45:230|45:230|48:229|48:229|47:231|47:231|49:233|52:234|52:234|51:236|51:236|53:235|53:235|57:236|59:237|59:237|61:235|61:235|61:239|61:239|63:239|64:240,1,320.625012230874,2|0,3:2|0:0,0:0:0:0:
131,210,106882,6,0,L|169:219,1,23.75,8|0,0:3|0:0,0:0:0:0:
227,235,107034,2,0,L|265:244,1,23.75,2|0,0:1|0:0,0:0:0:0:
449,384,107186,5,8,0:0:0:0:
327,102,107491,6,0,P|331:157|333:220,1,106.875004076958,2|0,3:2|0:0,0:0:0:0:
393,263,107795,5,8,0:3:0:0:
234,122,107948,6,0,B|232:120|232:120|225:120|225:120|211:125,1,23.75,2|0,0:1|0:0,0:0:0:0:
401,54,108100,5,8,3:0:0:0:
297,4,108252,5,2,0:1:0:0:
372,343,108404,2,0,P|369:354|368:381,2,35.625001358986,8|0|0,0:1|0:0|0:0,0:0:0:0:
72,46,109014,6,0,P|78:82|82:117,1,71.2500027179719,0|8,0:0|0:3,0:0:0:0:
156,70,109318,5,8,0:3:0:0:
5,93,109470,1,8,0:3:0:0:
157,150,109623,6,0,B|157:151|157:151|157:154|157:154|155:153|155:153|156:155|156:155|157:156|157:156|154:155|154:155|156:157|156:157|156:157|155:158|155:158|157:160|157:160|153:160|153:160|155:162|155:162|157:163|157:163|153:162|153:162|155:164|155:164|155:164|155:164|156:166|156:166|152:166|152:166|154:168|154:168|155:170|155:170|152:169|152:169|153:170|153:170|153:171|153:172|153:172|154:174|154:174|151:173|151:173|152:175|152:175|154:177|154:177|150:176|150:176|152:177|152:177|152:178|152:180|152:180|153:181|153:181|150:180|150:180|151:182|151:182|153:183|153:183|150:183|150:183|151:184|151:184|151:186|151:186|153:187|153:187|150:187|150:187|151:189|151:189|153:190|153:190|150:190|150:190|150:191|150:191|150:193|150:193|152:195|152:195|149:195|149:195|150:196|150:196|152:197|152:197|149:197|149:197|150:198|150:198|150:199|150:200|150:200|151:203|151:203|149:202|149:202|150:203|150:203|151:204|151:204|148:204|148:204|150:205|150:205|150:211,1,142.5,8|0,3:2|0:0,0:0:0:0:
58,220,109927,6,0,B|61:217|63:216|63:216|63:214|63:214|65:215|65:215|67:214|69:213|69:213|71:215|71:215|71:212|71:212|74:211|76:211|76:211|77:209|77:209|78:210|78:210|81:209|83:208|83:208|84:210|84:210|85:209|85:209|88:208|90:208|90:208|91:207|91:207|92:208|92:208|95:208|97:209|97:209|98:212|98:212|99:208|99:208|103:211|105:211|105:211|105:208|105:208|106:211|106:211|109:213|111:213|111:213|111:215|111:215|112:214|112:214|116:215|118:217|118:217|120:216|120:216|120:217|120:217|123:219|124:221|124:221|123:223|123:223|125:222|125:222|128:224|129:226|129:226|132:224|132:224|130:227|130:227|133:229|134:231|134:231|133:233|133:233|135:233|135:233|137:235|138:236|138:236|140:237|140:237|140:238|140:238|141:241|142:243|142:243|142:245|142:245|144:244|144:244|145:247|146:249|146:249|148:249|148:249|147:250|147:250|149:253|149:255|149:255|147:257|147:257|150:256|150:256|152:260|153:263|153:263|155:263|155:263|154:265|154:265|154:266|154:266|155:268|156:270|156:270|154:271|154:271|156:272|156:272|158:273|158:275|158:275|161:276|161:276|159:277|159:277|161:280|161:282|161:282|161:284|161:284|163:284|163:284|164:286|166:288|166:288|168:288|168:288|166:290|166:290|168:293|169:295|169:295|168:296|168:296|170:296|170:296|173:298|174:300|174:300|176:299|176:299|175:302|175:302|177:303|179:305|179:305|178:307|178:307|180:307|180:307|183:308|184:309|184:309|186:309|186:309|186:312|186:312|189:313|191:314|191:314|190:316|190:316|193:314|193:314|195:316|198:317|198:317|199:315|199:315|200:317|200:317|203:319|205:319|205:319|206:321|206:321|207:319|207:319|209:319|211:320|211:320|213:318|213:318|214:321|214:321|217:320|219:321|219:321|220:322|220:322|221:320|221:320|224:321|226:320|226:320|227:318|227:318|228:320|228:320|231:319|233:320|233:320|234:322|234:322|236:319|236:319|239:319|241:318,1,320.625012230874,0|0,3:0|0:0,0:0:0:0:
315,263,110232,6,0,L|311:295,1,23.75,2|0,0:0|0:0,0:0:0:0:
301,361,110384,2,0,L|298:384,1,23.75
242,211,110536,5,0,0:0:0:0:
356,107,110689,1,2,0:0:0:0:
157,6,110841,6,0,B|132:21|132:21|131:23|131:23|17:49,1,142.500005435944,10|2,0:1|0:0,0:0:0:0:
393,288,111450,6,0,B|397:289|398:289|398:289|398:291|398:291|400:289|400:289|402:290|405:291|405:291|407:289|407:289|407:291|407:291|410:292|413:292|413:292|414:294|414:294|415:292|415:292|419:293|420:293|420:293|421:291|421:291|422:293|422:293|427:292|428:292|428:292|429:294|429:294|430:292|430:292|435:292|436:291|436:291|437:289|437:289|438:291|438:291|441:290|443:290|443:290|444:291|444:291|445:289|445:289|450:288|451:288|451:288|451:286|451:286|452:288|452:288|457:286|458:285|458:285|460:287|460:287|460:285|460:285|464:282|465:282|465:282|465:280|465:280|466:281|466:281|468:279|471:278|471:278|473:279|473:279|472:276|472:276|475:275|477:273|477:273|477:271|477:271|479:271|479:271|482:268|483:267|483:267|485:268|485:268|484:266|484:266|486:264|488:262|488:262|487:260|487:260|490:261|490:261|492:257|492:256|492:256|494:256|494:256|493:254|493:254|496:250|496:249|496:249|495:248|495:248|497:248|497:248|499:245|500:242|500:242|502:242|502:242|501:240|501:240|502:238|503:236|503:236|502:234|502:234|504:234|504:234|505:231|505:228|505:228|508:228|508:228|506:226|506:226|507:223|507:220|507:220|505:219|505:219|507:218|507:218|508:214|508:213|508:213|510:213|510:213|508:211|508:211|508:209|508:206|508:206|506:205|506:205|508:204|508:204|508:201|508:198|508:198|509:196|509:196|507:196|507:196|507:193|506:190|506:190|504:189|504:189|506:189|506:189|505:186|504:183|504:183|506:181|506:181|504:181|504:181|503:178|502:175|502:175|500:175|500:175|501:174|501:174|499:169|499:168|499:168|500:166|500:166|498:166|498:166|495:163|495:162|495:162|492:162|492:162|494:161|494:161|492:158|491:156|491:156|491:154|491:154|490:154|490:154|488:152|486:149|486:149|484:150|484:150|485:148|485:148|483:146|480:144|480:144|481:142|481:142|479:142|479:142|477:140|474:140|474:140|472:140|472:140|473:138|473:138|470:137|468:135|468:135|468:133|468:133|466:134|466:134|464:132,1,320.625012230874,0|0,3:0|0:0,0:0:0:0:
433,70,111755,6,0,B|429:60|429:60|441:12,1,47.5,2|0,0:0|0:0,0:0:0:0:
334,197,111907,2,0,B|323:195|323:195|288:160,1,47.5
105,252,112059,6,0,P|62:231|-11:221,1,106.875004076958,10|0,0:0|0:0,0:0:0:0:
27,322,112364,6,0,P|117:291|229:254,1,213.750008153916,2|0,3:2|0:0,0:0:0:0:
282,306,112668,6,0,L|277:346,1,23.75,2|0,0:0|0:0,0:0:0:0:
189,182,112821,2,0,L|225:165,1,23.75
173,363,112973,6,0,B|160:353|160:353|89:335,1,71.25,2|0,3:2|0:0,0:0:0:0:
23,241,113278,5,10,0:1:0:0:
494,178,113582,6,0,L|526:189,2,23.75,8|0|8,1:3|0:0|1:3,0:0:0:0:
432,373,113887,6,0,B|432:368|432:367|432:367|434:366|434:366|431:365|431:365|431:362|432:359|432:359|429:358|429:358|431:357|431:357|431:352|431:352|432:351|432:351|430:350|430:350|430:348|430:344|430:344|428:344|428:344|429:343|429:343|429:338|429:336|429:336|431:335|431:335|429:335|429:335|428:332|428:328|428:328|426:328|426:328|428:327|428:327|426:322|426:322|427:321|427:321|425:320|425:320|426:317|425:315|425:315|423:314|423:314|424:313|424:313|424:308|423:306|423:306|425:305|425:305|423:305|423:305|421:301|420:300|420:300|418:299|418:299|420:298|420:298|420:293|419:293|419:293|421:292|421:292|419:291|419:291|419:288|417:285|417:285|415:284|415:284|417:283|417:283|415:278|414:278|414:278|416:277|416:277|414:275|414:275|413:273|412:272|412:272|410:272|410:272|412:269|412:269|410:264|409:264|409:264|411:263|411:263|409:262|409:262|407:258|407:256|407:256|405:256|405:256|406:254|406:254|405:250|404:250|404:250|405:248|405:248|404:248|404:248|402:246|400:243|400:243|398:244|398:244|400:241|400:241|398:239|397:236|397:236|398:234|398:234|396:234|396:234|395:232|395:229|395:229|392:230|392:230|393:227|393:227|391:225|391:222|391:222|392:220|392:220|390:220|390:220|387:216|387:216|387:216|384:216|384:216|385:214|385:214|383:211|383:210|383:210|384:208|384:208|382:208|382:208|380:206|378:203|378:203|377:203|377:203|378:202|378:202|376:199|375:197|375:197|376:195|376:195|374:195|374:195|371:192|371:190|371:190|368:191|368:191|369:189|369:189|367:187|365:184|365:184|367:182|367:182|364:182|364:182|364:181|362:178|362:178|360:178|360:178|361:176|361:176|357:174|356:172|356:172|358:171|358:171|355:171|355:171|352:167|352:167|352:167|350:167|350:167|351:165|351:165|349:163|347:161|347:161|348:159|348:159|346:159|346:159|344:157|342:154|342:154|340:156|340:156|340:153|340:153|339:151|336:150|336:150|338:147|338:147|336:148|336:148|333:145|332:144|332:144|329:145|329:145|331:142|331:142|328:141|327:139|327:139|327:137|327:137|325:138|325:138|322:135|322:134|322:134|321:134,1,320.625012230874,0|0,3:0|0:0,0:0:0:0:
380,89,114191,6,0,B|396:73|396:73|376:32,1,47.5,2|0,0:0|0:0,0:0:0:0:
474,73,114344,2,0,B|490:57|490:57|470:16,1,47.5
19,160,114496,6,0,B|35:142|35:142|38:53,1,106.875004076958,10|0,0:0|0:0,0:0:0:0:
96,8,114800,6,0,B|186:2|152:93|167:161|236:157,1,213.750008153916,2|0,3:2|0:0,0:0:0:0:
282,115,115105,6,0,L|310:120,1,23.75,2|0,0:0|0:0,0:0:0:0:
243,47,115257,2,0,L|269:35,1,23.75
366,169,115410,5,2,0:0:0:0:
234,299,115562,5,0,0:0:0:0:
1,377,115714,6,0,B|69:381|69:381|142:357,1,123.499994346619,10|2,0:1|0:0,0:0:0:0:
416,318,116323,6,0,B|413:321|411:322|411:322|412:325|412:325|409:323|409:323|407:324|405:325|405:325|403:323|403:323|403:326|403:326|400:327|398:327|398:327|397:329|397:329|396:328|396:328|393:329|391:330|391:330|390:328|390:328|389:329|389:329|386:330|384:330|384:330|383:331|383:331|382:330|382:330|379:330|377:329|377:329|376:326|376:326|375:330|375:330|371:327|369:327|369:327|369:330|369:330|368:327|368:327|365:325|363:325|363:325|363:323|363:323|362:324|362:324|358:323|356:321|356:321|354:322|354:322|354:321|354:321|351:319|350:317|350:317|351:315|351:315|349:316|349:316|346:314|345:312|345:312|342:314|342:314|344:311|344:311|341:309|340:307|340:307|341:305|341:305|339:305|339:305|337:303|336:302|336:302|334:301|334:301|334:300|334:300|333:297|332:295|332:295|332:293|332:293|330:294|330:294|329:291|328:289|328:289|326:289|326:289|327:288|327:288|325:285|325:283|325:283|327:281|327:281|324:282|324:282|322:278|321:275|321:275|319:275|319:275|320:273|320:273|320:272|320:272|319:270|318:268|318:268|320:267|320:267|318:266|318:266|316:265|316:263|316:263|313:262|313:262|315:261|315:261|313:258|313:256|313:256|313:254|313:254|311:254|311:254|310:252|308:250|308:250|306:250|306:250|308:248|308:248|306:245|305:243|305:243|306:242|306:242|304:242|304:242|301:240|300:238|300:238|298:239|298:239|299:236|299:236|297:235|295:233|295:233|296:231|296:231|294:231|294:231|291:230|290:229|290:229|288:229|288:229|288:226|288:226|285:225|283:224|283:224|284:222|284:222|281:224|281:224|279:222|276:221|276:221|275:223|275:223|274:221|274:221|271:219|269:219|269:219|268:217|268:217|267:219|267:219|265:219|263:218|263:218|261:220|261:220|260:217|260:217|257:218|255:217|255:217|254:216|254:216|253:218|253:218|250:217|248:218|248:218|247:220|247:220|246:218|246:218|243:219|241:218|241:218|240:216|240:216|238:219|238:219|235:219|233:220,1,320.625012230874,0|0,3:0|0:0,0:0:0:0:
168,247,116628,6,0,B|146:242|146:242|123:284,1,71.2500027179719,2|0,0:0|0:0,0:0:0:0:
79,93,116780,2,0,B|66:74|66:74|20:88,1,71.2500027179719
315,8,116932,6,0,P|353:35|404:92,1,106.875004076958,10|0,0:0|0:0,0:0:0:0:
512,42,117237,6,0,P|423:88|380:196,1,190,2|2,3:2|0:0,0:0:0:0:
119,284,118760,6,0,B|119:297|119:297|121:295|121:295|125:311|125:311|128:306|128:306|131:324|131:324|134:316|134:316|141:335|141:335|142:324|142:324|151:345|151:345|152:330|152:330|163:353|163:353|163:336|163:336|174:360|174:360|174:339|174:339|188:363|188:363|187:339|187:339|202:365|202:365|199:339|199:339|217:365|217:365|211:339|211:339|231:363|231:363|223:337|223:337|244:359|244:359|234:332|234:332|257:352|257:352|245:328|245:328|268:344|268:344|255:320|255:320|279:333|279:333|264:314|264:314|287:322|287:322|273:305|273:305|294:309|294:309|280:295|280:295|298:295|298:295|286:284|286:284|300:283|300:283|288:272|288:272|300:267|300:267|290:261|290:261|298:253|298:253|290:249|290:249|294:239|294:239|287:237|287:237|287:227|287:227|285:226|285:226|279:215,1,881.125036973478,4|0,0:3|0:0,0:0:0:0:
372,312,119369,6,0,P|422:321|487:353,1,99.7499969558717,8|0,0:0|0:0,0:0:0:0:
503,264,119674,5,6,3:1:0:0:
295,343,119826,1,2,0:0:0:0:
431,150,119978,6,0,B|431:163|431:163|429:161|429:161|425:177|425:177|422:172|422:172|419:190|419:190|416:182|416:182|409:201|409:201|408:190|408:190|399:211|399:211|398:196|398:196|387:219|387:219|387:202|387:202|376:226|376:226|376:205|376:205|362:229|362:229|363:205|363:205|348:231|348:231|351:205|351:205|333:231|333:231|339:205|339:205|319:229|319:229|327:203|327:203|306:225|306:225|316:198|316:198|293:218|293:218|305:194|305:194|282:210|282:210|295:186|295:186|271:199|271:199|286:180|286:180|263:188|263:188|277:171|277:171|256:175|256:175|270:161|270:161|252:161|252:161|264:150|264:150|250:149|250:149|262:138|262:138|250:133|250:133|260:127|260:127|252:119|252:119|260:115|260:115|256:105|256:105|263:103|263:103|263:93|263:93|265:92|265:92|271:81,1,881.125036973478,2|0,0:0|0:0,0:0:0:0:
175,156,120587,6,0,P|125:165|72:202,1,71.2500027179719,10|0,0:0|0:0,0:0:0:0:
5,0,120892,6,0,P|41:0|68:22,1,71.25,10|0,0:3|0:0,0:0:0:0:
81,95,121196,6,0,B|78:99|77:99|77:99|75:99|75:99|77:102|77:102|75:104|72:106|72:106|74:109|74:109|72:108|72:108|69:112|69:112|68:113|68:113|69:114|69:114|68:116|66:119|66:119|67:121|67:121|66:121|66:121|63:125|62:127|62:127|60:126|60:126|61:127|61:127|60:130|58:134|58:134|60:135|60:135|57:134|57:134|56:140|56:140|55:140|55:140|56:142|56:142|53:144|53:146|53:146|54:148|54:148|53:148|53:148|50:152|49:155|49:155|47:154|47:154|49:155|49:155|48:160|48:161|48:161|50:163|50:163|47:163|47:163|44:167|45:167|45:167|43:167|43:167|44:169|44:169|42:172|42:175|42:175|43:177|43:177|41:177|41:177|40:182|41:183|41:183|39:182|39:182|39:185|39:185|39:187|39:189|39:189|41:190|41:190|37:191|37:191|36:196|37:197|37:197|35:197|35:197|36:199|36:199|35:203|34:205|34:205|36:206|36:206|34:207|34:207|32:211|33:211|33:211|31:212|31:212|32:213|32:213|32:216|32:219|32:219|34:220|34:220|31:221|31:221|31:224|31:227|31:227|29:228|29:228|30:229|30:229|30:231|28:234|28:234|31:235|31:235|29:236|29:236|29:239|27:242|27:242|26:243|26:243|27:244|27:244|27:249|27:249|27:249|30:251|30:251|28:252|28:252|28:255|27:256|27:256|25:257|25:257|27:258|27:258|27:261|27:265|27:265|28:265|28:265|27:266|27:266|27:269|26:271|26:271|24:272|24:272|26:274|26:274|27:278|26:279|26:279|29:280|29:280|27:281|27:281|27:284|27:288|27:288|24:288|24:288|27:290|27:290|26:291|26:294|26:294|28:296|28:296|26:297|26:297|28:301|27:303|27:303|25:302|25:302|28:304|28:304|28:309|28:309|28:309|30:310|30:310|28:311|28:311|28:314|29:317|29:317|27:318|27:318|28:319|28:319|29:322|29:326|29:326|31:325|31:325|30:327|30:327|29:330|31:332|31:332|28:334|28:334|30:334|30:334|31:338|31:339|31:339|34:340|34:340|31:342|31:342|33:344|32:346|32:346|31:348|31:348|33:348|33:348|34:353|34:353|34:353|34:354,1,320.625012230874,6|0,3:0|0:0,0:0:0:0:
94,361,121501,6,0,L|133:351,1,23.75,2|0,0:0|0:0,0:0:0:0:
213,325,121653,2,0,L|189:330,1,23.75,10|0,0:3|0:0,0:0:0:0:
268,114,121806,6,0,B|278:64|278:64|274:51|274:51|266:10,1,95,10|2,0:0|0:0,0:0:0:0:
169,228,122110,6,0,B|172:231|174:232|174:232|174:234|174:234|176:233|176:233|178:234|180:235|180:235|182:233|182:233|182:236|182:236|185:237|187:237|187:237|188:239|188:239|189:238|189:238|192:239|194:240|194:240|195:238|195:238|196:239|196:239|199:240|201:240|201:240|202:241|202:241|203:240|203:240|206:240|208:239|208:239|209:236|209:236|210:240|210:240|214:237|216:237|216:237|216:240|216:240|217:237|217:237|220:235|222:235|222:235|222:233|222:233|223:234|223:234|227:233|229:231|229:231|231:232|231:232|231:231|231:231|234:229|235:227|235:227|234:225|234:225|236:226|236:226|239:224|240:222|240:222|243:224|243:224|241:221|241:221|244:219|245:217|245:217|244:215|244:215|246:215|246:215|248:213|249:212|249:212|251:211|251:211|251:210|251:210|252:207|253:205|253:205|253:203|253:203|255:204|255:204|256:201|257:199|257:199|259:199|259:199|258:198|258:198|260:195|260:193|260:193|258:191|258:191|261:192|261:192|263:188|264:185|264:185|266:185|266:185|265:183|265:183|265:182|265:182|266:180|267:178|267:178|265:177|265:177|267:176|267:176|269:175|269:173|269:173|272:172|272:172|270:171|270:171|272:168|272:166|272:166|272:164|272:164|274:164|274:164|275:162|277:160|277:160|279:160|279:160|277:158|277:158|279:155|280:153|280:153|279:152|279:152|281:152|281:152|284:150|285:148|285:148|287:149|287:149|286:146|286:146|288:145|290:143|290:143|289:141|289:141|291:141|291:141|294:140|295:139|295:139|297:139|297:139|297:136|297:136|300:135|302:134|302:134|301:132|301:132|304:134|304:134|306:132|309:131|309:131|310:133|310:133|311:131|311:131|314:129|316:129|316:129|317:127|317:127|318:129|318:129|320:129|322:128|322:128|324:130|324:130|325:127|325:127|328:128|330:127|330:127|331:126|331:126|332:128|332:128|335:127|337:128|337:128|338:130|338:130|339:128|339:128|342:129|344:128|344:128|345:126|345:126|347:129|347:129|350:129|352:130,1,320.625012230874,6|0,3:1|0:0,0:0:0:0:
396,185,122415,6,0,L|389:250,1,35.625001358986,2|0,0:0|0:0,0:0:0:0:
404,79,122567,2,0,L|407:43,1,35.625001358986,8|0,0:3|0:0,0:0:0:0:
497,307,122719,6,0,B|491:304|491:304|491:301|491:301|489:303|489:303|484:300|484:300|483:301|483:301|483:299|483:299|478:297|478:297|478:295|478:295|476:296|476:296|471:293|471:293|469:295|469:295|469:293|469:293|464:290|464:290|464:288|464:288|463:289|463:289|458:287|458:287|456:288|456:288|456:286|456:286|451:283|451:283|451:281|451:281|449:282|449:282|444:280|444:280|443:281|443:281|443:279|443:279|438:277|438:277|438:274|438:274|436:276|436:276|431:273|431:273|429:275|429:275|429:272|429:272|424:270|424:270|424:268|424:268|423:269|423:269|418:266|418:266|416:268|416:268|416:266|416:266|411:263|411:263|411:261|411:261|409:262|409:262|404:260|404:260|403:261|403:261|403:259|403:259|399:257|399:257|399:258|399:258|396:259|396:259|398:260|398:260|396:266|396:266|398:267|398:267|396:267|396:267|394:273|394:273|392:273|392:273|393:275|393:275|392:280|392:280|393:281|393:281|391:282|391:282|389:287|389:287|387:287|387:287|389:289|389:289|387:294|387:294|388:296|388:296|386:296|386:296|385:301|385:301|382:301|382:301|384:303|384:303|382:309|382:309|384:311|384:311|382:311|382:311|380:316|380:316|378:317|378:317|379:318|379:318|378:323|378:323|379:325|379:325|377:325|377:325|375:331|375:331|373:331|373:331|375:332|375:332|373:338|373:338|374:339|374:339|372:340|372:340|371:345|371:345|368:345|368:345|370:347|370:347|368:352|368:352|370:353|370:353|368:354|368:354|366:358,1,285,6|0,3:1|0:0,0:0:0:0:
293,384,123024,5,10,0:0:0:0:
249,1,123328,5,8,1:3:0:0:
135,155,123633,6,0,B|135:154|135:154|135:151|135:151|135:150|135:150|135:149|135:148|135:148|134:145|134:145|134:144|134:144|134:142|133:142|133:142|133:139|133:139|132:138|132:138|131:137|131:136|131:136|129:136|129:136|129:134|129:134|128:133|128:133|126:130|126:130|125:130|125:130|124:129|123:129|123:129|121:128|121:128|119:126|119:126|119:125|118:125|118:125|117:124|117:124|115:123|115:123|114:123|114:123|111:123|111:123|110:121|110:121|108:120|108:120|105:119|105:119|104:119|104:119|103:119|103:119|102:119|102:119|99:119|99:119|98:118|98:118|97:118|97:118|97:118|95:117|95:117|93:117|93:117|92:116|91:116|91:116|89:116|89:116|88:115|88:115|87:114|86:114|86:114|85:111|85:111|83:111|83:111|82:110|81:110|81:110|79:109|79:109|79:107|79:107|78:107|78:106|78:106|77:104|77:104|74:104|74:104|74:103|74:102|74:102|71:101|71:101|71:99|71:99|70:99|69:98|69:98|69:96|69:96|68:94|68:94|67:94|66:94|66:94|64:92|64:92|64:89|64:89|64:89|63:88|63:88|63:85|63:85|62:83|62:83|62:83|62:82|62:82|60:80|60:80|60:79|60:79|60:78|60:77|60:77|60:75|60:75|60:74|60:74|60:72|60:71|60:71|59:69|59:69|59:67|59:67|59:66|59:65|59:65|60:63|60:63|59:61|59:61|60:61|60:60|60:60|59:58|59:58|60:56|60:56|60:55|60:54|60:54|61:53|61:53|61:50|61:50|61:49|61:48|61:48|61:47|61:47|63:45|63:45|63:43|63:43|63:43|65:43|65:43|65:40|65:40|65:39|66:38|66:38|66:37|66:37|68:35|68:35|69:34|69:33|69:33|71:33|71:33|71:30|71:30|72:29|73:29|73:29|74:27|74:27|75:26|75:26|76:25|76:24|76:24|79:24|79:24|79:23|79:23|79:22|80:21|80:21|81:19|81:19|84:18|84:18|84:18|84:18|84:18|87:18|87:18|89:16|89:16|89:15|90:15|90:15|91:13|91:13|94:13|94:13|95:12|95:12|95:12|97:12|97:12|99:11|99:11|99:11|100:11|100:11|102:9|102:9|104:9|104:9|105:9|106:9|106:9|108:10|108:10|110:8|110:8|111:8|112:8|112:8|114:7|114:7|116:8|116:8|116:8|117:8|117:8|119:9|119:9|121:9|121:9|122:9|123:9|123:9|125:8|125:8|127:10|127:10|128:10|129:10|129:10|130:12|130:12|133:12|133:12|134:12|135:12|135:12|136:12|136:12|138:14|138:14|139:14|140:15|140:15|140:17|140:17|143:17|143:17|144:18|145:18|145:18|146:18|146:18|148:20|148:20|149:21|149:21|151:23|151:23|152:24|152:24|153:24|153:24|153:24|155:25|155:25|155:27|155:27|156:28|157:28|157:28|157:31|157:31|160:32|160:32|160:33|160:33|160:33|162:35|162:35|163:37|163:37|163:38|164:38|164:38|164:41|164:41|166:43|166:43|166:43|166:43|166:43|168:45|168:45|168:47|168:47|168:48|168:48|168:48|168:51|168:51|170:53|170:53|170:53|170:54|170:54|171:57|171:57|171:58|171:58|171:59|171:60|171:60|171:62|171:62|171:63|171:63|171:65|171:65|172:68|172:68|171:69|171:69|171:71|171:71|171:71|170:74|170:74|171:75|171:75|171:76|170:78|170:78|171:79|171:79|169:80|169:80|169:81|168:82|168:82|166:83|166:83|166:86|166:86|166:88|164:90,1,334.874994890213,6|0,3:0|0:0,0:0:0:0:
211,131,123937,6,0,L|240:141,1,23.75,2|0,0:0|0:0,0:0:0:0:
199,208,124090,2,0,L|221:215,1,23.75,10|0,0:3|0:0,0:0:0:0:
1,234,124242,6,0,B|22:219|22:219|28:228|28:228|65:241|65:241|80:266,1,95,10|0,0:0|0:0,0:0:0:0:
304,344,124547,6,0,B|302:340|301:340|301:340|302:338|302:338|300:338|300:338|298:335|297:335|297:335|296:335|296:335|296:333|296:333|295:332|292:330|292:330|293:328|293:328|292:329|292:329|288:327|288:326|288:326|286:327|286:327|287:325|287:325|283:323|282:323|282:323|282:321|282:321|281:322|281:322|277:321|277:321|277:321|275:322|275:322|275:320|275:320|273:319|270:319|270:319|270:317|270:317|269:318|269:318|265:318|265:318|265:318|263:320|263:320|263:317|263:317|261:317|258:317|258:317|257:317|257:317|257:318|257:318|253:318|252:318|252:318|251:320|251:320|250:319|250:319|248:319|246:320|246:320|244:319|244:319|244:321|244:321|241:321|239:323,1,95,6|0,3:1|0:0,0:0:0:0:
177,285,124699,6,0,L|116:302,1,35.625001358986
304,187,124851,6,0,L|319:125,1,35.625001358986,10|0,0:3|0:0,0:0:0:0:
386,326,125003,6,0,L|431:370,1,35.625001358986,8|0,0:3|0:0,0:0:0:0:
485,324,125156,1,10,0:3:0:0:
30,384,125460,6,0,B|25:369|25:369|87:85,1,285.000010871888,8|2,0:0|0:0,0:0:0:0:
348,14,126069,6,0,B|346:12|344:11|344:11|344:9|344:9|342:10|342:10|340:8|338:7|338:7|337:8|337:8|337:6|337:6|335:5|333:4|333:4|333:2|333:2|331:4|331:4|329:3|327:2|327:2|326:3|326:3|325:1|325:1|323:0|321:0|321:0|320:-2|320:-2|319:0|319:0|317:-1|315:-1|315:-1|313:0|313:0|313:-2|313:-2|310:-2|308:-3|308:-3|308:-5|308:-5|307:-3|307:-3|304:-3|301:-3|301:-3|300:-1|300:-1|299:-4|299:-4|298:-4|295:-4|295:-4|294:-5|294:-5|293:-4|293:-4|291:-3|288:-3|288:-3|288:-1|288:-1|287:-3|287:-3|284:-3|282:-2|282:-2|281:-4|281:-4|280:-2|280:-2|278:-1|276:-1|276:-1|275:1|275:1|274:0|274:0|271:0|269:0|269:0|268:0|268:0|268:1|268:1|265:2|263:3|263:3|263:4|263:4|261:4|261:4|259:4|258:5|258:5|256:4|256:4|256:6|256:6|253:8|252:9|252:9|252:11|252:11|250:10|250:10|248:12|247:13|247:13|245:12|245:12|245:14|245:14|243:15|241:17|241:17|242:18|242:18|240:18|240:18|238:20|237:21|237:21|235:21|235:21|236:23|236:23|234:24|233:26|233:26|234:28|234:28|231:28|231:28|230:30|228:32|228:32|227:32|227:32|228:33|228:33|227:35|226:37|226:37|227:39|227:39|225:39|225:39|223:42|223:43|223:43|220:43|220:43|222:44|222:44|221:47|220:49|220:49|221:50|221:50|219:51|219:51|219:53|218:55|218:55|217:55|217:55|218:57|218:57|218:60|217:62|217:62|218:63|218:63|217:63|217:63|217:66|216:68|216:68|214:68|214:68|216:70|216:70|216:73|216:74|216:74|218:75|218:75|216:76|216:76|216:79|216:81|216:81|213:82|213:82|216:83|216:83|216:85|216:87|216:87|218:88|218:88|216:89|216:89|216:90|216:90|219:92|219:92|219:93|219:93|221:93|221:93|226:94|226:94|228:93|228:93|228:95|228:95|232:97|232:97|232:99|232:99|234:98|234:98|238:100|238:100|239:98|239:98|240:101|240:101|245:103|245:103|245:104|245:104|246:103|246:103|250:105|250:105|252:103|252:103|252:105|252:105|257:108|257:108|257:110|257:110|258:108|258:108|259:109,1,320.625012230874,6|0,3:0|0:0,0:0:0:0:
322,146,126374,6,0,B|330:134|330:134|335:81,1,35.625001358986,2|0,0:0|0:0,0:0:0:0:
218,193,126526,2,0,B|230:185|230:185|283:180,1,35.625001358986,8|0,0:3|0:0,0:0:0:0:
507,240,126679,6,0,B|480:249|480:249|415:297,1,95,10|2,0:0|0:0,0:0:0:0:
78,299,126983,6,0,B|73:298|73:298|71:299|71:299|71:298|71:298|65:297|65:297|65:295|65:295|63:297|63:297|59:296|59:296|58:298|58:298|57:296|57:296|52:295|52:295|51:293|51:293|50:294|50:294|45:294|45:294|44:295|44:295|43:293|43:293|38:292|38:292|37:290|37:290|36:292|36:292|30:291|30:291|32:291|32:291|31:293|31:293|34:297|34:297|33:299|33:299|35:299|35:299|37:302|37:302|40:302|40:302|39:304|39:304|42:308|42:308|41:310|41:310|43:310|43:310|46:314|46:314|48:313|48:313|47:315|47:315|49:320|49:320|49:322|49:322|50:321|50:321|54:327|54:327|55:325|55:325|56:327|56:327|58:327|58:327|61:328|61:328|61:330|61:330|62:329|62:329|66:332|66:332|68:331|68:331|68:333|68:333|72:337|72:337|72:339|72:339|74:338|74:338|78:341|78:341|79:340|79:340|79:341|79:341|83:344|83:344|83:346|83:346|85:345|85:345|89:349|89:349|91:347|91:347|91:350|91:350|94:353|94:353|94:355|94:355|96:354|96:354|101:356|101:356|103:355|103:355|102:357|102:357|106:360|106:360|106:363|106:363|107:362|107:362|112:365|112:365|114:364|114:364|113:366|113:366|115:367|115:367|118:365|118:365|120:366|120:366|119:364|119:364|123:360|123:360|122:358|122:358|124:359|124:359|129:356|129:356|131:357|131:357|130:355|130:355|134:352|134:352|134:350|134:350|135:351|135:351|139:347|139:347|141:348|141:348|141:346|141:346|145:343|145:343|145:341|145:341|147:341|147:341|150:339|150:339|152:340|152:340|152:338|152:338|156:334|156:334|156:332|156:332|158:333|158:333|162:330|162:330|163:331|163:331|162:328|162:328|167:326|167:326|166:324|166:324|168:325|168:325|173:321|173:321|175:322|175:322|174:320|174:320|178:317|178:317|177:315|177:315|179:316|179:316|183:313|183:313|185:313|185:313|185:312|185:312|189:308|189:308|189:306|189:306|191:307|191:307|194:304|194:304|196:305|196:305|196:303|196:303|198:301,1,356.25,6|0,3:1|0:0,0:0:0:0:
263,345,127288,6,0,B|271:333|271:333|277:282,1,35.625001358986,2|0,0:0|0:0,0:0:0:0:
113,151,127440,2,0,B|105:138|105:138|61:112,1,35.625001358986,8|0,0:3|0:0,0:0:0:0:
18,164,127592,5,6,3:1:0:0:
150,237,127745,5,0,0:0:0:0:
213,0,127897,6,0,B|193:15|193:15|181:76|181:76|194:127,1,123.499994346619,10|8,0:0|1:3,0:0:0:0:
505,122,128506,6,0,B|501:119|499:119|499:119|498:117|498:117|497:118|497:118|495:117|492:117|492:117|491:119|491:119|490:116|490:116|487:116|485:116|485:116|484:114|484:114|483:115|483:115|480:115|478:114|478:114|477:117|477:117|476:116|476:116|473:115|471:116|471:116|470:115|470:115|469:116|469:116|466:117|464:118|464:118|464:121|464:121|462:118|462:118|459:121|457:122|457:122|456:119|456:119|456:122|456:122|453:124|451:125|451:125|452:127|452:127|450:126|450:126|447:128|445:130|445:130|443:129|443:129|443:130|443:130|441:133|440:135|440:135|441:137|441:137|439:136|439:136|437:139|436:141|436:141|433:140|433:140|435:142|435:142|433:145|432:147|432:147|433:149|433:149|431:149|431:149|430:151|429:152|429:152|427:154|427:154|427:155|427:155|427:158|426:160|426:160|427:162|427:162|425:161|425:161|424:165|424:167|424:167|422:167|422:167|423:168|423:168|421:171|422:173|422:173|424:175|424:175|421:174|421:174|420:179|419:182|419:182|417:182|417:182|419:184|419:184|419:185|419:185|418:187|418:189|418:189|420:190|420:190|418:191|418:191|416:193|417:195|417:195|414:196|414:196|416:197|416:197|415:200|415:202|415:202|416:204|416:204|414:204|414:204|413:207|411:209|411:209|409:209|409:209|412:211|412:211|410:214|410:216|410:216|411:217|411:217|409:217|409:217|406:220|406:222|406:222|404:222|404:222|405:224|405:224|404:226|402:228|402:228|403:230|403:230|401:230|401:230|399:232|398:233|398:233|396:233|396:233|396:236|396:236|394:238|392:239|392:239|393:241|393:241|390:240|390:240|388:242|386:243|386:243|384:242|384:242|384:244|384:244|381:246|379:247|379:247|378:249|378:249|377:247|377:247|375:247|373:249|373:249|371:247|371:247|371:250|371:250|368:250|366:251|366:251|365:253|365:253|364:251|364:251|361:252|359:252|359:252|357:250|357:250|357:252|357:252|354:252|352:253|352:253|351:255|351:255|349:253|349:253|346:253|344:253,1,320.625012230874,6|0,3:0|0:0,0:0:0:0:
283,212,128811,6,0,B|299:187|299:187|327:185,1,35.625001358986,2|0,0:0|0:0,0:0:0:0:
291,325,128963,2,0,B|294:320|294:320|281:294,1,35.625001358986,8|0,0:3|0:0,0:0:0:0:
174,359,129115,6,0,B|150:364|150:364|115:360|115:360|107:372|107:372|90:384,1,95,10|0,0:0|0:0,0:0:0:0:
4,70,129420,6,0,B|40:76|40:76|65:59|65:59|135:146|135:146|138:154|138:154|245:168,1,249.375002378225,6|0,3:1|0:0,0:0:0:0:
258,109,129724,6,0,B|264:96|264:96|261:82|261:82|265:76|265:76|269:66|269:66|271:60|271:60|267:37,1,59.375,2|0,0:0|0:0,0:0:0:0:
192,237,129877,2,0,B|198:250|198:250|195:264|195:264|199:270|199:270|203:279|203:279|205:285|205:285|201:309,1,59.375,8|0,0:3|0:0,0:0:0:0:
179,76,130029,5,2,0:0:0:0:
349,8,130181,5,0,0:0:0:0:
504,197,130333,6,0,P|465:155|320:89,1,190,10|2,0:0|0:0,0:0:0:0:
88,345,130943,6,0,B|83:346|83:346|83:349|83:349|81:347|81:347|77:350|77:350|76:349|76:349|76:351|76:351|72:352|72:352|72:354|72:354|70:353|70:353|66:356|66:356|64:354|64:354|64:357|64:357|61:358|61:358|61:360|61:360|59:359|59:359|55:361|55:361|53:360|53:360|53:362|53:362|49:364|49:364|49:366|49:366|47:365|47:365|43:367|43:367|42:366|42:366|42:368|42:368|40:369|40:369|41:366|41:366|40:364|40:364|42:364|42:364|43:360|43:360|45:359|45:359|43:358|43:358|45:354|45:354|43:352|43:352|46:352|46:352|47:347|47:347|49:347|49:347|48:346|48:346|49:341|49:341|48:340|48:340|50:339|50:339|51:335|51:335|54:335|54:335|52:333|52:333|54:329|54:329|52:328|52:328|54:327|54:327|55:323|55:323|57:323|57:323|56:321|56:321|58:317|58:317|56:315|56:315|58:315|58:315|60:311|60:311|62:311|62:311|61:309|61:309|62:305|62:305|61:303|61:303|62:303|62:303|64:299|64:299|66:298|66:298|65:297|65:297|66:293|66:293|65:291|65:291|67:291|67:291|68:287|68:287|70:286|70:286|69:285|69:285|70:280|70:280|69:279|69:279|71:279|71:279|73:274|73:274|75:274|75:274|73:273|73:273|75:268|75:268|74:267|74:267|75:266|75:266|77:261|77:261|79:261|79:261|77:260|77:260|79:255|79:255|78:255|78:255|80:254|80:254|81:249|81:249|83:249|83:249|81:248|81:248|83:243|83:243|81:242|81:242|84:242|84:242|85:237|85:237|88:237|88:237|86:236|86:236|88:231|88:231|86:229|86:229|88:229|88:229|89:225|89:225|91:224|91:224|90:223|90:223|92:219|92:219|90:217|90:217|92:217|92:217|94:213|94:213|94:211|94:211|92:211|92:211|88:209|88:209|87:209|87:209|88:207|88:207|84:204|84:204|84:202|84:202|82:203|82:203|79:199|79:199|77:200|77:200|78:198|78:198|75:195|75:195|75:193|75:193|73:194|73:194|69:191|69:191|68:191|68:191|68:190|68:190|65:186|65:186|65:184|65:184|63:185|63:185|60:182|60:182|58:183|58:183|59:181|59:181|55:178|55:178|55:176|55:176|54:177|54:177|49:172,1,356.25,4|0,3:0|0:0,0:0:0:0:
75,95,131247,6,0,B|65:100|65:100|113:125,1,47.5,2|0,0:0|0:0,0:0:0:0:
180,354,131399,2,0,B|182:364|182:364|217:323,1,47.5,8|0,0:3|0:0,0:0:0:0:
355,271,131552,6,0,B|278:299|278:299|295:325|295:325|284:369,1,142.500005435944,10|0,0:0|0:0,0:0:0:0:
202,86,131856,6,0,B|205:49|205:49|266:34,1,71.2500027179719,6|0,3:1|0:0,0:0:0:0:
251,148,132009,2,0,B|228:175|228:175|169:155,1,71.2500027179719,8|0,0:3|0:0,0:0:0:0:
123,10,132161,5,8,0:3:0:0:
301,86,132313,5,8,0:3:0:0:
487,37,132465,6,0,B|482:38|482:38|482:38|480:37|480:37|480:40|480:40|478:40|475:40|475:40|475:43|475:43|474:42|474:42|470:43|470:43|468:44|468:44|469:45|469:45|467:46|464:47|464:47|464:49|464:49|463:48|463:48|459:50|457:51|457:51|456:49|456:49|456:51|456:51|454:52|451:54|451:54|452:56|452:56|450:54|450:54|447:58|447:58|446:57|446:57|446:59|446:59|442:59|441:61|441:61|441:63|441:63|440:62|440:62|436:64|434:65|434:65|433:64|433:64|434:65|434:65|431:69|431:69|431:69|431:72|431:72|429:70|429:70|425:72|425:72|425:72|424:71|424:71|424:73|424:73|421:75|419:77|419:77|419:79|419:79|418:78|418:78|415:81|415:82|415:82|414:81|414:81|412:83|412:83|411:84|411:86|411:86|412:87|412:87|408:86|408:86|405:89|405:91|405:91|404:90|404:90|404:92|404:92|401:94|399:95|399:95|400:97|400:97|398:97|398:97|395:99|396:99|396:99|394:99|394:99|394:100|394:100|392:102|391:104|391:104|392:106|392:106|389:105|389:105|388:108|386:110|386:110|384:110|384:110|385:111|385:111|384:112|381:114|381:114|383:116|383:116|381:116|381:116|379:118|376:119|376:119|375:119|375:119|375:120|375:120|373:124|373:124|373:124|374:127|374:127|372:127|372:127|371:129|370:129|370:129|368:129|368:129|369:131|369:131|367:133|365:136|365:136|366:136|366:136|365:137|365:137|363:139|362:140|362:140|360:140|360:140|360:142|360:142|359:146|358:146|358:146|360:148|360:148|358:148|358:148|356:150|354:153|354:153|352:151|352:151|353:154|353:154|352:155|351:157|351:157|351:159|351:159|349:159|349:159|349:163|347:164|347:164|346:162|346:162|347:165|347:165|345:169|345:169|345:169|346:171|346:171|344:170|344:170|343:173|342:175|342:175|340:175|340:175|340:176|340:176|339:179|338:182|338:182|340:182|340:182|338:183|338:183|336:185|336:187|336:187|333:187|333:187|334:188|334:188|333:192|333:192|333:192|335:195|335:195|331:195|331:195|332:197|330:198|330:198|329:199|329:199|330:200|330:200|328:204|328:204|328:204|328:205,1,285,6|0,3:1|0:0,0:0:0:0:
285,225,132770,5,10,0:0:0:0:
0,169,133075,1,8,1:3:0:0:
72,292,133379,6,0,B|62:233|62:233|43:236,1,71.2500027179719,4|0,3:0|0:0,0:0:0:0:
143,163,133531,6,0,B|138:173|138:173|82:152,1,71.2500027179719,8|0,0:3|0:0,0:0:0:0:
140,361,133684,6,0,B|132:352|132:352|194:306,1,76,2|0,0:0|0:0,0:0:0:0:
192,40,133836,6,0,B|182:45|182:45|221:130,1,90.2499975900651,8|0,0:3|0:0,0:0:0:0:
107,37,133988,1,10,0:0:0:0:
481,223,134293,6,0,B|479:224|479:224|478:224|478:224|475:225|475:225|473:224|473:224|471:225|471:225|471:225|469:227|469:227|466:228|466:228|465:228|465:230|465:230|462:231|462:231|459:231|459:231|459:231|458:231|458:231|456:231|456:231|455:234|455:234|453:234|453:237|453:237|452:238|452:238|449:238|449:238|448:240|448:240|448:240|446:241|446:241|445:244|445:244|443:244|443:245|443:245|442:247|442:247|441:248|441:248|441:250|439:251|439:251|438:252|438:252|438:254|438:254|436:255|436:257|436:257|435:258|435:258|433:261|433:261|433:261|433:262|433:262|432:264|432:264|431:267|431:267|431:268|432:268|432:268|431:272|431:272|429:274|429:274|429:274|429:275|429:275|428:278|428:278|428:281|428:281|426:281|428:281|428:281|428:284|428:284|426:287|426:287|425:288|426:288|426:288|425:291|425:291|425:292|425:292|425:294|425:295|425:295|425:298|425:298|423:301|423:301|423:302|423:302|423:302|422:305|422:305|422:307|422:307|422:308|422:308|422:308|422:311|422:311|422:314|422:314|421:314|421:315|421:315|419:317|419:317|421:320|421:320|419:321|419:322|419:322|419:324|419:324|419:327|419:327|418:328|418:330|418:330|415:331|415:331|416:332|416:332|415:334|416:335|416:335|416:338|416:338|415:340|415:340|413:341|413:341|413:341|411:342|411:342|411:345|411:345|411:345|411:348|411:348|409:350|409:350|406:351|406:351|406:351|405:351|405:351|402:352|402:352|401:354|401:354|399:354|399:354|399:354|396:354|396:354|393:352|393:352|393:352|392:352|392:352|391:351|391:351|388:350|388:350|388:350|386:348|386:348|383:347|383:347|383:344|383:344|382:344|382:344|382:341|382:341|379:340|379:340|379:338|378:338|378:338|376:335|376:335|375:334|375:334|375:332|373:331|373:331|375:330|375:330|372:327|372:327|372:327|372:325|372:325|369:324|369:324|371:322|371:322|369:320|369:320|369:320|368:317|368:317|366:315|366:315|366:315|366:314|366:314|365:311|365:311|363:310|363:310|363:308|363:308|363:305|363:305|362:302|362:302|361:301|359:301|359:301|358:300|358:300|358:297|358:297|358:295|358:295|356:292|356:292|355:291|355:291|355:290|355:290|352:287|352:287|352:285|352:285|351:284|351:282|351:282|351:280|351:280|348:278|348:278|348:278|348:277|348:277|346:275|346:275|345:272|345:272|344:272|344:271|344:271|342:270|342:270|341:268|341:268|339:267|339:265|339:265|338:265|338:265|335:262|335:262|335:262|335:261|335:261|334:260|334:260|329:258|329:258|329:258|328:258|328:258|326:258|326:258|325:257|325:257|324:255|322:255|322:255|321:252|321:252|318:252|318:252|318:252|316:252|316:252|315:252|315:252|312:251|312:251|311:250|311:251|311:251|306:250|306:250|304:250|304:250|304:250|302:250|302:250|301:251|301:251|298:250|298:250|296:250|296:250|294:248|294:248|292:250|292:250|289:250|289:250|289:250|286:251|285:250,1,356.25,6|0,3:1|0:0,0:0:0:0:
274,173,134597,6,0,B|263:147|263:147|300:78,1,71.2500027179719,8|0,0:3|0:0,0:0:0:0:
425,128,134750,6,0,B|383:117|383:117|361:134,1,71.2500027179719,8|0,0:3|0:0,0:0:0:0:
286,329,134902,6,0,B|262:334|262:334|246:319|246:319|227:325|227:325|206:295|206:295|199:292|199:292|174:298|174:298|161:300|161:300|138:306,1,142.500005435944,2|8,0:0|0:3,0:0:0:0:
3,71,135207,6,0,B|22:180|22:180|20:206|38:368,1,285.000010871888,10|2,0:0|0:0,0:0:0:0:
213,68,135816,6,0,B|234:-7|234:-7|232:42,1,95,4|0,3:0|0:0,0:0:0:0:
151,163,135968,6,0,B|91:113|91:113|134:135,1,95,8|0,0:3|0:0,0:0:0:0:
133,51,136120,5,2,0:0:0:0:
246,231,136273,5,8,0:3:0:0:
100,382,136425,6,0,B|93:362|93:362|87:353|87:353|82:351|81:343|81:343|91:341|106:341|106:341|121:348|121:348|127:346|135:346|135:346|143:351|143:351|158:359|158:359|168:357|168:357|174:362|174:362|185:362|169:365|169:365|163:367|178:371|178:371|183:371|187:369|187:369|226:381,1,190,10|0,0:0|0:0,0:0:0:0:
470,63,136729,6,0,B|467:63|464:63|464:63|466:61|466:61|463:63|463:63|462:62|462:62|461:64|461:64|460:64|460:64|460:68|460:68|458:65|458:65|456:65|455:65|455:65|454:67|454:67|456:64|456:64|453:66|453:66|452:65|452:65|449:66|447:67|447:67|444:69|444:69|446:66|446:66|445:65|445:65|444:68|444:68|443:68|443:68|441:64|441:64|441:68|441:68|439:69|438:69|438:69|437:72|437:72|434:74|434:74|436:71|436:71|435:70|435:70|430:72|430:72|431:68|431:68|428:71|428:71|428:73|428:73|425:74|425:74|426:78|426:78|424:74|424:74|422:75|422:75|421:78|421:78|423:74|423:74|419:76|419:76|416:77|414:79|414:79|411:81|411:81|413:78|413:78|411:77|411:77|411:80|411:80|408:77|408:77|409:81|409:81|405:82|405:82|405:85|405:85|403:88|403:88|403:84|403:84|400:85|397:86|397:86|396:85|396:85|392:86|392:86|396:87|396:87|396:88|396:88|393:89|391:91|391:91|390:93|390:93|388:96|388:96|388:92|388:92|385:94|383:95|383:95|383:90|383:90|381:94|381:94|380:94|380:94|380:97|380:97|379:98|379:98|380:100|380:100|377:99|377:99|376:99|375:99|375:99|375:101|375:101|373:101|373:101|371:99|371:99|371:102|371:102|369:103|368:104|368:104|365:103|365:103|369:104|369:104|365:105|365:105|365:106|365:106|362:108|361:110|361:110|361:112|361:112|361:108|361:108|360:111|360:111|359:111|359:111|355:115|355:115|354:119|354:119|353:115|353:115|352:115|352:115|352:117|352:117|350:119|350:119|347:117|347:117|349:120|349:120|348:121|348:121|348:124|348:124|346:123|346:123|348:126|348:126|345:124|345:124|343:126|341:127|341:127|339:127|339:127|336:128|336:128|339:128|339:128|339:129|339:129|337:132|335:134|335:134|336:135|336:135|335:139|335:139|334:135|334:135|333:135|333:135|329:139|329:139|327:139|327:139|325:140|325:140|327:141|327:141|327:142|327:142|324:146|324:146|327:146|327:146|325:148|325:148|325:149|325:149|322:149|322:149|322:150|322:150|318:148|318:148|320:151|320:151|319:153|319:153|316:153|316:153|321:153|321:153|317:155|317:155|317:156|317:156|315:159|314:161|314:161|314:163|314:163|313:160|313:160|312:163|312:163|310:166|309:168|309:168|308:171|308:171|307:168|307:168|306:168|306:168|307:170|307:170|306:171|306:171|306:171|302:171|302:171|305:172|305:172|304:174|304:175|304:175|305:177|305:177|304:181|304:181|303:177|303:177|302:177|302:177|301:180|299:182|299:182|297:183|297:183|294:185|294:185|298:185|298:185|297:188|295:190|295:190|299:190|299:190|296:192|296:192|296:193|296:193|294:193|294:193|293:195|293:195|289:194|289:194|292:197|292:197|291:198|291:199|291:199|289:199|289:199|290:201|290:201|293:203|293:203|289:203|289:203|289:207|289:207|289:208|289:208|288:206|288:206|288:209|288:209|286:212|286:214|286:214|286:219|286:219|284:215|284:215|283:215|283:215|285:217|285:217|285:218|285:218|280:218|280:218|284:220|284:220|283:223|283:223|284:225|284:225|282:225|282:225|285:227|285:227|281:227|281:227|280:231|280:231|278:232|278:232|275:234|275:234|279:234|279:234|278:237|278:240|278:240|279:242|279:242|280:245|280:245|277:243|277:243|276:245|276:248|276:248|274:245|274:245|274:249|274:249|275:251|275:251|275:252|275:253|275:253|278:255|278:255|274:255|274:255|274:256|274:257|274:257|276:258|276:258|274:259|274:259|271:259|271:259|274:261|274:261|273:263|273:265|273:265|271:267|271:267|273:264|273:264|273:268|273:268|272:271|272:274|272:274|270:277|270:277|273:275|273:275|274:276|274:276|272:277|272:277|272:278|272:279|272:279|275:280|275:280|271:280|271:280|271:281|271:282|271:282|269:284|269:284|271:285|271:285|268:286|268:286|271:287|271:287|271:291|271:291|273:293|273:293|274:297|274:297|271:294|271:294|271:300|271:300|268:298|268:298|270:301|270:301|269:302|269:302|271:303|271:303|271:305|271:305|275:306|275:306|271:307|271:307|271:309|271:309|273:311|273:311|272:312|272:312|269:313|269:313|272:314|272:314|272:317|272:317|270:319|270:319|272:316|272:316|272:320|272:320|273:323|273:326|273:326|275:327|275:327|274:329|274:329|274:332,1,760,6|2,3:1|0:0,0:0:0:0:
266,353,137948,5,10,0:0:0:0:
265,359,138252,6,0,L|245:227,1,118.75,6|0,3:2|0:0,0:0:0:0:
379,102,138404,6,0,L|425:34,1,71.2500027179719,2|0,0:2|0:0,0:0:0:0:
439,328,138557,6,0,B|420:339|420:339|329:255,1,118.75,14|0,0:2|0:0,0:0:0:0:
177,167,138709,6,0,B|171:187|171:187|-17:256,1,166.250001585484,2|0,0:2|0:0,0:0:0:0:
222,18,138861,6,0,B|201:195|201:195|202:197|202:197|180:380,1,332.500003170967,6|2,0:2|3:2,0:0:0:0:
81,85,139166,5,14,0:2:0:0:
321,167,139318,1,2,0:2:0:0:
285,278,139470,6,0,B|272:264|272:264|281:238,1,47.5,6|0,3:2|0:0,0:0:0:0:
420,57,139623,6,0,L|219:106,1,118.75,2|0,3:2|0:0,0:0:0:0:
231,106,139775,1,14,0:2:0:0:
136,291,139927,6,0,B|146:266|146:266|216:237,1,71.2500027179719,2|0,0:2|0:0,0:0:0:0:
373,268,140080,6,0,B|441:330|441:330|452:355,1,118.75,6|0,0:2|0:0,0:0:0:0:
143,168,140232,6,0,B|118:178|118:178|0:252,1,166.250001585484,2|0,3:2|0:0,0:0:0:0:
43,339,140384,5,14,0:2:0:0:
39,348,140689,6,0,L|167:378,1,118.75,6|0,3:2|0:0,0:0:0:0:
329,195,140841,6,0,L|390:144,1,71.2500027179719,2|0,0:2|0:0,0:0:0:0:
338,350,140993,5,14,0:2:0:0:
266,315,141146,1,2,0:2:0:0:
472,170,141298,5,6,0:2:0:0:
178,241,141450,6,0,L|95:209,1,71.2500027179719,2|0,3:2|0:0,0:0:0:0:
406,34,141602,6,0,B|423:184|423:184|422:186|422:186|443:363,1,332.500003170967,14|2,0:2|0:2,0:0:0:0:
382,113,141907,5,6,3:2:0:0:
472,291,142059,5,2,3:2:0:0:
475,296,142135,1,2,3:2:0:0:
469,296,142212,1,14,0:2:0:0:
207,58,142364,6,0,L|123:77,1,71.2500027179719,2|0,0:2|0:0,0:0:0:0:
12,179,142516,6,0,B|21:187|21:187|149:211,1,118.75,6|0,0:2|0:0,0:0:0:0:
320,52,142668,6,0,B|308:55|308:55|208:173,1,166.250001585484,2|0,3:2|0:0,0:0:0:0:
85,310,142821,6,0,P|74:291|86:310,1,71.25,14|0,0:3|0:0,0:0:0:0:
120,375,143125,6,0,B|83:330|83:330|27:354,1,118.75,6|0,3:2|0:0,0:0:0:0:
281,216,143278,6,0,L|298:299,1,71.2500027179719,2|0,3:2|0:0,0:0:0:0:
243,353,143430,5,14,0:2:0:0:
181,310,143582,1,2,0:2:0:0:
436,138,143734,5,6,0:2:0:0:
359,367,143887,2,0,L|376:284,1,71.2500027179719,2|0,3:2|0:0,0:0:0:0:
218,79,144039,6,0,B|235:115|235:115|321:134|321:134|357:103,1,166.250001585484,14|0,0:2|0:0,0:0:0:0:
492,36,144191,2,0,B|450:3|450:3|499:97,1,118.75,2|0,0:2|0:0,0:0:0:0:
487,203,144344,5,6,3:2:0:0:
149,234,144496,2,0,B|163:206|179:170|179:170,1,71.2500027179719,2|0,0:2|0:0,0:0:0:0:
257,203,144648,5,14,0:2:0:0:
69,3,144800,6,0,B|139:93|139:93|161:163,1,118.75,2|0,0:2|0:0,0:0:0:0:
0,292,144953,2,0,B|71:217|71:217|92:131,1,166.250001585484,6|0,0:2|0:0,0:0:0:0:
378,29,145105,6,0,L|182:114,1,166.250001585484,2|0,3:2|0:0,0:0:0:0:
173,7,145257,5,14,0:2:0:0:
175,15,145562,6,0,L|303:45,1,118.75,6|0,3:2|0:0,0:0:0:0:
433,218,145714,6,0,L|516:177,1,71.2500027179719,2|0,0:2|0:0,0:0:0:0:
370,168,145866,5,14,0:2:0:0:
357,246,146019,1,2,0:2:0:0:
497,53,146171,5,6,0:2:0:0:
415,352,146323,6,0,L|332:320,1,71.2500027179719,2|0,3:2|0:0,0:0:0:0:
18,278,146476,6,0,B|168:261|168:261|170:262|170:262|360:240,1,332.500003170967,14|2,0:2|0:2,0:0:0:0:
258,335,146780,5,6,3:2:0:0:
98,235,146932,5,2,3:2:0:0:
101,240,147009,1,2,3:2:0:0:
95,240,147085,1,14,0:2:0:0:
163,384,147237,6,0,B|171:375|171:375|181:296,1,71.2500027179719,2|0,0:2|0:0,0:0:0:0:
15,153,147389,6,0,B|7:144|7:144|-9:28,1,118.75,6|0,0:2|0:0,0:0:0:0:
221,210,147542,6,0,L|149:239,1,47.5,2|0,3:2|0:0,0:0:0:0:
67,0,147694,6,0,L|269:116,1,142.500005435944,14|0,0:2|0:0,0:0:0:0:
429,84,147846,5,8,0:1:0:0:
389,20,147922,5,8,0:1:0:0:
310,30,147998,6,0,B|301:140|301:140|297:146|297:146|299:214|299:214|300:219|300:219|303:296|303:296|310:300|310:300|302:397,1,356.25,4|0,3:2|0:0,0:0:0:0:
339,304,148303,6,0,B|439:272|439:272|475:291,1,118.75,14|0,0:2|0:0,0:0:0:0:
461,354,148455,1,2,0:2:0:0:
279,115,148608,5,4,0:0:0:0:
278,126,148684,1,2,0:0:0:0:
270,119,148760,2,0,B|258:130|258:130|179:105,1,71.2500027179719,2|0,3:2|0:0,0:0:0:0:
179,42,148912,5,12,0:2:0:0:
245,377,149064,6,0,L|264:211,1,166.250001585484,2|0,0:2|0:0,0:0:0:0:
90,82,149217,6,0,L|67:13,1,71.2500027179719,4|0,3:2|0:0,0:0:0:0:
13,119,149369,5,2,0:2:0:0:
158,292,149521,2,0,B|139:296|139:296|50:387,1,118.75,12|0,0:2|0:0,0:0:0:0:
76,170,149674,6,0,L|222:229,1,118.75,2|0,0:2|0:0,0:0:0:0:
402,121,149826,1,4,0:0:0:0:
336,384,149978,5,2,3:2:0:0:
343,376,150054,1,2,3:2:0:0:
332,375,150130,1,12,0:2:0:0:
274,318,150283,6,0,L|204:346,1,71.2500027179719,2|0,0:2|0:0,0:0:0:0:
334,61,150435,5,4,3:2:0:0:
465,274,150587,6,0,B|484:260|484:260|500:92,1,166.250001585484,2|0,0:2|0:0,0:0:0:0:
351,265,150740,6,0,B|381:285|381:285|409:338|409:338|452:410,1,118.75,12|0,0:2|0:0,0:0:0:0:
254,27,150892,6,0,B|234:57|234:57|-7:205,2,285.000010871888,2|4|2,0:2|0:0|3:2,0:0:0:0:
39,10,151273,5,2,0:0:0:0:
73,75,151349,6,0,L|151:97,1,71.2500027179719,14|0,0:2|0:0,0:0:0:0:
186,315,151501,6,0,B|185:308|185:308|105:164,1,166.250001585484,2|0,0:2|0:0,0:0:0:0:
0,110,151653,1,4,3:2:0:0:
89,384,151806,5,2,0:2:0:0:
92,373,151882,1,2,0:0:0:0:
81,377,151958,1,14,0:2:0:0:
187,233,152110,6,0,L|222:119,1,118.75,2|0,0:2|0:0,0:0:0:0:
402,71,152262,6,0,L|386:-13,1,71.2500027179719,4|0,0:0|0:0,0:0:0:0:
271,333,152415,5,2,3:2:0:0:
279,340,152491,1,2,3:2:0:0:
280,330,152567,1,12,0:2:0:0:
359,298,152719,6,0,L|450:327,1,71.2500027179719,2|0,0:2|0:0,0:0:0:0:
254,62,152871,6,0,B|223:52|223:52|214:43|214:43|176:20|176:20|151:11|151:11|130:18|130:18|98:24|98:24|86:14|86:14|72:13|72:13|66:27|66:27|58:44|58:44|40:68|40:68|33:70|33:70|29:78|29:78|16:98|16:98|16:104|16:104|13:113|13:113|7:141|7:141|6:160|6:160|-11:186|-11:186|-1:237|-1:237|28:248|28:248|143:277,1,498.750004756451,4|0,3:2|0:0,0:0:0:0:
149,384,153176,6,0,L|102:212,1,118.75,14|0,3:2|0:0,0:0:0:0:
161,98,153328,6,0,B|168:113|168:113|139:207,1,71.2500027179719
80,185,153481,5,6,0:2:0:0:
16,135,153633,1,0,3:2:0:0:
246,279,153785,6,0,L|327:252,1,71.2500027179719,14|0,0:2|0:0,0:0:0:0:
97,279,153938,6,0,B|32:351|32:351|43:370,1,118.75
302,158,154090,6,0,B|282:152|282:152|213:-36,1,166.250001585484,6|0,3:2|0:0,0:0:0:0:
153,16,154242,1,0,0:0:0:0:
393,176,154394,5,14,3:2:0:0:
450,116,154547,1,0,0:0:0:0:
203,200,154699,5,6,0:2:0:0:
387,361,154851,5,0,3:2:0:0:
377,366,154927,1,2,3:2:0:0:
385,371,155003,1,14,0:2:0:0:
452,318,155156,2,0,P|457:282|465:248,1,71.2500027179719
211,0,155308,6,0,B|195:16|195:16|191:64|191:64|193:79|193:79|188:105|188:105|218:184|218:184|235:198|235:198|237:212|237:212|236:214|236:214|277:286|277:286|291:303|291:303|285:331|285:331|279:360|279:360|292:421,1,427.500016307831,4|0,3:2|0:0,0:0:0:0:
397,217,155613,6,0,B|377:222|377:222|349:229|349:229|316:244|316:244|234:265,1,118.75,14|0,0:2|0:0,0:0:0:0:
148,70,155765,6,0,B|107:58|107:58|59:39|59:39|51:55|51:55|9:72|9:72|-62:116,1,166.250001585484
33,211,155917,5,6,0:2:0:0:
393,83,156069,6,0,B|409:86|409:86|495:120,1,71.2500027179719,0|0,3:2|0:0,0:0:0:0:
197,201,156222,6,0,B|161:230|161:230|156:239|156:239|141:263|141:263|145:271|145:271|117:323,1,118.75,14|0,0:2|0:0,0:0:0:0:
285,16,156374,6,0,B|291:26|291:26|298:48|298:48|298:66|298:66|331:143|331:143|327:176,1,166.250001585484
207,372,156526,6,0,B|207:363|207:363|204:354|204:354|199:337,1,35.625001358986,6|0,3:2|0:0,0:0:0:0:
107,171,156679,5,0,0:0:0:0:
0,108,156831,1,14,3:2:0:0:
278,321,156983,5,0,0:0:0:0:
458,119,157135,6,0,B|450:149|450:149|451:160|451:160|451:167|451:167|453:168|453:168|445:176|445:176|446:184|446:184|454:194|454:194|449:217|449:217|440:230|440:230|442:242|442:242|434:258|434:258|440:268|440:268|429:356,1,190,6|0,3:2|0:0,0:0:0:0:
485,357,157288,5,0,0:0:0:0:
4,337,157440,6,0,P|65:301|134:290,1,142.500005435944,14|0,3:3|0:0,0:0:0:0:
374,336,182852,5,0,3:2:0:0:
