osu file format v14

[General]
AudioFilename: audio.mp3
AudioLeadIn: 0
PreviewTime: 136882
Countdown: 0
SampleSet: Soft
StackLeniency: 0.5
Mode: 0
LetterboxInBreaks: 0
WidescreenStoryboard: 1

[Editor]
Bookmarks: 235,19717,23659,39209,58702,78194,87940,97686,107416,117179,135131,135150,135169,135188,135208,135227,135246,135265,135284,135303,135322,135341,135360,135379,135398,135417,135436,136654,151578,156174,181248
DistanceSpacing: 0.5
BeatDivisor: 4
GridSize: 32
TimelineZoom: 2.999999

[Metadata]
Title:prozac
TitleUnicode:prozac
Artist:brakence
ArtistUnicode:brakence
Creator:Mimari
Version:hhjkl's normal
Source:
Tags:punk2 english hyper pop emo rap hyperpop glitchpop digicore trap jamesjan3 jamesjan riffy bakari hhjkl wetdog123 schoolboy komore mayflower i love ganyu sing
BeatmapID:3310693
BeatmapSetID:1573985

[Difficulty]
HPDrainRate:3
CircleSize:3.3
OverallDifficulty:4.3
ApproachRate:5.2
SliderMultiplier:1
SliderTickRate:1

[Events]
//Background and Video events
0,0,"i hate myself for it.jpeg",0,0
//Break Periods
2,157640,180331
//Storyboard Layer 0 (Background)
//Storyboard Layer 1 (Fail)
//Storyboard Layer 2 (Pass)
//Storyboard Layer 3 (Foreground)
//Storyboard Layer 4 (Overlay)
//Storyboard Sound Samples

[TimingPoints]
1806,304.568527918782,4,2,80,50,1,0
2567,-125,4,2,80,50,0,0
20993,-125,4,2,13,45,0,0
21069,-125,4,2,13,30,0,0
21146,-125,4,2,13,15,0,0
21298,-151.515151515152,4,2,30,60,0,0
22516,-100,4,2,30,60,0,0
25638,-100,4,2,13,45,0,0
25714,-100,4,2,13,30,0,0
25790,-100,4,2,13,15,0,0
25866,-100,4,2,30,60,0,0
30740,-100,4,2,13,60,0,0
30816,-100,4,2,13,45,0,0
30892,-100,4,2,13,30,0,0
30968,-100,4,2,13,15,0,0
31044,-100,4,2,30,60,0,0
35384,-100,4,2,13,45,0,0
35460,-100,4,2,13,30,0,0
35536,-100,4,2,13,15,0,0
35613,-100,4,2,30,60,0,0
40257,-100,4,2,13,45,0,0
40333,-100,4,2,13,30,0,0
40410,-100,4,2,13,15,0,0
40486,-100,4,2,30,60,0,0
40790,-100,4,2,12,60,0,0
43227,-100,4,2,13,60,0,0
45435,-100,4,2,13,45,0,0
45511,-100,4,2,13,30,0,0
45587,-100,4,2,13,15,0,0
45663,-100,4,2,12,60,0,0
48100,-100,4,2,13,60,0,0
50080,-100,4,2,13,45,0,0
50156,-100,4,2,13,30,0,0
50232,-100,4,2,13,15,0,0
50536,-100,4,2,12,60,0,0
52973,-100,4,2,13,60,0,0
55181,-100,4,2,13,45,0,0
55257,-100,4,2,13,30,0,0
55333,-100,4,2,13,15,0,0
55410,-100,4,2,12,60,0,0
57846,-100,4,2,13,60,0,0
59826,-100,4,2,13,45,0,0
59902,-100,4,2,13,30,0,0
59978,-100,4,2,13,15,0,0
60283,-100,4,2,12,60,0,0
62720,-100,4,2,13,60,0,0
64928,-100,4,2,13,45,0,0
65004,-100,4,2,13,30,0,0
65080,-100,4,2,13,15,0,0
65156,-100,4,2,12,60,0,0
67593,-100,4,2,13,60,0,0
69800,-100,4,2,13,45,0,0
69877,-100,4,2,13,30,0,0
69953,-100,4,2,13,15,0,0
70029,-100,4,2,12,60,0,0
72466,-100,4,2,13,60,0,0
74674,-100,4,2,13,45,0,0
74750,-100,4,2,13,30,0,0
74826,-100,4,2,13,15,0,0
74903,-100,4,2,12,60,0,0
77339,-100,4,2,13,60,0,0
79166,-100,4,2,1,60,0,0
79319,-100,4,2,13,45,0,0
79395,-100,4,2,13,30,0,0
79471,-100,4,2,13,15,0,0
79775,-100,4,2,40,60,0,0
81907,-100,4,2,13,60,0,0
82212,-100,4,2,40,60,0,0
84344,-100,4,2,13,60,0,0
84420,-100,4,2,13,45,0,0
84496,-100,4,2,13,30,0,0
84572,-100,4,2,13,15,0,0
84648,-100,4,2,40,60,0,0
86780,-100,4,2,13,60,0,0
87085,-100,4,2,40,60,0,0
89217,-100,4,2,40,60,0,0
89293,-100,4,2,40,45,0,0
89369,-100,4,2,40,30,0,0
89445,-100,4,2,40,15,0,0
89521,-100,4,2,41,60,0,0
94090,-100,4,2,13,60,0,0
94166,-100,4,2,13,45,0,0
94242,-100,4,2,13,30,0,0
94318,-100,4,2,13,15,0,0
94394,-100,4,2,41,60,0,0
99267,-100,4,2,40,60,0,0
103836,-100,4,2,13,60,0,0
103912,-100,4,2,13,45,0,0
103988,-100,4,2,13,30,0,0
104064,-100,4,2,13,15,0,0
104141,-100,4,2,40,60,0,0
108709,-100,4,2,13,60,0,0
108785,-100,4,2,13,45,0,0
108861,-100,4,2,13,30,0,0
108937,-100,4,2,13,15,0,0
109014,-100,4,2,40,60,0,0
110232,-100,4,2,41,60,0,0
113582,-100,4,2,13,60,0,0
113658,-100,4,2,13,45,0,0
113734,-100,4,2,13,30,0,0
113811,-100,4,2,13,15,0,0
113887,-100,4,2,41,60,0,0
118760,-100,4,2,12,60,0,0
121196,-90.9090909090909,4,2,13,60,0,0
123405,-90.9090909090909,4,2,13,45,0,0
123481,-90.9090909090909,4,2,13,30,0,0
123557,-90.9090909090909,4,2,13,15,0,0
123633,-90.9090909090909,4,2,12,60,0,0
126070,-90.9090909090909,4,2,13,60,0,0
128050,-90.9090909090909,4,2,13,45,0,0
128126,-90.9090909090909,4,2,13,30,0,0
128202,-90.9090909090909,4,2,13,60,0,0
128278,-90.9090909090909,4,2,13,45,0,0
128354,-90.9090909090909,4,2,13,30,0,0
128430,-90.9090909090909,4,2,13,15,0,0
128506,-90.9090909090909,4,2,12,60,0,0
130943,-90.9090909090909,4,2,13,60,0,0
133151,-90.9090909090909,4,2,13,45,0,0
133227,-90.9090909090909,4,2,13,30,0,0
133303,-90.9090909090909,4,2,13,15,0,0
133380,-90.9090909090909,4,2,12,60,0,0
135816,-90.9090909090909,4,2,13,60,0,0
137796,-90.9090909090909,4,2,13,45,0,0
137872,-90.9090909090909,4,2,13,30,0,0
137948,-90.9090909090909,4,2,1,75,0,0
138252,-86.2068965517241,4,2,1,75,0,0
144648,-86.2068965517241,4,2,2,75,0,0
144953,-86.2068965517241,4,2,1,75,0,0
145105,-86.2068965517241,4,2,2,75,0,0
145257,-86.2068965517241,4,2,1,75,0,0
147085,-86.2068965517241,4,2,2,75,0,0
147389,-86.2068965517241,4,2,1,75,0,0
147998,-86.2068965517241,4,2,2,83,0,0
182852,-86.2068965517241,4,2,98,30,0,0

[Colours]
Combo1 : 219,129,68
Combo2 : 156,211,211
Combo3 : 204,165,138

[HitObjects]
402,312,2567,6,0,B|362:273|360:358|360:358|160:329,1,280,2|2,0:1|0:1,0:0:0:0:
119,248,3937,2,0,B|66:142|66:142|241:162,1,280,2|2,0:1|0:1,0:0:0:0:
304,42,5460,2,0,P|369:25|430:29,1,120,2|2,0:1|0:1,0:0:0:0:
462,51,6069,2,0,L|453:108,1,40,2|0,0:1|0:0,0:0:0:0:
445,137,6374,2,0,P|405:131|351:127,1,80,2|2,0:1|0:0,0:0:0:0:
202,26,7288,2,0,P|192:77|174:110,1,80,2|2,0:1|0:1,0:0:0:0:
68,73,7897,6,0,B|41:114|91:112|91:112|115:300,1,240,2|2,0:1|0:1,0:0:0:0:
230,368,9267,1,2,0:1:0:0:
263,355,9419,1,2,0:1:0:0:
374,263,9877,2,0,P|364:237|376:218,1,40,2|2,0:2|0:1,0:0:0:0:
421,150,10333,2,0,P|451:101|330:90,1,240,2|2,0:1|0:1,0:0:0:0:
204,170,11856,2,0,B|204:106|171:100|176:102|169:102|127:93|131:36,1,160,2|2,0:2|0:1,0:0:0:0:
38,34,12770,6,0,B|21:96|21:96|37:168|37:168|24:201|24:201|31:275,1,240,2|2,0:1|0:1,0:0:0:0:
96,336,13988,1,2,0:0:0:0:
136,248,14293,2,0,B|200:294|200:294|189:133|189:133|215:77|252:151,1,320,2|2,0:1|0:1,0:0:0:0:
299,216,15816,1,10,0:1:0:0:
353,294,16120,1,2,0:1:0:0:
466,139,16729,2,0,L|446:55,1,80,2|10,0:1|0:1,0:0:0:0:
376,155,17338,6,0,B|232:349|232:349|241:186,1,400,2|0,0:1|0:0,0:0:0:0:
164,129,19166,1,2,0:1:0:0:
207,42,19470,1,10,0:1:0:0:
113,12,19775,2,0,P|67:20|46:125,1,160,2|2,0:1|0:1,0:0:0:0:
116,178,20689,1,2,0:1:0:0:
165,259,20993,2,0,B|155:340|155:340|111:275,1,160,8|2,1:3|0:2,0:0:0:0:
39,212,21907,5,8,0:0:0:0:
124,170,22212,1,0,3:0:0:0:
217,134,22516,2,0,P|282:170|293:206,1,100,2|2,0:2|0:2,0:0:0:0:
347,273,23125,2,0,L|393:291,1,50,8|0,0:0|0:0,0:0:0:0:
399,339,23430,2,0,L|352:356,1,50,2|0,0:2|0:0,0:0:0:0:
297,338,23734,6,0,B|251:358|251:358|248:370|248:370|205:380|205:380|191:373|191:373|110:366,1,200,0|8,3:0|0:0,0:0:0:0:
48,294,24648,1,0,3:0:0:0:
29,247,24800,2,0,L|15:188,1,50,2|2,0:2|0:2,0:0:0:0:
105,134,25257,2,0,L|131:242,1,100,0|8,3:0|0:0,0:0:0:0:
221,268,25866,1,0,0:0:0:0:
259,175,26171,6,0,L|263:110,1,50,0|2,3:0|0:2,0:0:0:0:
288,82,26476,1,2,0:2:0:0:
373,30,26780,1,8,0:0:0:0:
442,101,27085,2,0,L|429:168,1,50,0|2,3:0|0:2,0:0:0:0:
459,199,27389,2,0,B|502:228|502:228|441:247,1,100,2|2,0:2|0:2,0:0:0:0:
369,292,27998,1,8,0:0:0:0:
288,351,28303,1,2,0:2:0:0:
208,289,28608,6,0,B|184:253|191:220|240:209|261:200|300:168|262:109,1,200,0|8,3:0|0:0,0:0:0:0:
209,41,29521,2,0,L|151:29,1,50,0|2,3:0|0:2,0:0:0:0:
112,47,29826,1,2,0:2:0:0:
18,81,30130,1,0,3:0:0:0:
37,179,30435,1,8,0:0:0:0:
129,216,30740,1,8,1:3:0:0:
170,306,31044,5,0,3:0:0:0:
74,277,31349,2,0,B|94:181|94:181|87:177|87:177|93:181|93:181|112:84,1,200,2|0,0:2|3:0,0:0:0:0:
187,33,32262,1,2,0:2:0:0:
274,82,32567,1,2,0:2:0:0:
254,179,32871,1,8,0:0:0:0:
434,345,33481,6,0,L|453:227,1,100,0|2,3:0|0:0,0:0:0:0:
485,152,34090,2,0,L|469:94,1,50,8|0,0:0|0:0,0:0:0:0:
454,56,34394,2,0,L|397:30,1,50,0|2,3:0|0:2,0:0:0:0:
358,28,34699,2,0,L|287:118,1,100,2|0,0:2|3:0,0:0:0:0:
234,185,35308,1,8,0:0:0:0:
307,252,35613,1,0,0:0:0:0:
245,330,35917,6,0,P|190:313|33:286,1,200,0|8,3:0|0:0,0:0:0:0:
9,195,36831,1,0,3:0:0:0:
53,105,37135,2,0,P|66:57|112:71,1,100,2|2,0:2|0:2,0:0:0:0:
173,138,37745,1,8,0:0:0:0:
195,336,38354,6,0,L|300:310,1,100,0|2,3:0|0:0,0:0:0:0:
382,247,38963,2,0,L|333:139,1,100,8|0,0:0|3:0,0:0:0:0:
339,105,39420,1,2,0:2:0:0:
359,59,39572,2,0,L|456:21,1,100,2|0,0:2|3:0,0:0:0:0:
510,104,40181,1,8,0:0:0:0:
250,40,40790,5,4,3:0:0:0:
272,371,41704,1,6,3:1:0:0:
218,286,42009,2,0,P|270:245|180:184,1,200,2|10,0:0|0:0,0:0:0:0:
128,266,42922,1,2,0:0:0:0:
28,240,43227,6,0,L|11:179,1,50,4|8,3:0|0:3,0:0:0:0:
17,141,43531,1,2,0:0:0:0:
81,51,43836,2,0,B|100:55|100:55|96:67|96:67|142:129,1,100,10|6,0:0|3:1,0:0:0:0:
209,203,44445,1,2,0:0:0:0:
278,117,44750,1,6,3:1:0:0:
342,30,45054,1,10,0:0:0:0:
433,71,45359,2,0,L|444:136,1,50,8|8,1:3|1:3,0:0:0:0:
472,158,45663,6,0,L|431:255,1,100,6|2,3:0|0:0,0:0:0:0:
427,360,46273,1,10,0:0:0:0:
319,381,46577,1,6,3:1:0:0:
294,274,46882,2,0,L|234:120,1,150,2|2,0:0|0:0,0:0:0:0:
211,92,47491,2,0,L|240:-8,1,100,10|2,0:0|0:0,0:0:0:0:
346,20,48100,5,4,3:0:0:0:
392,119,48404,1,2,0:0:0:0:
312,194,48709,1,10,0:0:0:0:
213,151,49014,2,0,L|104:117,1,100,6|2,3:1|0:0,0:0:0:0:
97,75,49470,1,8,0:3:0:0:
46,70,49623,2,0,L|21:169,1,100,6|10,3:1|0:0,0:0:0:0:
112,345,50536,6,0,L|197:144,1,200,6|10,3:0|0:0,0:0:0:0:
210,62,51450,2,0,L|286:137,1,100,6|2,3:1|0:0,0:0:0:0:
322,161,51907,1,8,0:3:0:0:
367,182,52059,1,2,0:0:0:0:
459,122,52364,1,10,0:0:0:0:
494,225,52668,1,2,0:0:0:0:
414,300,52973,6,0,P|363:296|228:362,1,200,4|10,3:0|0:0,0:0:0:0:
121,352,53887,1,6,3:1:0:0:
150,246,54191,2,0,L|182:187,1,50,2|8,0:0|0:3,0:0:0:0:
171,151,54496,1,6,3:1:0:0:
107,74,54800,2,0,L|4:16,1,100,10|8,0:0|1:3,0:0:0:0:
33,134,55410,6,0,L|245:99,1,200,4|10,3:0|0:0,0:0:0:0:
301,17,56323,2,0,L|372:31,1,50,6|0,3:1|0:0,0:0:0:0:
390,56,56628,2,0,B|396:77|396:77|379:81|379:81|365:154,1,100,2|0,0:0|0:0,0:0:0:0:
287,230,57237,1,10,0:0:0:0:
345,323,57542,1,2,0:0:0:0:
443,273,57846,6,0,L|503:59,1,200,6|10,3:0|0:0,0:0:0:0:
419,1,58760,1,6,3:1:0:0:
321,52,59064,2,0,L|272:39,1,50,2|8,0:0|0:3,0:0:0:0:
233,70,59369,1,6,3:1:0:0:
131,27,59674,1,8,0:0:0:0:
22,370,60892,6,0,L|48:317,1,50,8|2,0:0|0:0,0:0:0:0:
66,280,61196,2,0,P|24:230|122:179,1,200,6|10,3:1|0:3,0:0:0:0:
94,73,62110,2,0,L|151:50,1,50,10|0,0:0|0:0,0:0:0:0:
187,37,62415,1,10,0:3:0:0:
248,126,62719,6,0,P|311:129|276:237,1,200,6|10,3:0|0:0,0:0:0:0:
226,322,63633,1,6,3:1:0:0:
322,374,63937,2,0,B|349:370|349:370|347:353|347:353|388:310,1,100,2|6,0:0|3:1,0:0:0:0:
444,219,64547,1,10,0:0:0:0:
393,121,64851,1,8,1:3:0:0:
443,22,65156,6,0,L|242:39,1,200,6|10,3:0|0:0,0:0:0:0:
199,139,66069,1,6,3:1:0:0:
142,233,66374,2,0,L|84:192,1,50,10|8,0:3|0:3,0:0:0:0:
79,153,66679,2,0,L|69:89,1,50,10|2,0:3|0:0,0:0:0:0:
43,61,66983,1,8,0:0:0:0:
136,2,67288,1,2,0:0:0:0:
234,49,67592,6,0,L|300:255,1,200,6|10,3:0|0:0,0:0:0:0:
257,343,68506,2,0,L|356:381,1,100,6|2,3:1|0:0,0:0:0:0:
398,365,68963,1,8,0:3:0:0:
439,337,69115,2,0,L|460:240,1,100,6|10,3:1|0:0,0:0:0:0:
436,131,69724,1,8,1:3:0:0:
336,177,70029,6,0,P|270:130|149:144,1,200,6|10,3:0|0:0,0:0:0:0:
70,209,70943,1,6,3:1:0:0:
112,310,71247,2,0,L|170:320,1,50,2|8,0:0|0:3,0:0:0:0:
209,303,71552,1,2,0:0:0:0:
311,342,71856,1,10,0:0:0:0:
389,264,72161,1,2,0:0:0:0:
331,170,72465,6,0,P|318:89|403:5,1,200,4|10,3:0|0:0,0:0:0:0:
484,56,73379,2,0,P|522:88|493:128,1,100,6|8,3:1|0:3,0:0:0:0:
411,188,73988,2,0,L|391:291,1,100,6|10,3:1|0:0,0:0:0:0:
300,347,74597,1,8,1:3:0:0:
236,256,74902,6,0,B|188:48,1,200,4|10,3:0|0:0,0:0:0:0:
291,18,75816,2,0,B|325:218,1,200,6|2,3:1|0:0,0:0:0:0:
269,310,76729,1,10,0:0:0:0:
163,278,77034,1,2,0:0:0:0:
158,168,77338,6,0,P|170:103|62:86,1,200,4|10,3:0|0:0,0:0:0:0:
7,180,78252,2,0,L|40:286,1,100,6|2,3:1|0:0,0:0:0:0:
134,325,78861,1,6,3:1:0:0:
210,245,79166,2,0,P|233:198|331:203,1,150,8|0,0:0|0:0,0:0:0:0:
348,242,79775,5,2,3:2:0:0:
446,355,80232,2,0,L|501:335,1,50,2|8,0:1|0:0,0:0:0:0:
489,228,80689,2,0,L|508:108,1,100,2|0,3:2|0:0,0:0:0:0:
493,80,81146,1,2,0:1:0:0:
400,31,81450,1,2,0:1:0:0:
400,31,81602,2,0,L|345:131,1,100,8|2,0:1|0:0,0:0:0:0:
358,228,82212,5,2,3:2:0:0:
225,296,82668,2,0,L|165:308,1,50,2|8,0:1|0:0,0:0:0:0:
143,199,83125,2,0,L|133:86,1,100,2|0,3:2|0:0,0:0:0:0:
119,51,83582,1,2,0:1:0:0:
69,53,83734,2,0,L|21:160,1,100,8|8,3:0|0:1,0:0:0:0:
20,244,84344,1,8,1:3:0:0:
88,316,84648,6,0,L|252:350,1,150,2|2,3:2|0:1,0:0:0:0:
284,343,85257,1,8,0:0:0:0:
269,233,85562,2,0,P|236:170|257:129,1,100,2|0,3:2|0:0,0:0:0:0:
277,110,86019,1,2,0:1:0:0:
374,59,86323,1,2,0:1:0:0:
374,59,86476,2,0,P|412:78|426:140,1,100,8|2,0:1|0:0,0:0:0:0:
438,239,87085,6,0,L|397:354,1,100,2|8,3:2|0:3,0:0:0:0:
356,347,87542,2,0,L|311:298,1,50,2|8,0:1|0:0,0:0:0:0:
276,210,87998,2,0,L|190:122,1,100,2|0,3:2|0:0,0:0:0:0:
159,120,88455,1,2,0:1:0:0:
135,164,88608,2,0,L|119:265,1,100,8|8,3:0|0:1,0:0:0:0:
67,348,89217,1,8,1:3:0:0:
10,265,89521,6,0,P|-11:218|31:77,1,200,0|10,3:0|0:0,0:0:0:0:
131,45,90435,1,2,3:2:0:0:
155,152,90740,1,2,0:0:0:0:
256,110,91044,1,2,0:0:0:0:
325,195,91349,2,0,L|341:313,1,100,8|2,0:1|0:0,0:0:0:0:
448,295,91958,6,0,P|483:213|477:85,1,200,0|10,3:0|0:0,0:0:0:0:
400,30,92871,1,2,3:2:0:0:
347,128,93176,1,2,0:0:0:0:
246,83,93481,1,2,3:2:0:0:
169,162,93785,2,0,L|59:134,1,100,8|8,0:1|1:3,0:0:0:0:
12,44,94394,6,0,P|69:26|108:42,1,100,0|10,3:0|0:3,0:0:0:0:
210,7,95003,1,10,0:0:0:0:
278,94,95308,2,0,L|287:213,1,100,0|0,3:2|0:0,0:0:0:0:
270,241,95765,2,0,L|288:302,1,50,2|2,0:0|0:0,0:0:0:0:
319,324,96069,1,2,0:0:0:0:
366,338,96222,2,0,L|400:221,1,100,8|2,0:1|0:0,0:0:0:0:
467,160,96831,6,0,P|470:115|413:72,1,100,0|2,3:0|0:0,0:0:0:0:
338,21,97440,1,10,0:0:0:0:
264,103,97745,2,0,L|237:222,1,100,2|2,3:2|0:0,0:0:0:0:
247,255,98201,1,2,0:0:0:0:
207,293,98354,2,0,L|152:303,1,50,2|0,3:2|0:0,0:0:0:0:
111,330,98658,1,8,0:1:0:0:
42,150,99267,6,0,L|30:42,1,100,2|8,3:2|0:3,0:0:0:0:
68,17,99724,1,2,0:1:0:0:
117,28,99877,1,8,0:0:0:0:
159,137,100181,2,0,L|256:164,1,100,2|0,3:2|0:0,0:0:0:0:
299,139,100638,2,0,L|343:106,1,50,2|8,0:1|0:3,0:0:0:0:
401,17,101095,2,0,L|471:96,1,100,8|2,0:1|0:0,0:0:0:0:
460,201,101704,6,0,P|419:213|375:256,1,100,2|8,3:2|0:3,0:0:0:0:
362,299,102161,1,2,0:1:0:0:
312,297,102313,1,8,0:0:0:0:
253,203,102618,2,0,L|274:104,1,100,2|0,3:2|0:0,0:0:0:0:
285,56,103075,2,0,L|245:25,1,50,2|8,0:1|3:0,0:0:0:0:
142,63,103531,2,0,L|101:163,1,100,8|8,0:1|1:3,0:0:0:0:
87,264,104141,6,0,P|134:255|194:292,1,100,2|8,3:2|0:3,0:0:0:0:
228,290,104597,1,2,0:1:0:0:
264,255,104750,1,8,0:0:0:0:
280,146,105054,2,0,P|281:97|334:70,1,100,2|0,3:2|0:0,0:0:0:0:
369,58,105511,2,0,L|430:67,1,50,2|8,0:1|0:3,0:0:0:0:
466,81,105816,1,2,0:1:0:0:
495,121,105968,2,0,P|506:162|466:214,1,100,8|2,0:1|0:0,0:0:0:0:
380,166,106577,6,0,B|354:281|354:281|369:316|369:316|330:357,1,200,2|8,3:2|0:0,0:0:0:0:
214,335,107491,1,2,3:2:0:0:
178,300,107643,2,0,L|166:194,1,100,0|2,0:0|0:1,0:0:0:0:
131,158,108100,2,0,L|120:54,1,100,8|8,3:0|0:1,0:0:0:0:
336,14,109014,6,0,L|448:34,1,100,0|8,0:0|0:3,0:0:0:0:
449,140,109623,2,0,L|401:151,1,50,8|0,3:2|0:0,0:0:0:0:
356,126,109927,1,0,3:0:0:0:
279,205,110232,2,0,P|272:256|310:297,1,100,2|0,0:0|0:0,0:0:0:0:
395,350,110841,1,10,0:1:0:0:
467,266,111146,1,2,0:0:0:0:
464,156,111450,6,0,L|419:6,1,150,0|0,3:0|0:0,0:0:0:0:
371,3,112059,2,0,L|327:44,1,50,10|0,0:0|0:0,0:0:0:0:
346,85,112364,1,2,3:2:0:0:
279,172,112668,2,0,L|170:143,1,100,2|2,0:0|3:2,0:0:0:0:
130,48,113278,1,10,0:1:0:0:
35,103,113582,2,0,L|43:166,1,50,8|8,1:3|1:3,0:0:0:0:
78,191,113887,6,0,P|112:234|121:377,1,200,0|10,3:0|0:0,0:0:0:0:
31,311,114800,2,0,B|-7:282|-7:282|0:221,1,100,2|2,3:2|0:0,0:0:0:0:
29,123,115410,1,2,0:0:0:0:
137,138,115714,1,10,0:1:0:0:
194,232,116019,1,2,0:0:0:0:
274,305,116323,6,0,L|486:255,1,200,0|10,3:0|0:0,0:0:0:0:
489,150,117237,1,2,3:2:0:0:
446,48,117542,1,2,0:0:0:0:
227,264,119369,5,8,0:0:0:0:
131,208,119674,2,0,P|140:83|23:129,1,300,6|10,3:1|0:0,0:0:0:0:
228,49,121196,6,0,L|289:17,1,55.0000016784668,6|8,3:0|0:3,0:0:0:0:
324,48,121501,2,0,L|328:113,1,55.0000016784668,2|10,0:0|0:3,0:0:0:0:
378,125,121806,1,10,0:0:0:0:
444,216,122110,2,0,L|524:54,1,165.000005035401,6|8,3:1|0:3,0:0:0:0:
512,21,122719,1,6,3:1:0:0:
409,42,123024,1,10,0:0:0:0:
369,277,123633,6,0,L|304:258,1,55.0000016784668,6|8,3:0|0:3,0:0:0:0:
274,296,123937,2,0,L|243:351,1,55.0000016784668,2|10,0:0|0:3,0:0:0:0:
193,331,124242,1,10,0:0:0:0:
85,352,124547,1,6,3:1:0:0:
39,252,124851,2,0,L|64:119,1,110.000003356934,10|10,0:3|0:3,0:0:0:0:
49,89,125308,2,0,L|62:21,1,55.0000016784668,2|8,0:0|0:0,0:0:0:0:
165,4,125765,1,2,0:0:0:0:
225,95,126069,6,0,L|270:329,1,220.000006713867,6|10,3:0|0:0,0:0:0:0:
378,358,126983,2,0,L|482:295,1,110.000003356934,6|2,3:1|0:0,0:0:0:0:
487,247,127440,1,8,0:3:0:0:
443,213,127592,1,6,3:1:0:0:
409,96,127897,1,10,0:0:0:0:
179,20,128506,6,0,P|116:17|122:144,1,220.000006713867,6|10,3:0|0:0,0:0:0:0:
207,218,129420,1,6,3:1:0:0:
133,313,129724,2,0,B|84:333|84:333|110:275,1,110.000003356934,2|2,0:0|0:0,0:0:0:0:
224,249,130333,2,0,L|341:282,1,110.000003356934,10|2,0:0|0:0,0:0:0:0:
415,193,130943,6,0,L|187:105,1,220.000006713867,4|10,3:0|0:0,0:0:0:0:
304,52,131856,2,0,P|345:8|402:30,1,110.000003356934,6|8,3:1|0:3,0:0:0:0:
488,85,132465,1,6,3:1:0:0:
383,146,132770,1,10,0:0:0:0:
457,241,133075,1,8,1:3:0:0:
429,358,133379,6,0,P|340:329|290:204,1,220.000006713867,4|10,3:0|0:0,0:0:0:0:
311,101,134293,2,0,B|321:79|342:69|342:69|241:45|241:45|203:54|198:86|198:86|214:144|214:144|200:183|171:186,1,330.000010070801,6|10,3:1|0:0,0:0:0:0:
77,117,135511,1,2,0:0:0:0:
25,226,135816,2,0,L|46:358,1,110.000003356934,4|2,3:0|0:0,0:0:0:0:
94,354,136273,1,8,0:3:0:0:
140,324,136425,1,10,0:0:0:0:
259,340,136729,1,6,3:1:0:0:
263,334,138252,6,0,L|269:263,1,58.0000017700196,6|2,3:2|0:2,0:0:0:0:
246,222,138557,1,14,0:2:0:0:
280,175,138709,2,0,B|212:101|212:101|207:82|207:82|153:28,1,174.000005310059,2|14,0:2|0:2,0:0:0:0:
52,64,139470,2,0,L|2:116,1,58.0000017700196,6|2,3:2|3:2,0:0:0:0:
22,163,139775,1,14,0:2:0:0:
70,268,140080,1,6,0:2:0:0:
127,267,140232,2,0,L|174:227,1,58.0000017700196,2|14,3:2|0:2,0:0:0:0:
223,116,140689,6,0,L|343:85,1,116.000003540039,6|14,3:2|0:2,0:0:0:0:
364,36,141146,2,0,B|410:39|410:39|432:27|432:27|503:30,1,116.000003540039,2|2,0:2|3:2,0:0:0:0:
502,80,141602,1,14,0:2:0:0:
449,195,141907,1,6,3:2:0:0:
447,252,142059,2,0,L|420:304,1,58.0000017700196,2|14,3:2|0:2,0:0:0:0:
306,326,142516,2,0,B|269:280|269:280|260:210,1,116.000003540039,6|14,0:2|0:3,0:0:0:0:
305,114,143125,6,0,L|244:76,1,58.0000017700196,6|2,3:2|3:2,0:0:0:0:
197,89,143430,1,14,0:2:0:0:
152,52,143582,2,0,B|126:151|126:151|108:164|108:164|91:224,1,174.000005310059,2|14,0:2|0:2,0:0:0:0:
46,320,144344,1,6,3:2:0:0:
76,369,144496,2,0,L|199:377,1,116.000003540039,2|2,0:2|0:2,0:0:0:0:
234,336,144953,2,0,B|276:273|276:273|279:223,1,116.000003540039,6|14,0:2|0:2,0:0:0:0:
257,116,145562,6,0,L|354:19,1,116.000003540039,6|14,3:2|0:2,0:0:0:0:
396,40,146019,2,0,L|405:170,1,116.000003540039,2|2,0:2|3:2,0:0:0:0:
440,200,146476,1,14,0:2:0:0:
427,315,146780,2,0,L|358:335,1,58.0000017700196,6|2,3:2|3:2,0:0:0:0:
333,375,147085,1,14,0:2:0:0:
279,353,147237,2,0,B|210:327|210:327|196:334|196:334|91:301,1,174.000005310059,2|14,0:2|0:2,0:0:0:0:
74,197,147998,5,4,3:2:0:0:
42,85,148303,1,14,0:2:0:0:
51,27,148455,2,0,B|129:64|129:64|154:108,1,116.000003540039,2|2,0:2|3:2,0:0:0:0:
188,197,149064,1,2,0:2:0:0:
153,307,149369,1,2,0:2:0:0:
46,354,149674,1,2,0:2:0:0:
28,239,149978,1,2,3:2:0:0:
94,143,150283,1,2,0:2:0:0:
208,128,150587,6,0,L|277:107,1,58.0000017700196,2|12,0:2|0:2,0:0:0:0:
286,57,150892,1,2,0:2:0:0:
395,18,151196,1,2,3:2:0:0:
433,61,151349,1,14,0:2:0:0:
427,118,151501,2,0,B|416:180|416:180|404:190|404:190|392:251,1,116.000003540039,2|2,0:2|0:2,0:0:0:0:
364,275,151958,2,0,L|373:340,1,58.0000017700196,14|2,0:2|0:2,0:0:0:0:
258,359,152415,2,0,L|238:290,1,58.0000017700196,2|12,3:2|0:2,0:0:0:0:
192,272,152719,1,2,0:2:0:0:
212,217,152871,6,0,B|216:155|216:155|177:89,1,116.000003540039,4|14,3:2|3:2,0:0:0:0:
105,26,153481,1,6,0:2:0:0:
49,140,153785,2,0,B|-7:103|49:74|-29:29,2,116.000003540039,14|6|14,0:2|3:2|3:2,0:0:0:0:
98,257,154699,1,6,0:2:0:0:
222,228,155003,2,0,B|240:182|250:171|332:167,1,116.000003540039,14|4,0:2|3:2,0:0:0:0:
437,182,155613,5,14,0:2:0:0:
472,59,155917,1,6,0:2:0:0:
355,15,156222,2,0,B|336:3|308:5|287:13|266:21|258:79,1,116.000003540039,14|6,0:2|3:2,0:0:0:0:
292,105,156679,1,0,0:0:0:0:
265,156,156831,1,14,3:2:0:0:
190,259,157135,1,6,3:2:0:0:
274,354,157440,1,14,3:3:0:0:
256,192,181501,12,0,182852,3:2:0:0:
