osu file format v14

[General]
AudioFilename: audio.mp3
AudioLeadIn: 0
PreviewTime: 128007
Countdown: 0
SampleSet: Soft
StackLeniency: 0
Mode: 0
LetterboxInBreaks: 0
WidescreenStoryboard: 0

[Editor]
DistanceSpacing: 6
BeatDivisor: 16
GridSize: 32
TimelineZoom: 2.2

[Metadata]
Title:caffeine
TitleUnicode:caffeine
Artist:brakence
ArtistUnicode:brakence
Creator:Kolon Dee
Version:hyperactive
Source:
Tags:brakence caffiene glitch pop hyperpop
BeatmapID:4495935
BeatmapSetID:2136487

[Difficulty]
HPDrainRate:3
CircleSize:5
OverallDifficulty:5
ApproachRate:9.8
SliderMultiplier:3
SliderTickRate:1

[Events]
//Background and Video events
0,0,"yuh.jpg",0,0
//Break Periods
2,11379,17046
//Storyboard Layer 0 (Background)
//Storyboard Layer 1 (Fail)
//Storyboard Layer 2 (Pass)
//Storyboard Layer 3 (Foreground)
//Storyboard Layer 4 (Overlay)
//Storyboard Sound Samples

[TimingPoints]
180,666.666666666667,4,2,0,100,1,0
180,-20,4,2,0,100,0,0
513,-66.6666666666667,4,2,0,100,0,0
596,-66.6666666666667,4,2,0,5,0,0
680,-66.6666666666667,4,2,0,100,0,0
763,-66.6666666666667,4,2,0,5,0,0
846,-40,4,2,0,100,0,0
1096,-40,4,2,0,5,0,0
1180,-40,4,2,0,100,0,0
1513,-50,4,2,0,100,0,0
1763,-50,4,2,0,5,0,0
1846,-50,4,2,0,100,0,0
1930,-50,4,2,0,5,0,0
2013,-50,4,2,0,100,0,0
2096,-50,4,2,0,5,0,0
2180,-50,4,2,0,100,0,0
2263,-50,4,2,0,5,0,0
2346,-50,4,2,0,100,0,0
2430,-50,4,2,0,5,0,0
2513,-33.3333333333333,4,2,0,100,0,0
2596,-33.3333333333333,4,2,0,5,0,0
2680,-50,4,2,0,100,0,0
2763,-50,4,2,0,5,0,0
2846,-40,4,2,0,100,0,0
3305,-40,4,2,0,5,0,0
3346,-40,4,2,0,100,0,0
3471,-40,4,2,0,5,0,0
3513,-50,4,2,0,100,0,0
4013,-40,4,2,0,100,0,0
4096,-40,4,2,0,5,0,0
4180,-40,4,2,0,100,0,0
4430,-40,4,2,0,5,0,0
4513,-40,4,2,0,100,0,0
4596,-40,4,2,0,5,0,0
4680,-40,4,2,0,100,0,0
4763,-40,4,2,0,5,0,0
4846,-40,4,2,0,100,0,0
5513,-57.1428571428571,4,2,0,100,0,0
5846,-50,4,2,0,100,0,0
5930,-50,4,2,0,5,0,0
6013,-50,4,2,0,100,0,0
6096,-50,4,2,0,5,0,0
6180,-50,4,2,0,100,0,0
6430,-50,4,2,0,5,0,0
6513,-50,4,2,0,100,0,0
6763,-50,4,2,0,5,0,0
6846,-50,4,2,0,100,0,0
6930,-50,4,2,0,5,0,0
7013,-50,4,2,0,100,0,0
7096,-50,4,2,0,5,0,0
7180,-50,4,2,0,100,0,0
7263,-50,4,2,0,5,0,0
7346,-50,4,2,0,100,0,0
7430,-50,4,2,0,5,0,0
7513,-50,4,2,0,100,0,0
7596,-50,4,2,0,5,0,0
7680,-50,4,2,0,100,0,0
7763,-50,4,2,0,5,0,0
7846,-50,4,2,0,100,0,0
8096,-50,4,2,0,5,0,0
8180,-50,4,2,0,100,0,0
8430,-50,4,2,0,5,0,0
8513,-50,4,2,0,100,0,0
8596,-50,4,2,0,5,0,0
8680,-50,4,2,0,100,0,0
8763,-50,4,2,0,5,0,0
8846,-26.6666666666667,4,2,0,100,0,0
8971,-26.6666666666667,4,2,0,5,0,0
9013,-26.6666666666667,4,2,0,100,0,0
9138,-26.6666666666667,4,2,0,5,0,0
9180,-66.6666666666667,4,2,0,100,0,0
9763,-66.6666666666667,4,2,0,5,0,0
9846,-66.6666666666667,4,2,0,100,0,0
9930,-66.6666666666667,4,2,0,5,0,0
10013,-66.6666666666667,4,2,0,100,0,0
10096,-66.6666666666667,4,2,0,5,0,0
10180,-66.6666666666667,4,2,0,100,0,0
10305,-66.6666666666667,4,2,0,5,0,0
10346,-66.6666666666667,4,2,0,100,0,0
10471,-66.6666666666667,4,2,0,5,0,0
10513,-66.6666666666667,4,2,0,100,0,0
10638,-40,4,2,0,5,0,0
10680,-40,4,2,0,100,0,0
21180,-40,4,2,0,100,0,0
21263,-40,4,2,0,5,0,0
21346,-40,4,2,0,100,0,0
21430,-40,4,2,0,5,0,0
21513,-20,4,2,0,100,0,0
21846,-66.6666666666667,4,2,0,100,0,0
21930,-66.6666666666667,4,2,0,5,0,0
22013,-66.6666666666667,4,2,0,100,0,0
22096,-66.6666666666667,4,2,0,5,0,0
22180,-40,4,2,0,100,0,0
22513,-100,4,2,0,100,0,0
22596,-100,4,2,0,5,0,0
22680,-66.6666666666667,4,2,0,100,0,0
22763,-66.6666666666667,4,2,0,5,0,0
22846,-50,4,2,0,100,0,0
22930,-50,4,2,0,5,0,0
23013,-50,4,2,0,100,0,0
23471,-50,4,2,0,5,0,0
23513,-50,4,2,0,100,0,0
23930,-50,4,2,0,5,0,0
24013,-50,4,2,0,100,0,0
24096,-50,4,2,0,5,0,0
24180,-28.5714285714286,4,2,0,100,0,0
24305,-28.5714285714286,4,2,0,5,0,0
24346,-28.5714285714286,4,2,0,100,0,0
24513,-66.6666666666667,4,2,0,100,0,0
24763,-66.6666666666667,4,2,0,5,0,0
24846,-40,4,2,0,100,0,0
25013,-40,4,2,0,5,0,0
25180,-40,4,2,0,100,0,0
25263,-40,4,2,0,5,0,0
25346,-40,4,2,0,100,0,0
25430,-40,4,2,0,5,0,0
25513,-40,4,2,0,100,0,0
25596,-40,4,2,0,5,0,0
25680,-40,4,2,0,100,0,0
26180,-66.6666666666667,4,2,0,100,0,0
26888,-66.6666666666667,4,2,0,5,0,0
26930,-66.6666666666667,4,2,0,100,0,0
26971,-66.6666666666667,4,2,0,5,0,0
27013,-66.6666666666667,4,2,0,100,0,0
27055,-66.6666666666667,4,2,0,5,0,0
27096,-66.6666666666667,4,2,0,100,0,0
27138,-66.6666666666667,4,2,0,5,0,0
27180,-66.6666666666667,4,2,0,100,0,0
27221,-66.6666666666667,4,2,0,5,0,0
27346,-66.6666666666667,4,2,0,100,0,0
27513,-33.3333333333333,4,2,0,100,0,0
27846,-66.6666666666667,4,2,0,100,0,0
27971,-66.6666666666667,4,2,0,5,0,0
28013,-66.6666666666667,4,2,0,100,0,0
28138,-66.6666666666667,4,2,0,5,0,0
28180,-66.6666666666667,4,2,0,100,0,0
28263,-66.6666666666667,4,2,0,5,0,0
28346,-40,4,2,0,100,0,0
29263,-40,4,2,0,5,0,0
29346,-40,4,2,0,100,0,0
29430,-40,4,2,0,5,0,0
29513,-40,4,2,0,100,0,0
29555,-40,4,2,0,5,0,0
29596,-40,4,2,0,100,0,0
29638,-40,4,2,0,5,0,0
29680,-40,4,2,0,100,0,0
29721,-40,4,2,0,5,0,0
29846,-40,4,2,0,100,0,0
29930,-40,4,2,0,5,0,0
30013,-40,4,2,0,100,0,0
30096,-40,4,2,0,5,0,0
30180,-40,4,2,0,100,0,0
30596,-40,4,2,0,5,0,0
30680,-40,4,2,0,100,0,0
30763,-40,4,2,0,5,0,0
30846,-40,4,2,0,100,0,0
31513,-66.6666666666667,4,2,0,100,0,0
31763,-66.6666666666667,4,2,0,5,0,0
31846,-66.6666666666667,4,2,0,100,0,0
32096,-66.6666666666667,4,2,0,5,0,0
32180,-66.6666666666667,4,2,0,100,0,0
32430,-66.6666666666667,4,2,0,5,0,0
32513,-100,4,2,0,100,0,0
32763,-100,4,2,0,5,0,0
32846,-100,4,2,0,100,0,0
33513,-50,4,2,0,100,0,0
36096,-50,4,2,0,5,0,0
36180,-50,4,2,0,100,0,0
36430,-50,4,2,0,5,0,0
36513,-50,4,2,0,100,0,0
37180,-100,4,2,0,100,0,0
37430,-100,4,2,0,5,0,0
37513,-40,4,2,0,100,0,0
37763,-40,4,2,0,5,0,0
37846,-40,4,2,0,100,0,0
38596,-40,4,2,0,5,0,0
38680,-40,4,2,0,100,0,0
38763,-40,4,2,0,5,0,0
38846,-40,4,2,0,100,0,0
39096,-40,4,2,0,5,0,0
39180,-40,4,2,0,100,0,0
39263,-40,4,2,0,5,0,0
39346,-40,4,2,0,100,0,0
39430,-40,4,2,0,5,0,0
39513,-50,4,2,0,100,0,0
39763,-100,4,2,0,5,0,0
39846,-100,4,2,0,100,0,0
40305,-100,4,2,0,5,0,0
40346,-100,4,2,0,100,0,0
40638,-100,4,2,0,5,0,0
40680,-100,4,2,0,100,0,0
40846,-50,4,2,0,100,0,0
40971,-50,4,2,0,5,0,0
41013,-50,4,2,0,100,0,0
41263,-50,4,2,0,5,0,0
41346,-50,4,2,0,100,0,0
41430,-50,4,2,0,5,0,0
41513,-50,4,2,0,100,0,0
41763,-50,4,2,0,5,0,0
41846,-50,4,2,0,100,0,0
41930,-50,4,2,0,5,0,0
42013,-50,4,2,0,100,0,0
42096,-50,4,2,0,5,0,0
42180,-29.4117647058824,4,2,0,100,0,0
42305,-29.4117647058824,4,2,0,5,0,0
42346,-29.4117647058824,4,2,0,100,0,0
43096,-29.4117647058824,4,2,0,5,0,0
43180,-50,4,2,0,100,0,0
43263,-50,4,2,0,5,0,0
43346,-50,4,2,0,100,0,0
43430,-50,4,2,0,5,0,0
43513,-50,4,2,0,100,0,0
43680,-66.6666666666667,4,2,0,100,0,0
43763,-66.6666666666667,4,2,0,5,0,0
43846,-66.6666666666667,4,2,0,100,0,0
43930,-66.6666666666667,4,2,0,5,0,0
44013,-66.6666666666667,4,2,0,100,0,0
44096,-66.6666666666667,4,2,0,5,0,0
44180,-66.6666666666667,4,2,0,100,0,0
44263,-66.6666666666667,4,2,0,5,0,0
44346,-66.6666666666667,4,2,0,100,0,0
44430,-66.6666666666667,4,2,0,5,0,0
44513,-66.6666666666667,4,2,0,100,0,0
44596,-66.6666666666667,4,2,0,5,0,0
44680,-50,4,2,0,100,0,0
44763,-50,4,2,0,5,0,0
44846,-50,4,2,0,100,0,0
44930,-50,4,2,0,5,0,0
45013,-50,4,2,0,100,0,0
45096,-50,4,2,0,5,0,0
45180,-50,4,2,0,100,0,0
45263,-50,4,2,0,5,0,0
45346,-50,4,2,0,100,0,0
45430,-50,4,2,0,5,0,0
45513,-33.3333333333333,4,2,0,100,0,0
45763,-33.3333333333333,4,2,0,5,0,0
45846,-33.3333333333333,4,2,0,100,0,0
46180,-50,4,2,0,100,0,0
46513,-50,4,2,0,100,0,0
46555,-50,4,2,0,5,0,0
46596,-50,4,2,0,100,0,0
46638,-50,4,2,0,5,0,0
46680,-50,4,2,0,100,0,0
46721,-50,4,2,0,5,0,0
46846,-50,4,2,0,100,0,0
46930,-50,4,2,0,5,0,0
47013,-50,4,2,0,100,0,0
47096,-50,4,2,0,5,0,0
47180,-50,4,2,0,100,0,0
47263,-50,4,2,0,5,0,0
47346,-50,4,2,0,100,0,0
47430,-50,4,2,0,5,0,0
47513,-50,4,2,0,100,0,0
47596,-50,4,2,0,5,0,0
47680,-50,4,2,0,100,0,0
47763,-50,4,2,0,5,0,0
47846,-50,4,2,0,100,0,0
47930,-50,4,2,0,5,0,0
48013,-50,4,2,0,100,0,0
48096,-50,4,2,0,5,0,0
48180,-26.6666666666667,4,2,0,100,0,0
48513,-40,4,2,0,100,0,0
48596,-40,4,2,0,5,0,0
48680,-40,4,2,0,100,0,0
48763,-40,4,2,0,5,0,0
48846,-40,4,2,0,100,0,0
49013,-66.6666666666667,4,2,0,100,0,0
49055,-66.6666666666667,4,2,0,5,0,0
49096,-66.6666666666667,4,2,0,100,0,0
49138,-66.6666666666667,4,2,0,5,0,0
49180,-66.6666666666667,4,2,0,100,0,0
49221,-66.6666666666667,4,2,0,5,0,0
49346,-50,4,2,0,100,0,0
49471,-50,4,2,0,5,0,0
49513,-50,4,2,0,100,0,0
49638,-50,4,2,0,5,0,0
49680,-100,4,2,0,100,0,0
49805,-100,4,2,0,5,0,0
49846,-20,4,2,0,100,0,0
49930,-20,4,2,0,5,0,0
50013,-50,4,2,0,100,0,0
50596,-50,4,2,0,5,0,0
50680,-50,4,2,0,100,0,0
50763,-50,4,2,0,5,0,0
50846,-33.3333333333333,4,2,0,100,0,0
51096,-33.3333333333333,4,2,0,5,0,0
51180,-50,4,2,0,100,0,0
51263,-50,4,2,0,5,0,0
51346,-50,4,2,0,100,0,0
51430,-50,4,2,0,5,0,0
51513,-50,4,2,0,100,0,0
51763,-50,4,2,0,5,0,0
51846,-50,4,2,0,100,0,0
51930,-50,4,2,0,5,0,0
52013,-50,4,2,0,100,0,0
52430,-50,4,2,0,5,0,0
52513,-50,4,2,0,100,0,0
52596,-50,4,2,0,5,0,0
52680,-50,4,2,0,100,0,0
52763,-50,4,2,0,5,0,0
52846,-66.6666666666667,4,2,0,100,0,0
53846,-50,4,2,0,100,0,0
53930,-50,4,2,0,5,0,0
54013,-50,4,2,0,100,0,0
54096,-50,4,2,0,5,0,0
54180,-50,4,2,0,100,0,0
54263,-50,4,2,0,5,0,0
54346,-40,4,2,0,100,0,0
54846,-16.6666666666667,4,2,0,100,0,0
54930,-16.6666666666667,4,2,0,5,0,0
55013,-66.6666666666667,4,2,0,100,0,0
55471,-66.6666666666667,4,2,0,5,0,0
55513,-66.6666666666667,4,2,0,100,0,0
56221,-66.6666666666667,4,2,0,5,0,0
56263,-66.6666666666667,4,2,0,100,0,0
56305,-66.6666666666667,4,2,0,5,0,0
56346,-66.6666666666667,4,2,0,100,0,0
56388,-66.6666666666667,4,2,0,5,0,0
56513,-66.6666666666667,4,2,0,100,0,0
57846,-133.333333333333,4,2,0,100,0,0
58513,-50,4,2,0,100,0,0
58846,-33.3333333333333,4,2,0,100,0,0
58971,-33.3333333333333,4,2,0,5,0,0
59013,-33.3333333333333,4,2,0,100,0,0
59263,-33.3333333333333,4,2,0,5,0,0
59346,-33.3333333333333,4,2,0,100,0,0
59430,-33.3333333333333,4,2,0,5,0,0
59513,-40,4,2,0,100,0,0
59846,-66.6666666666667,4,2,0,100,0,0
59930,-66.6666666666667,4,2,0,5,0,0
60013,-66.6666666666667,4,2,0,100,0,0
60096,-66.6666666666667,4,2,0,5,0,0
60180,-40,4,2,0,100,0,0
60305,-66.6666666666667,4,2,0,5,0,0
60346,-66.6666666666667,4,2,0,100,0,0
60763,-66.6666666666667,4,2,0,5,0,0
60846,-66.6666666666667,4,2,0,100,0,0
61180,-50,4,2,0,100,0,0
61263,-50,4,2,0,5,0,0
61346,-50,4,2,0,100,0,0
61430,-50,4,2,0,5,0,0
61513,-50,4,2,0,100,0,0
61555,-50,4,2,0,5,0,0
61596,-50,4,2,0,100,0,0
61638,-50,4,2,0,5,0,0
61680,-50,4,2,0,100,0,0
61721,-50,4,2,0,5,0,0
61846,-50,4,2,0,100,0,0
62971,-50,4,2,0,5,0,0
63013,-50,4,2,0,100,0,0
63846,-133.333333333333,4,2,0,100,0,0
64013,-133.333333333333,4,2,0,50,0,0
64180,-40,4,2,0,100,0,0
64430,-40,4,2,0,5,0,0
64513,-40,4,2,0,100,0,0
64763,-40,4,2,0,5,0,0
64846,-100,4,2,0,100,0,0
66180,-66.6666666666667,4,2,0,100,0,0
66263,-66.6666666666667,4,2,0,5,0,0
66346,-66.6666666666667,4,2,0,100,0,0
66430,-66.6666666666667,4,2,0,5,0,0
66513,-66.6666666666667,4,2,0,100,0,0
66680,-50,4,2,0,100,0,0
66763,-50,4,2,0,5,0,0
66846,-50,4,2,0,100,0,0
67263,-50,4,2,0,5,0,0
67346,-50,4,2,0,100,0,0
67430,-50,4,2,0,5,0,0
67513,-50,4,2,0,100,0,0
69930,-50,4,2,0,5,0,0
70013,-50,4,2,0,100,0,0
70096,-50,4,2,0,5,0,0
70180,-50,4,2,0,100,0,0
70763,-50,4,2,0,5,0,0
70846,-50,4,2,0,100,0,0
70930,-50,4,2,0,5,0,0
71013,-50,4,2,0,100,0,0
71096,-50,4,2,0,5,0,0
71180,-50,4,2,0,100,0,0
71846,-100,4,2,0,100,0,0
72846,-40,4,2,0,100,0,0
73180,-40,4,2,0,5,0,0
73346,-40,4,2,0,100,0,0
74180,-66.6666666666667,4,2,0,100,0,0
74846,-33.3333333333333,4,2,0,100,0,0
75180,-50,4,2,0,100,0,0
75263,-50,4,2,0,5,0,0
75346,-50,4,2,0,100,0,0
75430,-50,4,2,0,5,0,0
75513,-43.4782608695652,4,2,0,100,0,0
75763,-43.4782608695652,4,2,0,5,0,0
75846,-50,4,2,0,100,0,0
76430,-50,4,2,0,5,0,0
76513,-50,4,2,0,100,0,0
76596,-50,4,2,0,5,0,0
76680,-50,4,2,0,100,0,0
76763,-50,4,2,0,5,0,0
76846,-40,4,2,0,100,0,0
77346,-66.6666666666667,4,2,0,100,0,0
77430,-66.6666666666667,4,2,0,5,0,0
77513,-40,4,2,0,100,0,0
77846,-66.6666666666667,4,2,0,100,0,0
77930,-66.6666666666667,4,2,0,5,0,0
78013,-66.6666666666667,4,2,0,100,0,0
78096,-66.6666666666667,4,2,0,5,0,0
78180,-33.3333333333333,4,2,0,100,0,0
78846,-58.8235294117647,4,2,0,100,0,0
79096,-58.8235294117647,4,2,0,5,0,0
79180,-58.8235294117647,4,2,0,100,0,0
79263,-58.8235294117647,4,2,0,5,0,0
79346,-58.8235294117647,4,2,0,100,0,0
79430,-58.8235294117647,4,2,0,5,0,0
79513,-58.8235294117647,4,2,0,100,0,0
80596,-58.8235294117647,4,2,0,5,0,0
80680,-58.8235294117647,4,2,0,100,0,0
80763,-58.8235294117647,4,2,0,5,0,0
80846,-58.8235294117647,4,2,0,100,0,0
81346,-28.5714285714286,4,2,0,100,0,0
81471,-28.5714285714286,4,2,0,5,0,0
81513,-50,4,2,0,100,0,0
81596,-50,4,2,0,5,0,0
81680,-50,4,2,0,100,0,0
81930,-50,4,2,0,5,0,0
82013,-50,4,2,0,100,0,0
82096,-50,4,2,0,5,0,0
82180,-50,4,2,0,100,0,0
84680,-10,4,2,0,100,0,0
84846,-50,4,2,0,100,0,0
86513,-100,4,2,0,100,0,0
93763,-100,4,2,0,5,0,0
93846,-100,4,2,0,100,0,0
94763,-100,4,2,0,5,0,0
94846,-100,4,2,0,100,0,0
95763,-100,4,2,0,5,0,0
95846,-50,4,2,0,100,0,0
96180,-40,4,2,0,100,0,0
96430,-40,4,2,0,5,0,0
96513,-40,4,2,0,100,0,0
97180,-133.333333333333,4,2,0,100,0,0
97430,-133.333333333333,4,2,0,5,0,0
97513,-100,4,2,0,100,0,0
97846,-20,4,2,0,100,0,0
97888,-20,4,2,0,5,0,0
97930,-20,4,2,0,100,0,0
97971,-20,4,2,0,5,0,0
98013,-20,4,2,0,100,0,0
98055,-20,4,2,0,5,0,0
98180,-50,4,2,0,100,0,0
98221,-50,4,2,0,5,0,0
98513,-66.6666666666667,4,2,0,100,0,0
100430,-66.6666666666667,4,2,0,5,0,0
100513,-66.6666666666667,4,2,0,100,0,0
100763,-66.6666666666667,4,2,0,5,0,0
100846,-66.6666666666667,4,2,0,100,0,0
101763,-66.6666666666667,4,2,0,5,0,0
101846,-66.6666666666667,4,2,0,100,0,0
105846,-100,4,2,0,100,0,0
106805,-100,4,2,0,5,0,0
106846,-50,4,2,0,100,0,0
107180,-50,4,2,0,25,0,0
107346,-13.3333333333333,4,2,0,100,0,0
108430,-13.3333333333333,4,2,0,5,0,0
108513,-13.3333333333333,4,2,0,100,0,0
110180,-10,4,2,0,100,0,0
110430,-10,4,2,0,5,0,0
110513,-10,4,2,0,100,0,0
110638,-10,4,2,0,5,0,0
110680,-10,4,2,0,100,0,0
111096,-10,4,2,0,5,0,0
111180,-10,4,2,0,100,0,0
112180,-13.3333333333333,4,2,0,100,0,0
112846,-10,4,2,0,100,0,0
113096,-10,4,2,0,5,0,0
113180,-10,4,2,0,100,0,0
113305,-10,4,2,0,5,0,0
113346,-10,4,2,0,100,0,0
113763,-10,4,2,0,5,0,0
113846,-10,4,2,0,100,0,0
114846,-13.3333333333333,4,2,0,100,0,0
115513,-10,4,2,0,100,0,0
115763,-10,4,2,0,5,0,0
115846,-10,4,2,0,100,0,0
115971,-10,4,2,0,5,0,0
116013,-10,4,2,0,100,0,0
116430,-10,4,2,0,5,0,0
116513,-10,4,2,0,100,0,0
117263,-10,4,2,0,5,0,0
117346,-10,4,2,0,100,0,0
117513,-12.5,4,2,0,100,0,0
117555,-12.5,4,2,0,5,0,0
117846,-12.5,4,2,0,100,0,0
117888,-12.5,4,2,0,5,0,0
118180,-100,4,2,0,100,0,0
121096,-100,4,2,0,5,0,0
121180,-100,4,2,0,100,0,0
122846,645.161290322581,4,2,0,100,1,0
122846,-50,4,2,0,100,0,0
123249,-50,4,2,0,5,0,0
123329,-50,4,2,0,100,0,0
123410,-50,4,2,0,5,0,0
123491,-66.6666666666667,4,2,0,100,0,0
123733,-66.6666666666667,4,2,0,5,0,0
123813,-66.6666666666667,4,2,0,100,0,0
123975,-50,4,2,0,100,0,0
124055,-50,4,2,0,5,0,0
124136,-50,4,2,0,100,0,0
124216,-50,4,2,0,5,0,0
124297,-40,4,2,0,100,0,0
124418,-40,4,2,0,5,0,0
124458,-40,4,2,0,100,0,0
125668,-40,4,2,0,5,0,0
125749,-40,4,2,0,100,0,0
126918,-40,4,2,0,5,0,0
126958,-40,4,2,0,100,0,0
126999,-40,4,2,0,5,0,0
127039,-40,4,2,0,100,0,0
127079,-40,4,2,0,5,0,0
127200,-40,4,2,0,100,0,0
127523,-100,4,2,0,100,0,0
127926,-100,4,2,0,5,0,0
128007,638.297872340426,4,2,0,100,1,0
128007,-33.3333333333333,4,2,0,100,0,0
128645,-10,4,2,0,100,0,0
128884,-10,4,2,0,5,0,0
128964,-33.3333333333333,4,2,0,100,0,0
129283,-28.5714285714286,4,2,0,100,0,0
129522,-28.5714285714286,4,2,0,5,0,0
129602,-28.5714285714286,4,2,0,100,0,0
129921,-100,4,2,0,100,0,0
130241,-10,4,2,0,100,0,0
130480,-10,4,2,0,5,0,0
130560,-100,4,2,0,100,0,0
131198,-33.3333333333333,4,2,0,100,0,0
131437,-33.3333333333333,4,2,0,5,0,0
131517,-33.3333333333333,4,2,0,100,0,0
131836,-28.5714285714286,4,2,0,100,0,0
132076,-28.5714285714286,4,2,0,5,0,0
132155,-66.6666666666667,4,2,0,100,0,0
132594,-66.6666666666667,4,2,0,5,0,0
132634,-66.6666666666667,4,2,0,100,0,0
132913,-66.6666666666667,4,2,0,5,0,0
132953,-66.6666666666667,4,2,0,100,0,0
133113,618.556701030928,4,2,0,100,1,0
133422,-20,4,2,0,100,0,0
133499,-20,4,2,0,5,0,0
133576,-20,4,2,0,100,0,0
133654,-20,4,2,0,5,0,0
133731,-66.6666666666667,4,2,0,100,0,0
133963,-66.6666666666667,4,2,0,5,0,0
134040,-66.6666666666667,4,2,0,100,0,0
134195,-33.3333333333333,4,2,0,100,0,0
134659,-100,4,2,0,100,0,0
135277,-66.6666666666667,4,2,0,100,0,0
135509,-66.6666666666667,4,2,0,5,0,0
135587,-14.2857142857143,4,2,0,100,0,0
135896,-14.2857142857143,4,2,0,100,0,0
135935,-14.2857142857143,4,2,0,5,0,0
136051,-12.5,4,2,0,100,0,0
136089,-12.5,4,2,0,5,0,0
136205,-40,4,2,0,100,0,0
136283,-40,4,2,0,5,0,0
136360,-40,4,2,0,100,0,0
136437,-40,4,2,0,5,0,0
136669,-100,4,2,0,100,0,0
138061,606.060606060606,4,2,0,100,1,0
138061,-66.6666666666667,4,2,0,100,0,0
138174,-66.6666666666667,4,2,0,5,0,0
138212,-66.6666666666667,4,2,0,100,0,0
138477,-66.6666666666667,4,2,0,5,0,0
138515,-66.6666666666667,4,2,0,100,0,0
138780,-66.6666666666667,4,2,0,5,0,0
138818,-66.6666666666667,4,2,0,100,0,0
139083,-66.6666666666667,4,2,0,5,0,0
139121,-66.6666666666667,4,2,0,100,0,0
139386,-66.6666666666667,4,2,0,5,0,0
139424,-66.6666666666667,4,2,0,100,0,0
139689,-66.6666666666667,4,2,0,5,0,0
139727,-66.6666666666667,4,2,0,100,0,0
139992,-66.6666666666667,4,2,0,5,0,0
140030,-66.6666666666667,4,2,0,100,0,0
140295,-66.6666666666667,4,2,0,5,0,0
140333,-66.6666666666667,4,2,0,100,0,0
140485,594.059405940594,4,2,0,100,1,0
140485,-40,4,2,0,100,0,0
140856,-40,4,2,0,5,0,0
140930,-40,4,2,0,100,0,0
141153,-40,4,2,0,5,0,0
141227,-40,4,2,0,100,0,0
141450,-40,4,2,0,5,0,0
141524,-40,4,2,0,100,0,0
141747,-40,4,2,0,5,0,0
141821,-40,4,2,0,100,0,0
142044,-40,4,2,0,5,0,0
142118,-40,4,2,0,100,0,0
142341,-40,4,2,0,5,0,0
142415,-40,4,2,0,100,0,0
142638,-40,4,2,0,5,0,0
142712,-40,4,2,0,100,0,0
142786,-40,4,2,0,5,0,0
142861,582.52427184466,4,2,0,100,1,0
142861,-33.3333333333333,4,2,0,100,0,0
143006,-33.3333333333333,4,2,0,5,0,0
143079,-33.3333333333333,4,2,0,100,0,0
143734,-66.6666666666667,4,2,0,100,0,0
144026,-50,4,2,0,100,0,0
144135,-50,4,2,0,5,0,0
144171,-50,4,2,0,100,0,0
144426,-50,4,2,0,5,0,0
144462,-50,4,2,0,100,0,0
145191,582.52427184466,4,2,0,100,1,0
145191,-40,4,2,0,100,0,0
145300,-40,4,2,0,5,0,0
145336,-40,4,2,0,100,0,0
145482,-50,4,2,0,100,0,0
145773,-100,4,2,0,100,0,0
145991,-100,4,2,0,5,0,0
146064,-100,4,2,0,100,0,0
146356,-50,4,2,0,100,0,0
146501,-50,4,2,0,5,0,0
146574,-50,4,2,0,100,0,0
146647,-100,4,2,0,100,0,0
147229,-50,4,2,0,100,0,0
147302,-50,4,2,0,5,0,0
147375,-50,4,2,0,100,0,0
147448,-50,4,2,0,5,0,0
147521,555.555555555555,4,2,0,100,1,0
147521,-28.5714285714286,4,2,0,100,0,0
147729,-28.5714285714286,4,2,0,5,0,0
147798,-50,4,2,0,100,0,0
147868,-50,4,2,0,5,0,0
147937,-50,4,2,0,100,0,0
148146,-50,4,2,0,5,0,0
148215,-50,4,2,0,100,0,0
148423,-50,4,2,0,5,0,0
148493,-50,4,2,0,100,0,0
148666,-50,4,2,0,5,0,0
148701,-50,4,2,0,100,0,0
148736,-50,4,2,0,5,0,0
148771,-50,4,2,0,100,0,0
148805,-50,4,2,0,5,0,0
148909,-50,4,2,0,100,0,0
149569,-50,4,2,0,5,0,0
149604,-50,4,2,0,100,0,0
149708,-50,4,2,0,5,0,0
149743,550.45871559633,4,2,0,100,1,0
149743,-50,4,2,0,100,0,0
149983,-50,4,2,0,5,0,0
150018,-50,4,2,0,100,0,0
150087,-50,4,2,0,5,0,0
150155,-50,4,2,0,100,0,0
150499,-50,4,2,0,5,0,0
150568,-50,4,2,0,100,0,0
150775,-50,4,2,0,5,0,0
150843,-50,4,2,0,100,0,0
151325,-50,4,2,0,5,0,0
151394,-50,4,2,0,100,0,0
151463,-50,4,2,0,5,0,0
151531,-50,4,2,0,100,0,0
151600,-50,4,2,0,5,0,0
151669,-50,4,2,0,100,0,0
151738,-50,4,2,0,5,0,0
151807,-50,4,2,0,100,0,0
151876,-50,4,2,0,5,0,0
151944,535.714285714285,4,2,0,100,1,0
151944,-40,4,2,0,100,0,0
152479,-50,4,2,0,100,0,0
152546,-50,4,2,0,5,0,0
152613,-50,4,2,0,100,0,0
152680,-50,4,2,0,5,0,0
152747,-50,4,2,0,100,0,0
152814,-50,4,2,0,5,0,0
152881,-50,4,2,0,100,0,0
152948,-50,4,2,0,5,0,0
153015,-40,4,2,0,100,0,0
153551,-50,4,2,0,100,0,0
153618,-50,4,2,0,5,0,0
153685,-50,4,2,0,100,0,0
153752,-50,4,2,0,5,0,0
153819,-50,4,2,0,100,0,0
153885,-50,4,2,0,5,0,0
153952,-50,4,2,0,100,0,0
154019,-50,4,2,0,5,0,0
154086,530.973451327433,4,2,0,100,1,0
154086,-28.5714285714286,4,2,0,100,0,0
154185,-28.5714285714286,4,2,0,5,0,0
154218,-28.5714285714286,4,2,0,100,0,0
154451,-28.5714285714286,4,2,0,5,0,0
154484,-28.5714285714286,4,2,0,100,0,0
154616,-66.6666666666667,4,2,0,100,0,0
154650,-66.6666666666667,4,2,0,5,0,0
154683,-66.6666666666667,4,2,0,100,0,0
154716,-66.6666666666667,4,2,0,5,0,0
154749,-66.6666666666667,4,2,0,100,0,0
154782,-66.6666666666667,4,2,0,5,0,0
154882,-66.6666666666667,4,2,0,100,0,0
154915,-66.6666666666667,4,2,0,5,0,0
154948,-66.6666666666667,4,2,0,100,0,0
154982,-66.6666666666667,4,2,0,5,0,0
155015,-66.6666666666667,4,2,0,100,0,0
155048,-66.6666666666667,4,2,0,5,0,0
155147,-66.6666666666667,4,2,0,100,0,0
155181,-66.6666666666667,4,2,0,5,0,0
155214,-66.6666666666667,4,2,0,100,0,0
155247,-66.6666666666667,4,2,0,5,0,0
155280,-66.6666666666667,4,2,0,100,0,0
155313,-66.6666666666667,4,2,0,5,0,0
155413,-66.6666666666667,4,2,0,100,0,0
155446,-66.6666666666667,4,2,0,5,0,0
155479,-66.6666666666667,4,2,0,100,0,0
155512,-66.6666666666667,4,2,0,5,0,0
155546,-66.6666666666667,4,2,0,100,0,0
155579,-66.6666666666667,4,2,0,5,0,0
155678,-20,4,2,0,100,0,0
155712,-20,4,2,0,5,0,0
155745,-20,4,2,0,100,0,0
155778,-20,4,2,0,5,0,0
155811,-20,4,2,0,100,0,0
155844,-20,4,2,0,5,0,0
155878,-10,4,2,0,100,0,0
155911,-10,4,2,0,5,0,0
155944,-10,4,2,0,100,0,0
155977,-10,4,2,0,5,0,0
156010,-12.5,4,2,0,100,0,0
156043,-12.5,4,2,0,5,0,0
156077,-12.5,4,2,0,100,0,0
156110,-12.5,4,2,0,5,0,0
156143,-12.5,4,2,0,100,0,0
156176,-12.5,4,2,0,5,0,0
156209,594.059405940593,4,2,0,100,1,0
156209,-10,4,2,0,100,0,0
156803,-40,4,2,0,100,0,0
158585,603.015075376883,4,2,0,100,1,0
167253,-100,4,2,0,5,0,0
167328,-100,4,2,0,100,0,0
168233,595.533498759304,4,2,0,100,1,0
169647,-100,4,2,0,5,0,0
169721,-100,4,2,0,100,0,0
171917,-100,4,2,0,5,0,0
171955,-100,4,2,0,100,0,0
172215,-100,4,2,0,5,0,0
172252,-100,4,2,0,100,0,0
172997,599.999999999999,4,2,0,100,1,0
179822,-100,4,2,0,5,0,0
179897,-100,4,2,0,100,0,0
180122,-100,4,2,0,5,0,0
180197,-100,4,2,0,100,0,0
180459,-100,4,2,0,5,0,0
180497,-100,4,2,0,100,0,0
182521,-100,4,2,0,5,0,0
182596,-100,4,2,0,100,0,0
189759,-100,4,2,0,5,0,0
189796,612.244897959183,4,2,0,100,1,0
189796,-66.6666666666667,4,2,0,100,0,0
192244,666.666666666665,4,2,0,100,1,0
192244,-66.6666666666667,4,2,0,100,0,0
192494,-66.6666666666667,4,2,0,5,0,0
192577,-66.6666666666667,4,2,0,100,0,0
193702,-66.6666666666667,4,2,0,5,0,0
193744,-66.6666666666667,4,2,0,100,0,0
194035,-66.6666666666667,4,2,0,5,0,0
194077,-66.6666666666667,4,2,0,100,0,0
194244,-43.4782608695652,4,2,0,100,0,0
194369,-43.4782608695652,4,2,0,5,0,0
194452,-43.4782608695652,4,2,0,100,0,0
194577,-43.4782608695652,4,2,0,5,0,0
194660,-43.4782608695652,4,2,0,100,0,0
194785,-43.4782608695652,4,2,0,5,0,0
194910,340.909090909091,4,2,0,100,1,0
194910,-100,4,2,0,100,0,0
195208,-100,4,2,0,5,0,0
195250,434.782608695653,4,2,0,100,1,0
195250,-100,4,2,0,100,0,0
195684,1000,4,2,0,100,1,0 196684,∞,4,2,0,100,1,0

[HitObjects]
244,207,180,6,0,B|133:241|235:294|398:303|504:214|462:183|411:187,1,375
230,92,513,2,0,P|256:100|284:98,1,56.2500021457673
406,62,680,2,0,P|379:53|351:55,1,56.2500021457673
230,92,846,2,0,B|274:116|328:192|328:192|324:96|352:55,1,281.25,0|0,0:3|0:3,0:3:0:0:
360,48,1180,1,0,0:0:0:0:
440,296,1346,1,0,0:0:0:0:
440,296,1513,2,0,P|344:272|208:288,1,225
120,303,1846,2,0,P|91:326|81:362,1,75
219,284,2013,2,0,P|195:255|159:245,1,75
48,136,2180,2,0,P|87:129|117:110,1,75
278,52,2346,2,0,P|241:57|207:77,1,75
48,136,2513,2,0,P|103:134|162:153,1,112.500004291535
337,235,2680,6,0,P|370:214|386:180,1,75
356,45,2846,2,0,B|373:142|447:88|463:186,1,187.5,0|0,0:3|0:3,0:3:0:0:
381,330,3180,2,0,P|375:263|424:288,1,140.625
381,330,3346,2,0,P|321:314|229:333,1,140.625
90,293,3513,2,0,B|148:324|148:324|107:235|130:165,1,225
218,146,3846,1,0,0:0:0:0:
218,146,4013,6,0,P|268:120|310:120,1,93.75
435,118,4180,2,0,P|365:68|175:93,1,281.25
67,171,4513,2,0,P|61:212|78:269,1,93.75
112,318,4680,2,0,P|116:269|101:224,1,93.75
34,115,4846,2,0,P|36:224|53:301,2,187.5
34,115,5346,1,0,0:0:0:0:
233,321,5513,6,0,P|139:343|52:300,1,196.875001877546
53,301,5846,2,0,P|83:265|110:257,1,75
151,165,6013,2,0,P|193:184|208:208,1,75
311,51,6180,2,0,B|338:99|338:99|246:104|170:69,1,225
101,29,6513,1,0,0:0:0:0:
296,280,6680,6,0,P|295:242|328:210,1,75
408,157,6846,2,0,P|409:195|376:227,1,75
246,196,7013,2,0,P|276:179|322:180,1,75
461,230,7179,2,0,P|427:252|388:256,1,75
213,216,7346,2,0,P|196:181|204:135,1,75
400,46,7513,6,0,L|412:124,1,75
267,170,7680,2,0,L|255:95,1,75
257,26,7846,2,0,B|430:5|430:5|395:54,1,225
471,75,8180,1,0,0:0:0:0:
471,75,8346,6,0,P|452:106|418:122,1,75
202,253,8513,2,0,P|224:224|260:210,1,75
455,231,8680,2,0,L|383:208,1,75
223,120,8846,6,0,B|176:97|176:97|169:180|202:253,1,210.937505029142
261,313,9013,2,0,B|224:350|224:350|180:277|170:199,1,210.937505029142
50,73,9180,2,0,P|121:152|222:120,1,225.000008583069
222,120,9680,6,0,P|249:116|276:125,1,56.2500021457673
315,65,9846,2,0,P|337:82|349:107,1,56.2500021457673
419,110,10013,2,0,P|412:137|395:159,1,56.2500021457673
166,221,10180,6,0,P|231:195|264:195,1,84.3750032186509
394,159,10346,2,0,P|329:185|296:185,1,84.3750032186509
128,211,10513,2,0,P|187:174|219:168,1,84.3750032186509
258,305,10680,1,0,0:0:0:0:
227,309,10763,1,0,0:0:0:0:
200,309,10846,2,0,B|149:313|107:282|213:193|376:202|478:255|366:290,1,375
256,192,18846,12,0,21138,0:0:0:0:
219,184,21180,6,0,P|215:237|245:277,1,93.75
307,257,21346,2,0,P|310:203|280:163,1,93.75
166,127,21513,2,0,B|74:158|147:230|316:213|391:141|414:116|347:95|318:102,1,375
113,77,21846,2,0,B|83:91|67:126,1,56.2500021457673
227,73,22013,2,0,B|224:37|194:12,1,56.2500021457673
39,167,22180,1,0,0:3:0:0:
39,166,22513,6,0,P|52:153|62:137,1,37.5,0|0,0:3|0:3,0:3:0:0:
141,225,22680,2,0,P|147:198|139:172,1,56.2500021457673
261,270,22846,2,0,P|245:236|213:217,1,75
372,126,23013,1,0,0:0:0:0:
489,167,23180,2,0,B|420:212|420:212|247:159,1,262.5
154,102,23513,1,0,0:0:0:0:
154,102,23846,6,0,L|163:185,1,75
153,188,24013,2,0,L|162:271,1,75
235,356,24180,2,0,B|281:304|281:304|134:344,1,196.875001877546
106,296,24346,1,0,0:0:0:0:
302,293,24513,6,0,P|297:215|220:205,1,168.750006437302
202,215,24846,2,0,P|123:231|35:142,1,187.5
134,57,25180,6,0,L|241:68,1,93.75
302,102,25346,2,0,L|208:92,1,93.75
94,24,25513,2,0,L|187:33,1,93.75
353,133,25680,2,0,L|166:112,2,187.5
146,191,26180,2,0,L|32:200,1,112.500004291535
230,168,26513,5,0,0:0:0:0:
308,204,26680,1,0,0:0:0:0:
253,306,26846,2,0,L|219:298,1,28.1250010728836
253,306,26930,2,0,L|287:298,1,28.1250010728836
253,306,27013,2,0,L|219:314,1,28.1250010728836
253,306,27096,2,0,L|280:309,1,28.1250010728836
253,306,27180,2,0,L|223:307,1,28.1250010728836
438,320,27346,1,0,0:0:0:0:
57,308,27513,2,0,B|-3:269|-3:269|149:285,1,225.000008583069
251,188,27846,2,0,P|231:168|205:158,1,56.2500021457673
172,73,28013,2,0,P|148:88|133:111,1,56.2500021457673
48,71,28180,2,0,P|35:95|34:123,1,56.2500021457673
351,141,28346,6,0,L|340:328,2,187.5
353,101,28846,2,0,B|393:135|393:135|254:123,1,187.5
145,112,29180,2,0,P|114:73|66:64,1,93.75
78,137,29346,2,0,P|32:156|11:200,1,93.75
67,296,29513,6,0,L|117:304,1,46.875
81,302,29596,2,0,L|131:310,1,46.875
96,309,29680,2,0,L|146:317,1,46.875
261,262,29846,2,0,L|356:246,1,93.75
452,251,30013,2,0,L|357:267,1,93.75
261,262,30180,2,0,B|319:190|319:190|413:198,1,187.5
455,90,30513,6,0,P|413:118|365:118,1,93.75
394,48,30680,2,0,P|344:38|310:4,1,93.75
112,125,30846,2,0,L|306:102,2,187.5
112,125,31346,1,0,0:0:0:0:
196,254,31513,6,0,P|235:195|326:178,1,168.750006437302
425,194,31846,2,0,P|377:126|297:102,1,168.750006437302
196,254,32180,6,0,L|365:300,1,168.750006437302
358,298,32513,2,0,P|375:266|370:307,1,112.5
308,368,32846,1,0,0:0:0:0:
257,306,33013,1,0,0:0:0:0:
196,253,33180,1,0,0:0:0:0:
116,253,33346,1,0,0:0:0:0:
50,288,33513,2,0,P|106:241|103:168,1,150
30,33,33846,5,0,0:0:0:0:
89,132,34013,1,0,0:0:0:0:
210,65,34180,2,0,P|257:46|349:81,1,150
458,113,34513,1,0,0:0:0:0:
399,167,34680,1,0,0:0:0:0:
335,220,34846,2,0,P|270:269|226:324,2,150
152,95,35346,2,0,P|182:159|229:223,2,150
405,162,35846,6,0,P|456:121|352:67,1,225
190,160,36180,2,0,B|300:108|293:219|403:161,1,225
348,109,36513,1,0,0:0:0:0:
241,218,36680,1,0,0:0:0:0:
423,322,36846,1,0,0:0:0:0:
367,222,37013,1,0,0:0:0:0:
254,321,37180,2,0,L|142:336,1,112.5
43,324,37513,6,0,L|321:285,1,281.25
390,275,37846,2,0,B|368:182|282:251|255:141,1,187.5
211,64,38180,2,0,P|291:80|259:155,1,187.5
127,227,38513,2,0,P|154:189|198:173,1,93.75
324,196,38680,2,0,P|287:224|240:228,1,93.75
43,324,38846,2,0,P|178:288|318:290,1,281.25
420,229,39180,6,0,L|441:331,1,93.75
473,343,39346,2,0,L|454:251,1,93.75
415,114,39513,2,0,B|382:174|382:174|413:327,1,225
420,353,39846,5,0,0:0:0:0:
471,229,40013,1,0,0:0:0:0:
322,276,40180,2,0,P|290:277|263:289,1,56.25
232,314,40346,1,0,0:0:0:0:
171,244,40513,2,0,P|143:228|113:227,1,56.25
81,219,40680,1,0,0:0:0:0:
73,121,40846,2,0,P|124:92|178:83,1,112.5
240,60,41013,1,0,0:0:0:0:
459,132,41180,6,0,L|369:142,1,75
280,162,41346,2,0,L|354:153,1,75
484,157,41513,2,0,L|257:184,1,225
62,232,41847,6,0,L|152:242,1,75
241,262,42013,2,0,L|166:253,1,75
37,257,42180,2,0,L|226:278,1,191.250003647804
305,266,42346,1,0,0:0:0:0:
343,195,42513,1,0,0:0:0:0:
316,116,42680,5,0,0:0:0:0:
304,129,42763,1,0,0:0:0:0:
299,142,42846,2,0,B|315:173|309:203|309:203|373:228|401:293|401:293|392:220|425:168|425:168|399:148|393:121,1,382.500007295609
409,51,43180,2,0,P|457:43|492:57,1,75
299,142,43346,2,0,P|251:150|216:136,1,75
480,242,43513,1,0,0:0:0:0:
214,240,43680,6,0,L|158:248,1,56.2500021457673
228,243,43846,2,0,L|283:234,1,56.2500021457673
114,249,44013,2,0,L|169:240,1,56.2500021457673
341,233,44180,2,0,L|285:241,1,56.2500021457673
84,238,44346,2,0,L|139:229,1,56.2500021457673
372,240,44513,2,0,L|316:248,1,56.2500021457673
56,222,44680,6,0,P|91:210|114:182,1,75
248,116,44846,2,0,P|212:128|189:156,1,75
10,97,45013,2,0,P|21:132|60:155,1,75
334,177,45180,2,0,L|245:195,1,75
167,224,45346,2,0,L|240:210,1,75
395,100,45513,2,0,B|447:47|447:47|376:75|299:70|299:70|248:48|185:60,1,337.500012874604
104,53,45846,1,0,0:0:0:0:
300,158,46013,1,0,0:0:0:0:
118,256,46180,2,0,L|85:274,1,37.5
327,244,46346,5,0,0:0:0:0:
383,301,46513,2,0,L|394:266,1,37.5
383,301,46596,2,0,L|417:332,1,37.5
383,301,46680,2,0,L|343:311,1,37.5
124,331,46846,2,0,P|162:329|195:313,1,75
330,284,47013,2,0,P|296:268|259:265,1,75
71,244,47180,2,0,P|104:260|141:263,1,75
319,191,47346,2,0,L|300:113,1,75
266,85,47513,2,0,L|283:157,1,75
353,215,47680,2,0,L|335:142,1,75
231,59,47846,2,0,L|248:131,1,75
390,244,48013,2,0,L|372:171,1,75
145,109,48180,6,0,B|131:87|121:82|82:92|63:114|77:135|81:150|85:166|105:177|128:171|149:157|248:131,1,281.250006705523
469,138,48513,2,0,P|432:110|386:111,1,93.75
303,85,48680,2,0,P|339:112|385:111,1,93.75
442,38,48846,1,0,0:0:0:0:
160,176,49013,6,0,L|145:200,1,28.1250010728836
144,191,49096,2,0,L|123:210,1,28.1250010728836
129,202,49180,2,0,L|104:215,1,28.1250010728836
35,269,49346,2,0,P|84:294|139:289,1,112.5
318,294,49513,2,0,P|269:269|214:274,1,112.5
222,197,49680,2,0,L|229:141,1,56.25
233,117,49846,2,0,B|282:131|282:131|286:122|286:122|419:134,1,187.5
242,47,50013,2,0,P|162:28|87:32,2,150
233,188,50513,2,0,P|260:226|300:233,1,75
370,273,50680,2,0,P|346:244|310:236,1,75
452,288,50846,6,0,B|426:251|431:121|431:121|405:250|370:274,1,337.500012874604
305,304,51180,6,0,L|230:314,1,75
216,330,51346,2,0,L|141:340,1,75
41,284,51513,1,0,0:0:0:0:
40,198,51680,6,0,P|72:179|108:183,1,75
166,115,51846,2,0,P|192:140|199:176,1,75
337,51,52013,1,0,0:0:0:0:
337,51,52180,2,0,B|285:85|285:85|123:62,1,225
88,54,52513,6,0,L|68:129,1,75
163,295,52680,2,0,L|182:222,1,75
337,51,52846,2,0,L|308:159,2,112.500004291535
337,51,53346,1,0,0:0:0:0:
271,304,53513,2,0,P|316:322|376:297,1,112.500004291535
435,200,53846,2,0,P|399:209|376:238,1,75
348,80,54013,2,0,P|324:108|321:145,1,75
202,39,54180,2,0,P|205:75|229:103,1,75,0|0,0:3|0:0,0:0:0:0:
64,166,54346,2,0,B|197:145|197:145|228:102,2,187.5
427,87,54846,6,0,L|211:26,1,225.000008583069
34,277,55013,1,0,0:0:0:0:
34,277,55180,2,0,B|65:234|65:234|208:211,1,196.875007510186
231,208,55513,1,0,0:0:0:0:
324,173,55846,1,0,0:0:0:0:
395,200,56013,1,0,0:0:0:0:
464,293,56180,2,0,L|438:263,1,28.1250010728836
432,312,56263,2,0,L|418:280,1,28.1250010728836
395,323,56346,2,0,L|388:289,1,28.1250010728836
299,253,56513,1,0,0:0:0:0:
224,291,56680,1,0,0:0:0:0:
224,291,56846,6,0,P|189:306|119:278,1,112.500004291535
48,214,57180,2,0,P|85:219|146:174,1,112.500004291535
190,80,57513,2,0,P|156:115|132:73,1,112.500004291535
152,148,57846,2,0,P|215:168|261:146,1,112.500004291535
268,349,58513,6,0,P|260:287|209:324,1,150
208,324,58846,2,0,P|263:281|268:349,1,168.750006437302
358,308,59013,1,0,0:0:0:0:
148,264,59180,2,0,P|201:212|259:206,1,112.500004291535
326,189,59346,2,0,P|273:137|215:131,1,112.500004291535
40,88,59513,2,0,B|83:103|129:105|129:105|165:77|218:66,1,187.5
420,46,59846,6,0,P|431:78|425:102,1,56.2500021457673
495,125,60013,2,0,P|477:153|455:164,1,56.2500021457673,0|0,0:0|0:3,0:0:0:0:
406,296,60180,2,0,B|371:231|371:231|395:168,1,140.625
411,137,60346,1,0,0:0:0:0:
328,294,60513,2,0,P|258:338|175:332,1,168.750006437302
137,314,60846,1,0,0:0:0:0:
130,105,61180,6,0,B|120:143|120:143|137:177,1,75
158,197,61346,2,0,B|168:158|168:158|151:125,1,75
310,102,61513,6,0,L|328:44,1,37.5
310,102,61596,2,0,L|335:129,1,37.5
310,102,61680,2,0,L|273:110,1,37.5
428,87,61846,1,0,0:0:0:0:
219,242,62013,1,0,0:0:0:0:
219,242,62180,2,0,P|251:204|348:202,1,150
482,231,62513,2,0,P|450:269|353:271,1,150
182,168,62846,2,0,P|129:156|79:180,1,112.5
60,192,63013,1,0,0:0:0:0:
39,324,63180,2,0,B|59:349|102:357|102:357|216:277|257:194,1,300
257,194,63846,6,0,L|199:205,1,56.2500021457673
94,165,64180,1,0,0:0:0:0:
36,240,64347,2,0,P|85:240|122:265,1,93.75
121,264,64513,2,0,B|158:301|174:406|174:406|157:329|178:277,1,281.25
197,247,64846,2,0,P|223:221|260:214,1,75
455,126,65180,5,0,0:0:0:0:
434,140,65346,1,0,0:0:0:0:
409,158,65513,2,0,B|335:186|339:115|268:130,1,150
201,167,66013,1,0,0:0:0:0:
140,101,66180,2,0,P|152:127|172:146,1,56.2500021457673
215,77,66346,2,0,P|202:50|182:31,1,56.2500021457673
58,113,66513,1,0,0:0:0:0:
283,47,66680,6,0,P|316:62|341:90,1,75
426,92,66846,2,0,P|373:109|314:198,1,150
192,222,67180,2,0,P|238:244|270:239,1,75
360,264,67346,2,0,L|288:241,1,75
191,142,67513,2,0,P|144:161|124:259,2,150
268,142,68013,1,0,0:0:0:0:
343,142,68180,2,0,P|390:123|410:25,1,150
191,73,68513,6,0,P|266:57|340:63,2,150
30,52,69013,1,0,0:0:0:0:
136,20,69180,1,0,0:0:0:0:
213,237,69513,2,0,P|255:276|349:244,1,150
374,197,69846,2,0,P|338:185|304:198,1,75
280,85,70013,2,0,P|250:107|241:143,1,75
158,54,70180,2,0,B|115:96|115:96|206:108|279:84,1,225
370,78,70513,1,0,0:0:0:0:
453,186,70680,6,0,L|434:258,1,75
396,294,70846,2,0,L|414:221,1,75
414,148,71013,2,0,L|396:221,1,75
348,316,71180,2,0,L|385:170,2,150
115,336,71680,1,0,0:0:0:0:
248,358,71846,2,0,P|196:308|126:324,1,150
43,272,72346,5,0,0:0:0:0:
105,242,72513,1,0,0:0:0:0:
143,173,72680,1,0,0:0:0:0:
117,101,72846,2,0,P|204:70|298:70,2,187.5
86,106,73346,1,0,0:0:0:0:
438,143,73680,2,0,L|251:160,2,187.5
35,133,74180,2,0,L|427:96,1,393.750015020371
370,170,74846,2,0,P|334:83|426:95,1,225.000008583069
199,215,75180,2,0,P|228:193|265:189,1,75
370,170,75346,2,0,P|341:192|304:196,1,75
127,124,75513,2,0,B|252:97|247:218|369:169,1,258.750004935265,0|0,0:3|0:3,0:3:0:0:
426,95,75846,1,0,0:0:0:0:
422,365,76013,5,0,0:0:0:0:
421,365,76180,2,0,B|345:270|345:270|368:169,1,225
473,224,76513,6,0,P|431:231|400:249,1,75
192,315,76680,2,0,P|230:322|263:340,1,75
59,140,76846,6,0,P|58:243|78:327,2,187.5
207,33,77346,2,0,P|179:31|150:42,1,56.2500021457673
26,77,77513,2,0,B|124:54|114:146|215:105,1,187.5
355,135,77846,2,0,P|348:107|331:85,1,56.2500021457673
283,16,78013,2,0,P|289:43|306:65,1,56.2500021457673
384,280,78180,2,0,B|409:245|409:245|389:165|400:93|400:93|374:161|317:220|317:220|326:264,1,393.750015020371
256,264,78513,1,0,0:0:0:0:
56,208,78680,1,0,0:0:0:0:
56,208,78846,2,0,B|112:232|112:232|240:208,1,191.250003647804
176,112,79180,2,0,L|192:192,1,63.7500012159348
168,224,79346,2,0,L|155:161,1,63.7500012159348
128,72,79513,2,0,L|154:196,2,127.50000243187
128,72,80013,1,0,0:0:0:0:
96,336,80180,2,0,P|48:328|32:256,1,127.50000243187
240,216,80513,6,0,P|224:256|200:272,1,63.7500012159348
360,176,80680,2,0,P|328:205|300:209,1,63.7500012159348
464,88,80846,2,0,B|408:112|408:112|280:88,1,191.250003647804
208,72,81180,1,0,0:0:0:0:
80,192,81346,6,0,P|103:111|160:168,1,196.875001877546
160,167,81513,2,0,P|123:164|89:181,1,75
56,232,81680,1,0,0:0:0:0:
344,264,81846,6,0,P|316:289|280:298,1,75
200,360,82013,2,0,P|219:328|252:310,1,75
364,121,82180,2,0,P|371:194|343:263,2,150,0|0|0,0:0|0:0|0:0,2:0:0:0:
364,121,82680,1,0,0:0:0:0:
223,154,82846,6,0,B|293:169|293:105|363:120,1,150
464,144,83180,1,0,0:0:0:0:
464,144,83346,1,0,0:0:0:0:
200,88,83513,2,0,L|52:59,2,150
200,88,84013,1,0,0:0:0:0:
256,344,84346,5,0,0:0:0:0:
296,248,84513,1,0,0:0:0:0:
336,160,84680,2,0,B|352:123|352:123|336:160|336:160|336:160|336:160|352:123|352:123|336:160|336:160|352:123|352:123|336:160|336:160|352:123|352:123|336:160|336:160|352:123|352:123|336:160|336:160|352:123|352:123|336:160|336:160|352:123|352:123|336:160|336:160|352:123|352:123|336:160|336:160|352:123|352:123|336:160|336:160|348:132,1,750,0|0,0:3|0:0,0:0:0:0:
256,72,85180,5,0,0:0:0:0:
256,192,85513,5,0,0:0:0:0:
320,208,85680,1,0,0:0:0:0:
384,224,85846,1,0,0:0:0:0:
320,240,86013,5,0,0:0:0:0:
256,256,86180,1,0,0:0:0:0:
192,272,86346,1,0,0:0:0:0:
128,288,86513,2,0,L|48:312,3,75
80,160,87180,1,0,0:0:0:0:
104,224,87346,1,0,0:0:0:0:
56,96,87513,2,0,L|96:32,3,75
184,160,88180,5,0,0:0:0:0:
184,160,88346,1,0,0:0:0:0:
184,160,88513,1,0,0:0:0:0:
288,88,88680,5,0,0:0:0:0:
297,115,88846,1,0,0:0:0:0:
266,107,89013,1,0,0:0:0:0:
400,40,89180,5,0,0:0:0:0:
391,66,89346,1,0,0:0:0:0:
370,42,89513,1,0,0:0:0:0:
464,224,89680,5,0,0:0:0:0:
336,208,89846,1,0,0:0:0:0:
400,216,90013,1,0,0:0:0:0:
272,200,90180,5,0,0:0:0:0:
168,296,90346,1,0,0:0:0:0:
208,192,90513,1,0,0:0:0:0:
168,296,90680,1,0,0:0:0:0:
128,104,90846,2,0,L|141:177,1,75
112,40,91180,5,0,0:0:0:0:
176,32,91346,1,0,0:0:0:0:
240,24,91513,2,0,L|320:16,3,75
408,264,92180,5,0,0:0:0:0:
339,242,92346,1,0,0:0:0:0:
313,176,92513,1,0,0:0:0:0:
349,114,92680,1,0,0:0:0:0:
419,104,92846,2,0,L|488:152,3,75
304,136,93513,6,0,P|271:91|216:80,1,112.5
40,176,93846,2,0,L|264:144,1,225
328,160,94513,6,0,P|295:115|240:104,1,112.5
64,200,94846,2,0,L|288:168,1,225
352,176,95513,6,0,P|319:131|264:120,1,112.5
88,216,95846,2,0,L|310:184,1,225
188,291,96180,2,0,P|78:333|88:216,1,281.25
164,62,96513,2,0,P|155:153|87:215,1,187.5
240,88,96846,1,0,0:0:0:0:
288,80,97013,1,0,0:0:0:0:
336,88,97180,2,0,P|376:97|414:80,1,84.3750032186509
440,48,97513,2,0,L|457:120,1,75
336,296,97846,2,0,P|334:252|376:238,1,93.75
336,296,97930,2,0,P|372:320|360:362,1,93.75
336,296,98013,2,0,P|295:311|267:277,1,93.75
128,288,98180,2,0,L|90:288,1,37.5
90,288,98513,5,0,0:0:0:0:
90,288,98680,1,0,0:0:0:0:
114,216,98846,2,0,P|146:176|210:168,1,112.500004291535
288,176,99180,1,0,0:0:0:0:
288,176,99346,2,0,P|342:168|378:126,1,112.500004291535
192,88,99680,2,0,L|304:104,2,112.500004291535
80,40,100180,2,0,P|40:72|64:176,1,168.750006437302
224,192,100513,2,0,B|152:152|136:216|61:174,1,168.750006437302
104,112,100846,1,0,0:0:0:0:
72,304,101013,5,0,0:0:0:0:
72,304,101180,1,0,0:0:0:0:
72,304,101346,1,0,0:0:0:0:
320,320,101513,2,0,L|128:288,1,168.750006437302
128,288,101846,2,0,P|160:248|144:168,2,112.500004291535
96,224,102346,1,0,0:0:0:0:
96,224,102513,1,0,0:0:0:0:
96,224,102846,2,0,P|152:232|192:192,1,112.500004291535
320,144,103180,1,0,0:0:0:0:
320,144,103346,1,0,0:0:0:0:
320,144,103513,2,0,P|264:152|224:112,1,112.500004291535
176,56,103846,1,0,0:0:0:0:
190,196,104180,6,0,L|206:316,2,112.500004291535
334,85,104846,1,0,0:0:0:0:
453,149,105013,1,0,0:0:0:0:
453,149,105180,1,0,0:0:0:0:
453,149,105346,2,0,L|437:269,2,112.500004291535
455,124,105846,2,0,P|411:90|356:97,1,112.5
229,92,106180,2,0,P|272:125|327:118,1,112.5
216,79,106513,2,0,B|152:54|150:108|88:80,1,131.25
35,37,106846,2,0,L|58:339,1,300
256,193,107346,5,0,0:0:0:0:
432,136,107513,2,0,B|435:128|435:128|428:143|428:143|428:125|428:125|421:139|421:139|420:121|420:121|414:136|414:136|413:118|413:118|406:133|406:133|406:115|406:115|399:129|399:129|399:111|399:111|392:126|392:126|391:108|391:108|385:122|385:122|384:105|384:105|377:119|377:119|377:101|377:101|370:116|370:116|370:98|370:98|363:112|363:112|362:94|362:94|356:109|356:109|355:91|355:91|348:106|348:106|348:88|348:88|341:102|341:102|341:84|341:84|334:99|334:99|333:81|333:81|327:95|327:95|326:78|326:78|319:92|319:92|319:74|319:74|312:89,1,562.500013411045
288,48,107846,2,0,B|281:24|281:24|294:71|294:71|274:26|274:26|286:73|286:73|266:28|266:28|278:75|278:75|258:31|258:31|271:77|271:77|250:33|250:33|263:79|263:79|243:35|243:35|255:81|255:81|235:37|235:37|247:83|247:83|227:39|227:39|240:85|240:85|219:41|219:41|232:87|232:87|212:43|212:43|224:89|224:89|204:45|204:45|216:91|216:91|196:47|196:47|209:93|209:93|189:49|189:49|201:96|201:96|181:51|181:51|193:98|193:98|173:53|173:53|186:100|186:100|165:55|165:55|178:102|178:102|158:57|158:57|170:104|170:104|150:60|150:60|162:106|162:106|142:62|142:62|155:108|155:108|134:64|134:64|147:110|147:110|127:66|127:66|139:112,1,1968.75004693866
120,168,108513,2,0,B|96:161|96:161|135:172|135:172|94:169|94:169|133:179|133:179|92:177|92:177|131:187|131:187|90:184|90:184|129:195|129:195|88:192|88:192|127:203|127:203|86:200|86:200|125:210|125:210|84:208|84:208|123:218|123:218|82:215|82:215|120:226|120:226|80:223|80:223,1,562.500013411045
200,264,108846,5,0,0:0:0:0:
256,304,109013,1,0,0:0:0:0:
320,320,109180,1,0,0:0:0:0:
376,280,109346,1,0,0:0:0:0:
464,104,109513,2,0,B|456:100|456:100|471:107|471:107|453:107|453:107|467:114|467:114|449:115|449:115|464:121|464:121|446:122|446:122|461:129|461:129|443:129|443:129|457:136|457:136|439:136|439:136|454:143|454:143|436:144|436:144|450:150|450:150|433:151|433:151|447:158|447:158|429:158|429:158|444:165|444:165|426:165|426:165|440:172|440:172|422:173|422:173|437:179|437:179|419:180|419:180|434:187|434:187|416:187|416:187|430:194|430:194|412:194|412:194|427:201|427:201|409:202|409:202|423:208|423:208|406:209|406:209|420:216|420:216|402:216|402:216|417:223,1,562.500013411045
400,152,109846,2,0,B|403:144|403:144|396:159|396:159|396:141|396:141|389:155|389:155|388:137|388:137|382:152|382:152|381:134|381:134|374:149|374:149|374:131|374:131|367:145|367:145|367:127|367:127|360:142|360:142|359:124|359:124|353:138|353:138|352:121|352:121|345:135|345:135|345:117|345:117|338:132|338:132|338:114|338:114|331:128|331:128|330:110|330:110|324:125|324:125|323:107|323:107|316:122|316:122|316:104|316:104|309:118|309:118|309:100|309:100|302:115|302:115|301:97|301:97|295:111|295:111|294:94|294:94|287:108|287:108|287:90|287:90|280:105,1,562.500013411045
272,56,110180,2,0,B|278:79|278:79|269:48|269:48|266:65|266:65|258:34|258:34|262:83|262:83|254:52|254:52|250:69|250:69|242:39|242:39|245:79|245:79|239:56|239:56|239:89|239:89|227:43|227:43|227:76|227:76|223:60|223:60|224:93|224:93|211:47|211:47|212:80|212:80|208:64|208:64|208:97|208:97|196:51|196:51|196:84|196:84|192:68|192:68|193:101|193:101|180:55|180:55|183:96|183:96|177:73|177:73|173:90|173:90|165:59|165:59|170:108|170:108|161:77|161:77|158:94|158:94|149:63|149:63|154:112|154:112|146:81|146:81|142:98|142:98|134:68|134:68|139:116|139:116|130:85|130:85|129:110,1,1125
80,128,110513,2,0,B|56:121|56:121|95:132|95:132|54:129|54:129|93:139|93:139|52:137|52:137|91:147|91:147|50:144|50:144|89:155|89:155|48:152|48:152|87:163|87:163|46:160|46:160|85:170|85:170|44:168|44:168|83:178|83:178|42:175|42:175|80:186|80:186|40:183|40:183,1,562.500013411045
80,128,110680,2,0,B|56:134|56:134|103:121|103:121|58:141|58:141|105:129|105:129|60:149|60:149|107:137|107:137|63:157|63:157|109:144|109:144|65:165|65:165|111:152|111:152|67:172|67:172|113:160|113:160|69:180|69:180|115:168|115:168|71:188|71:188|117:175|117:175|73:196|73:196|119:183|119:183|75:203|75:203|121:191|121:191|77:211|77:211|123:199|123:199|79:219|79:219|125:206|125:206|81:226|81:226|128:214|128:214|83:234|83:234|130:222|130:222|85:242|85:242|132:229|132:229|87:250|87:250|134:237|134:237|89:257|89:257|136:245|136:245|92:265|92:265|138:253|138:253|94:273|94:273|140:260|140:260|96:281|96:281|142:268|142:268|96:288,1,1875
120,304,111180,1,0,0:0:0:0:
192,184,111346,5,0,0:0:0:0:
304,144,111513,1,0,0:0:0:0:
232,120,111680,1,0,0:0:0:0:
336,208,111846,1,0,0:0:0:0:
224,248,112013,1,0,0:0:0:0:
392,312,112180,2,0,B|394:304|394:304|389:319|389:319|387:301|387:301|381:316|381:316|379:299|379:299|374:314|374:314|372:296|372:296|366:311|366:311|364:293|364:293|359:308|359:308|357:290|357:290|351:305|351:305|349:288|349:288|344:303|344:303|342:285|342:285|336:300|336:300|334:282|334:282|329:297|329:297|327:279|327:279|321:294|321:294|319:277|319:277|314:292|314:292|312:274|312:274|306:289|306:289|304:271|304:271|299:286|299:286|297:268|297:268|291:283|291:283|289:266|289:266|284:281|284:281|281:263|281:263|276:278|276:278|274:260|274:260|268:275,1,562.500013411045
184,312,112513,2,0,B|191:313|191:313|176:310|176:310|193:305|193:305|177:302|177:302|194:297|194:297|178:294|178:294|196:289|196:289|180:286|180:286|197:281|197:281|181:279|181:279|198:273|198:273|183:271|183:271|200:266|200:266|184:263|184:263|201:258|201:258|185:255|185:255|202:250|202:250|187:247|187:247|204:242|204:242|188:239|188:239|205:234|205:234|190:231|190:231|207:226|207:226|191:223|191:223|208:218|208:218|192:216|192:216|209:210|209:210|194:208|194:208|211:203|211:203|195:200|195:200|212:195|212:195|196:192|196:192|214:187|214:187|198:184,1,562.500013411045
192,280,112847,2,0,B|168:286|168:286|199:277|199:277|182:274|182:274|213:266|213:266|164:270|164:270|195:262|195:262|178:258|178:258|208:250|208:250|168:253|168:253|191:247|191:247|158:247|158:247|204:235|204:235|171:235|171:235|187:231|187:231|154:232|154:232|200:219|200:219|167:220|167:220|183:216|183:216|150:216|150:216|196:204|196:204|163:204|163:204|179:200|179:200|146:201|146:201|192:188|192:188|151:191|151:191|174:185|174:185|157:181|157:181|188:173|188:173|139:178|139:178|170:169|170:169|153:166|153:166|184:157|184:157|135:162|135:162|166:154|166:154|149:150|149:150|179:142|179:142|131:147|131:147|162:138|162:138|137:137,1,1125
272,120,113180,2,0,B|265:96|265:96|276:135|276:135|273:94|273:94|283:133|283:133|281:92|281:92|291:131|291:131|288:90|288:90|299:129|299:129|296:88|296:88|307:127|307:127|304:86|304:86|314:125|314:125|312:84|312:84|322:123|322:123|319:82|319:82|330:120|330:120|327:80|327:80,1,562.500013411045
352,72,113347,2,0,B|328:78|328:78|375:65|375:65|330:85|330:85|377:73|377:73|332:93|332:93|379:81|379:81|335:101|335:101|381:88|381:88|337:109|337:109|383:96|383:96|339:116|339:116|385:104|385:104|341:124|341:124|387:112|387:112|343:132|343:132|389:119|389:119|345:140|345:140|391:127|391:127|347:147|347:147|393:135|393:135|349:155|349:155|395:143|395:143|351:163|351:163|397:150|397:150|353:170|353:170|400:158|400:158|355:178|355:178|402:166|402:166|357:186|357:186|404:173|404:173|359:194|359:194|406:181|406:181|361:201|361:201|408:189|408:189|364:209|364:209|410:197|410:197|366:217|366:217|412:204|412:204|368:225|368:225|414:212|414:212|368:232,1,1875
400,240,113846,1,0,0:0:0:0:
312,224,114013,5,0,0:0:0:0:
352,320,114180,1,0,0:0:0:0:
192,328,114346,1,0,0:0:0:0:
280,336,114513,1,0,0:0:0:0:
128,304,114680,1,0,0:0:0:0:
160,216,114846,2,0,B|167:218|167:218|152:213|152:213|170:211|170:211|155:205|155:205|172:203|172:203|157:198|157:198|175:196|175:196|160:190|160:190|178:188|178:188|163:183|163:183|181:181|181:181|166:175|166:175|183:173|183:173|168:168|168:168|186:166|186:166|171:160|171:160|189:158|189:158|174:153|174:153|192:151|192:151|177:145|177:145|194:143|194:143|179:138|179:138|197:136|197:136|182:130|182:130|200:128|200:128|185:123|185:123|203:121|203:121|188:115|188:115|205:113|205:113|190:108|190:108|208:105|208:105|193:100|193:100|211:98|211:98|196:92,1,562.500013411045
152,88,115179,2,0,B|150:95|150:95|153:80|153:80|158:97|158:97|161:81|161:81|166:98|166:98|169:82|169:82|174:100|174:100|177:84|177:84|182:101|182:101|184:85|184:85|190:102|190:102|192:87|192:87|197:104|197:104|200:88|200:88|205:105|205:105|208:89|208:89|213:106|213:106|216:91|216:91|221:108|221:108|224:92|224:92|229:109|229:109|232:94|232:94|237:111|237:111|240:95|240:95|245:112|245:112|247:96|247:96|253:113|253:113|255:98|255:98|260:115|260:115|263:99|263:99|268:116|268:116|271:100|271:100|276:118|276:118|279:102,1,562.500013411045
128,296,115513,2,0,B|104:302|104:302|135:293|135:293|118:290|118:290|149:282|149:282|100:286|100:286|131:278|131:278|114:274|114:274|144:266|144:266|104:269|104:269|127:263|127:263|94:263|94:263|140:251|140:251|107:251|107:251|123:247|123:247|90:248|90:248|136:235|136:235|103:236|103:236|119:232|119:232|86:232|86:232|132:220|132:220|99:220|99:220|115:216|115:216|82:217|82:217|128:204|128:204|87:207|87:207|110:201|110:201|93:197|93:197|124:189|124:189|75:194|75:194|106:185|106:185|89:182|89:182|120:173|120:173|71:178|71:178|102:170|102:170|85:166|85:166|115:158|115:158|67:163|67:163|98:154|98:154|73:153,1,1125
328,144,115846,2,0,B|351:137|351:137|312:148|312:148|353:145|353:145|314:155|314:155|355:153|355:153|316:163|316:163|357:160|357:160|318:171|318:171|359:168|359:168|320:179|320:179|361:176|361:176|322:186|322:186|363:184|363:184|324:194|324:194|365:191|365:191|327:202|327:202|367:199|367:199,1,562.500013411045
328,144,116013,2,0,B|307:131|307:131|348:156|348:156|303:138|303:138|344:162|344:162|299:145|299:145|340:169|340:169|295:152|295:152|336:176|336:176|291:159|291:159|332:183|332:183|287:166|287:166|328:190|328:190|283:173|283:173|324:197|324:197|279:180|279:180|320:204|320:204|275:187|275:187|316:211|316:211|271:194|271:194|312:218|312:218|267:201|267:201|308:225|308:225|263:208|263:208|304:232|304:232|259:215|259:215|300:239|300:239|255:222|255:222|296:246|296:246|251:228|251:228|292:252|292:252|247:235|247:235|288:259|288:259|243:242|243:242|284:266|284:266|239:249|239:249|280:273|280:273|235:256|235:256|276:280|276:280|231:263|231:263|272:287|272:287|232:272,1,1875
240,312,116513,1,0,0:0:0:0:
128,40,116846,2,0,B|104:46|104:46|151:33|151:33|106:53|106:53|153:41|153:41|108:61|108:61|155:49|155:49|111:69|111:69|157:56|157:56|113:77|113:77|159:64|159:64|115:84|115:84|161:72|161:72|117:92|117:92|163:80|163:80|119:100|119:100|165:87|165:87|121:108|121:108|167:95|167:95|123:115|123:115|169:103|169:103|125:123|125:123|171:111|171:111|127:131|127:131|173:118|173:118|129:138|129:138|176:126|176:126|131:146|131:146|178:134|178:134|133:154|133:154|180:141|180:141|135:162|135:162|182:149|182:149|137:169|137:169|184:157|184:157|140:177|140:177|186:165|186:165|142:185|142:185|188:172|188:172|144:193|144:193|190:180|190:180|144:200,1,1875
176,216,117346,1,0,0:0:0:0:
432,176,117513,6,0,L|282:161,1,150
282,161,117846,6,0,L|432:176,1,150
432,176,118180,6,0,L|282:161,1,150
168,224,118680,1,0,0:0:0:0:
168,224,118846,2,0,P|204:226|235:206,1,75
104,192,119180,1,0,0:0:0:0:
104,192,119346,2,0,P|96:240|112:272,1,75
152,328,119680,2,0,L|232:304,1,75
328,272,120013,1,0,0:0:0:0:
352,168,120180,2,0,L|337:241,1,75
432,184,120513,1,0,0:0:0:0:
280,152,120680,1,0,0:0:0:0:
152,176,120846,2,0,P|192:160|208:88,1,112.5
200,64,121180,1,0,0:0:0:0:
120,80,121346,1,0,0:0:0:0:
40,96,121513,2,0,L|64:184,1,75
80,312,121846,2,0,L|99:239,1,75
152,120,122180,1,0,0:0:0:0:
216,272,122346,1,0,0:0:0:0:
256,80,122513,1,0,0:0:0:0:
384,200,122846,5,0,0:0:0:0:
336,272,123168,6,0,P|305:250|268:247,1,75
264,176,123329,2,0,P|229:189|205:217,1,75
16,72,123491,2,0,P|80:72|176:128,1,168.750006437302
192,144,123813,1,0,0:0:0:0:
368,200,123975,6,0,P|395:163|400:128,1,75
400,80,124136,2,0,P|372:116|368:144,1,75
456,240,124297,2,0,P|417:213|322:212,1,140.625
248,240,124458,1,0,0:0:0:0:
248,240,124620,1,0,0:0:0:0:
48,312,124781,6,0,P|96:288|32:208,1,187.5
32,128,125104,2,0,P|72:208|328:224,1,375
327,224,125587,6,0,P|376:184|424:192,1,93.75
504,296,125749,2,0,L|320:240,1,187.5
208,144,126071,1,0,0:0:0:0:
240,320,126233,1,0,0:0:0:0:
216,120,126394,1,0,0:0:0:0:
160,344,126555,1,0,0:0:0:0:
80,192,126716,1,0,0:0:0:0:
128,80,126878,6,0,L|176:88,1,46.875
128,80,126958,2,0,L|176:88,1,46.875
128,80,127039,2,0,L|176:88,1,46.875
280,112,127200,1,0,0:0:0:0:
368,56,127362,1,0,0:0:0:0:
490,182,127523,2,0,B|394:158|466:86|367:55,1,187.5
201,302,128007,5,0,0:0:0:0:
268,301,128166,1,0,0:0:0:0:
320,260,128326,1,0,0:0:0:0:
240,176,128485,5,0,0:0:0:0:
208,144,128565,1,0,0:0:0:0:
176,120,128645,2,0,B|121:101|83:144|83:144|121:101|176:120|176:120|121:101|83:144|83:144|121:101|176:120|176:120|121:101|83:144|83:144|121:101|176:120|176:120|121:101|83:144|83:144|121:101|176:120|176:120|121:101|83:144|83:144|121:101|176:120|176:120|121:101|83:144|83:144,1,1125
72,48,128964,1,0,0:0:0:0:
83,242,129124,5,0,0:0:0:0:
129,249,129203,1,0,0:0:0:0:
406,260,129283,2,0,B|457:296|457:296|129:249,1,393.750003755093
83,242,129602,1,0,0:0:0:0:
131,175,129762,1,0,0:0:0:0:
178,105,129921,2,0,P|208:83|248:81,1,75
368,112,130241,2,0,B|336:144|296:136|296:136|336:144|368:112|368:112|336:144|296:136|296:136|336:144|368:112|368:112|336:144|296:136|296:136|336:144|368:112|368:112|336:144|296:136|296:136|336:144|368:112|368:112|336:144|296:136|296:136|336:144|368:112|368:112|336:144|296:136|296:136|336:144|368:112|368:112|336:144|296:136|296:136|336:144|368:112|368:112|336:144,1,1125
456,136,130560,5,0,0:0:0:0:
440,200,130719,1,0,0:0:0:0:
408,328,130879,1,0,0:0:0:0:
424,264,131038,1,0,0:0:0:0:
408,328,131198,6,0,P|280:376|352:288,1,337.500012874604
331,289,131517,1,0,0:0:0:0:
320,216,131677,5,0,0:0:0:0:
316,180,131757,1,0,0:0:0:0:
54,278,131836,2,0,B|3:242|3:242|331:287,1,393.750003755093
412,170,132155,2,0,P|374:210|319:215,1,112.500004291535
200,62,132475,6,0,L|215:154,1,84.3750032186509
215,153,132634,1,0,0:0:0:0:
197,67,132794,6,0,L|212:159,1,84.3750032186509
212,158,132953,1,0,0:0:0:0:
70,111,133113,2,0,L|81:199,1,75
64,295,133422,6,0,L|231:211,1,187.5
112,271,133576,2,0,L|279:187,1,187.5
213,296,133731,2,0,B|292:261|293:337|377:298,1,168.750006437302
410,281,134040,1,0,0:0:0:0:
474,161,134195,2,0,P|372:140|332:236,2,225.000008583069
332,236,134659,2,0,P|297:222|273:194,1,75
240,126,134968,1,0,0:0:0:0:
170,83,135123,1,0,0:0:0:0:
127,224,135277,6,0,P|170:280|200:216,1,168.750006437302
128,224,135587,2,0,B|72:352|72:352|308:313|308:313|200:216,1,525.00000500679
65,147,135896,2,0,P|106:98|169:103,1,131.250001251698
65,147,136051,2,0,P|143:105|174:52,1,150
271,87,136205,6,0,P|313:109|359:106,1,93.75
447,124,136360,2,0,P|405:102|359:105,1,93.75
406,190,136669,2,0,L|494:204,1,75
428,336,137056,5,0,0:0:0:0:
394,302,137172,1,0,0:0:0:0:
359,273,137288,1,0,0:0:0:0:
256,192,137442,12,0,137906,0:0:0:0:
88,216,138061,6,0,P|125:196|166:189,1,84.3750032186509
176,190,138212,1,0,0:0:0:0:
334,241,138364,2,0,P|296:221|255:214,1,84.3750032186509
246,215,138515,1,0,0:0:0:0:
82,314,138667,2,0,P|120:298|152:270,1,84.3750032186509
158,263,138818,1,0,0:0:0:0:
384,64,138970,6,0,L|408:144,1,84.3750032186509
411,152,139121,1,0,0:0:0:0:
373,77,139273,2,0,L|397:157,1,84.3750032186509
400,165,139424,1,0,0:0:0:0:
365,92,139576,2,0,L|389:172,1,84.3750032186509
392,180,139727,1,0,0:0:0:0:
269,137,139879,6,0,P|227:133|192:110,1,84.3750032186509
180,96,140030,1,0,0:0:0:0:
138,207,140182,2,0,P|105:180|64:172,1,84.3750032186509
45,172,140333,1,0,0:0:0:0:
51,324,140485,6,0,L|235:291,1,187.5
464,224,140782,2,0,P|426:244|371:245,1,93.75
365,245,140930,1,0,0:0:0:0:
281,225,141079,2,0,P|300:275|330:304,1,93.75
338,308,141227,1,0,0:0:0:0:
386,108,141376,2,0,P|364:154|334:183,1,93.75
327,187,141524,1,0,0:0:0:0:
240,55,141673,6,0,L|212:144,1,93.75
209,152,141821,1,0,0:0:0:0:
244,61,141970,2,0,L|216:150,1,93.75
213,158,142118,1,0,0:0:0:0:
249,67,142267,2,0,L|221:156,1,93.75
218,164,142418,1,0,0:0:0:0:
50,101,142564,2,0,L|175:89,1,93.75
174,86,142712,2,0,L|80:94,1,93.75
26,194,142861,2,0,L|253:171,1,225.000008583069
275,168,143079,5,0,0:0:0:0:
307,164,143152,1,0,0:0:0:0:
388,64,143297,2,0,P|367:133|329:165,2,112.500004291535,0|0|0,0:3|0:3|0:3,0:3:0:0:
435,327,143589,1,0,0:0:0:0:
435,327,143734,2,0,P|375:286|323:286,1,112.500004291535
142,251,144026,2,0,P|181:290|236:299,1,112.5
256,296,144171,1,0,0:0:0:0:
100,179,144317,2,0,P|71:226|77:281,1,112.5
85,300,144462,1,0,0:0:0:0:
152,104,144608,5,0,0:0:0:0:
223,110,144754,1,0,0:0:0:0:
422,127,144899,1,0,0:0:0:0:
351,121,145045,1,0,0:0:0:0:
212,235,145191,2,0,P|267:192|289:127,1,140.625
290,113,145336,1,0,0:0:0:0:
409,164,145482,5,0,0:0:0:0:
424,134,145555,1,0,0:0:0:0:
462,65,145773,2,0,L|407:165,1,112.5
397,182,146064,1,0,0:0:0:0:
212,273,146210,1,0,0:0:0:0:
334,251,146356,2,0,P|290:191|286:117,1,150
212,151,146574,5,0,0:0:0:0:
186,122,146647,1,0,0:0:0:0:
94,62,146792,2,0,L|103:137,1,75
302,345,147084,5,0,0:0:0:0:
55,318,147229,2,0,P|86:298|123:296,1,75
232,294,147375,2,0,P|200:313|163:315,1,75
55,318,147521,2,0,P|157:216|401:172,1,393.750003755093
424,179,147798,6,0,L|405:263,1,75
434,142,147937,1,0,0:0:0:0:
367,183,148076,2,0,L|348:267,1,75
377,146,148215,1,0,0:0:0:0:
324,120,148354,2,0,L|305:204,1,75
301,218,148493,1,0,0:0:0:0:
257,169,148632,2,0,L|248:205,1,37.5
257,169,148701,2,0,L|265:132,1,37.5
257,169,148771,2,0,L|248:205,1,37.5
196,134,148909,5,0,0:0:0:0:
188,167,149048,1,0,0:0:0:0:
156,94,149187,1,0,0:0:0:0:
133,197,149326,1,0,0:0:0:0:
45,89,149465,6,0,P|93:70|161:68,1,112.5
226,74,149604,2,0,P|178:55|110:53,1,112.5
47,195,149743,2,0,P|137:188|305:138,1,262.5
323,130,150018,2,0,L|354:202,1,75
351,109,150155,1,0,0:0:0:0:
312,249,150293,1,0,0:0:0:0:
299,217,150431,2,0,L|268:145,1,75
209,117,150568,1,0,0:0:0:0:
221,144,150706,2,0,L|252:216,1,75
245,289,150843,2,0,L|181:141,2,150
132,147,151256,2,0,L|165:229,1,75
178,286,151394,2,0,L|149:216,1,75
104,139,151531,2,0,L|137:221,1,75
164,308,151669,2,0,L|135:238,1,75
80,136,151807,2,0,L|113:218,1,75
42,311,151944,6,0,L|406:220,1,375
415,61,152345,1,0,0:0:0:0:
419,80,152412,1,0,0:0:0:0:
423,101,152479,2,0,L|436:174,1,75
372,50,152613,2,0,L|385:123,1,75
357,154,152747,2,0,L|370:227,1,75
306,46,152881,2,0,L|319:119,1,75
470,311,153015,6,0,L|105:220,1,375
82,84,153417,1,0,0:0:0:0:
78,103,153484,1,0,0:0:0:0:
74,124,153551,2,0,L|60:197,1,75
75,272,153685,2,0,L|88:198,1,75
144,112,153819,2,0,L|130:185,1,75
136,261,153952,2,0,L|122:334,1,75
29,284,154086,6,0,L|221:244,1,196.875001877546
252,236,154218,1,0,0:0:0:0:
484,362,154351,6,0,L|291:322,1,196.875001877546
261,314,154483,1,0,0:0:0:0:
411,199,154616,6,0,L|395:223,1,28.1250010728836
395,221,154682,2,0,L|373:240,1,28.1250010728836
374,240,154749,2,0,L|348:253,1,28.1250010728836
119,173,154882,6,0,L|134:148,1,28.1250010728836
134,150,154948,2,0,L|155:130,1,28.1250010728836
155,131,155015,2,0,L|180:117,1,28.1250010728836
249,347,155147,6,0,L|224:331,1,28.1250010728836
227,331,155213,2,0,L|207:309,1,28.1250010728836
208,310,155280,2,0,L|194:284,1,28.1250010728836
275,55,155413,6,0,L|299:70,1,28.1250010728836
298,70,155479,2,0,L|317:91,1,28.1250010728836
317,91,155546,2,0,L|330:116,1,28.1250010728836
256,192,155678,6,0,P|256:144|208:104,1,93.75
256,192,155745,2,0,P|216:218|209:281,1,93.75
256,192,155811,2,0,P|300:209|355:178,1,93.75,0|0,0:3|0:3,0:3:0:0:
256,192,155878,6,0,P|136:167|82:216,1,187.5
256,192,155944,6,0,P|375:216|429:167,1,187.5
256,191,156011,6,0,P|186:168|157:101,1,150
256,192,156077,2,0,P|276:262|238:324,1,150
256,192,156143,2,0,P|302:135|375:132,1,150
76,240,156209,2,0,B|68:212|43:182|43:182|68:212|95:267|92:301|92:301|95:267|76:181|76:181|105:289|105:289|92:177|92:177|121:285|121:285|109:181|109:181|134:273|134:273|125:177|125:177|150:269|150:269|140:172|140:172|165:265|165:265|158:176|158:176|179:253|179:253|173:172|173:172|194:249|194:249|189:168|189:168|209:245|209:245|206:171|206:171|223:233|223:233|222:167|222:167|238:229|238:229|237:163|237:163|254:225|254:225|255:167|255:167|267:213|267:213|270:162|270:162|283:209|283:209|286:158|286:158|298:205|298:205|303:162|303:162|311:193|311:193|319:158|319:158|327:189|327:189|334:154|334:154|342:185|342:185|350:150|350:150|358:180|358:180|367:153|367:153|373:176|373:176|383:149|383:149|389:172|389:172|398:145|398:145|402:160|402:160|411:146|411:146|418:173|418:173|423:146|423:146|429:170|429:170|437:151|437:151|443:174|443:174|451:156|451:156,1,3000
448,128,158585,6,0,B|384:80|384:80|160:112,1,300
464,200,160394,1,0,0:0:0:0:
344,136,160544,1,0,0:0:0:0:
216,328,160695,1,0,0:0:0:0:
368,264,160846,1,0,0:0:0:0:
56,152,160997,2,0,B|120:200|120:200|344:168,1,300
256,264,162052,5,0,0:0:0:0:
240,176,162203,1,0,0:0:0:0:
192,328,162353,1,0,0:0:0:0:
272,96,162504,1,0,0:0:0:0:
160,336,162655,1,0,0:0:0:0:
32,128,162806,1,0,0:0:0:0:
360,144,162956,1,0,0:0:0:0:
344,184,163107,5,0,0:0:0:0:
328,224,163258,1,0,0:0:0:0:
312,264,163409,2,0,L|288:336,1,75
272,208,163710,1,0,0:0:0:0:
224,344,163861,1,0,0:0:0:0:
264,224,164012,2,0,L|240:296,1,75
160,360,164313,1,0,0:0:0:0:
208,216,164464,1,0,0:0:0:0:
168,336,164615,2,0,L|192:264,1,75
160,200,164916,1,0,0:0:0:0:
144,240,165067,1,0,0:0:0:0:
128,280,165218,2,0,L|104:352,1,75
48,128,165519,5,0,0:0:0:0:
336,112,165670,1,0,0:0:0:0:
32,144,165821,2,0,L|331:128,1,300
331,128,166725,2,0,P|352:96|248:112,1,262.5
256,136,167328,1,0,0:0:0:0:
288,208,167479,1,0,0:0:0:0:
328,280,167630,2,0,L|352:208,1,75
416,80,167932,5,0,0:0:0:0:
440,144,168082,1,0,0:0:0:0:
464,208,168233,2,0,L|164:192,1,300
164,192,169126,2,0,P|129:174|227:136,1,262.5
232,176,169718,5,0,0:0:0:0:
208,248,169868,1,0,0:0:0:0:
176,328,170019,2,0,L|256:320,3,75
32,352,170615,2,0,L|344:320,1,300
432,216,171433,1,0,0:0:0:0:
416,200,171508,5,0,0:0:0:0:
440,304,171657,2,0,P|344:288|328:264,1,131.25
320,240,171955,2,0,P|264:256|208:208,1,131.25
200,184,172252,1,0,0:0:0:0:
120,72,172401,1,0,0:0:0:0:
32,232,172550,2,0,P|64:192|88:184,1,75
200,176,172848,1,0,0:0:0:0:
456,186,172997,2,0,P|419:193|393:219,1,75
314,262,173297,1,0,0:0:0:0:
455,255,173447,1,0,0:0:0:0:
316,159,173597,2,0,P|352:151|378:125,1,75
441,233,173897,1,0,0:0:0:0:
323,242,174047,1,0,0:0:0:0:
441,233,174197,2,0,B|483:236|483:236|509:216,1,75
360,225,174497,1,0,0:0:0:0:
488,269,174647,1,0,0:0:0:0:
366,245,174834,2,0,B|324:242|324:242|298:262,1,75
296,86,175097,1,0,0:0:0:0:
346,351,175247,1,0,0:0:0:0:
386,161,175397,2,0,L|83:133,1,300
87,133,176747,5,0,0:0:0:0:
279,215,176897,1,0,0:0:0:0:
161,82,177047,1,0,0:0:0:0:
65,306,177197,2,0,P|109:323|204:286,1,150
266,130,177647,5,0,0:0:0:0:
299,331,177797,1,0,0:0:0:0:
362,75,177947,1,0,0:0:0:0:
243,278,178097,1,0,0:0:0:0:
425,181,178247,1,0,0:0:0:0:
263,97,178397,2,0,B|192:56|183:120|119:89,1,150
59,47,178847,5,0,0:0:0:0:
12,193,178997,1,0,0:0:0:0:
139,166,179147,1,0,0:0:0:0:
97,336,179297,1,0,0:0:0:0:
325,228,179447,1,0,0:0:0:0:
181,257,179597,2,0,P|217:293|292:309,1,112.5
305,309,179897,2,0,P|321:283|402:259,1,112.5
461,345,180197,6,0,L|422:213,1,131.25
410,188,180497,1,0,0:0:0:0:
365,115,180647,2,0,P|324:102|287:114,1,75
161,137,180947,2,0,P|202:150|239:138,1,75
100,91,181247,1,0,0:0:0:0:
79,168,181397,1,0,0:0:0:0:
59,252,181547,1,0,0:0:0:0:
123,335,181697,2,0,L|203:317,3,75
279,337,182296,2,0,P|331:334|353:278,1,112.5
345,249,182596,2,0,L|332:176,1,75
72,73,182896,1,0,0:0:0:0:
90,202,183046,1,0,0:0:0:0:
77,101,183196,2,0,L|89:188,1,75
154,235,183496,1,0,0:0:0:0:
136,106,183646,1,0,0:0:0:0:
149,207,183796,2,0,L|137:120,1,75
193,123,184096,1,0,0:0:0:0:
211,252,184246,1,0,0:0:0:0:
198,151,184396,2,0,L|210:238,1,75
244,84,184696,1,0,0:0:0:0:
272,286,184846,1,0,0:0:0:0:
431,78,184996,6,0,L|266:58,1,150
96,68,185596,5,0,0:0:0:0:
77,127,185746,1,0,0:0:0:0:
58,188,185896,2,0,L|223:168,1,150
344,155,186496,5,0,0:0:0:0:
312,344,186646,1,0,0:0:0:0:
292,125,186796,1,0,0:0:0:0:
354,342,186946,1,0,0:0:0:0:
381,103,187096,1,0,0:0:0:0:
255,283,187246,1,0,0:0:0:0:
142,91,187396,2,0,P|197:120|281:81,1,150
421,223,187996,1,0,0:0:0:0:
421,223,188146,1,0,0:0:0:0:
421,223,188296,2,0,P|366:194|282:233,1,150
63,211,188896,5,0,0:0:0:0:
159,182,189046,1,0,0:0:0:0:
41,281,189196,1,0,0:0:0:0:
151,310,189346,1,0,0:0:0:0:
291,302,189496,2,0,P|236:269|176:289,1,131.25
125,337,189796,2,0,L|94:114,1,225.000008583069
84,47,190255,2,0,P|134:71|194:58,1,112.500004291535
275,71,190561,1,0,0:0:0:0:
223,150,190714,1,0,0:0:0:0:
408,153,190867,2,0,P|358:129|298:142,1,112.500004291535
160,194,191173,2,0,P|210:218|270:205,1,112.500004291535
408,153,191479,2,0,L|443:283,1,112.500004291535
189,310,191785,5,0,0:0:0:0:
357,304,191938,1,0,0:0:0:0:
141,324,192091,1,0,0:0:0:0:
378,318,192244,2,0,B|445:260|445:260|412:221|435:168,1,168.750006437302
495,208,192577,1,0,0:0:0:0:
443,118,192744,1,0,0:0:0:0:
443,118,192910,2,0,P|392:85|333:100,1,112.500004291535
343,93,193244,1,0,0:0:0:0:
266,191,193410,6,0,B|190:135|112:235|61:177,1,196.875007510186
266,191,193744,2,0,B|230:145|152:245|76:189,1,196.875007510186
55,179,194077,1,0,0:0:0:0:
143,77,194244,6,0,P|206:67|271:70,1,129.375002467632
326,79,194452,2,0,P|262:89|197:86,1,129.375002467632
113,94,194660,2,0,P|176:83|241:86,1,129.375002467632
435,66,194910,6,0,L|370:331,1,262.5
365,346,195250,1,0,0:0:0:0:
54,277,195684,1,0,0:0:0:0:
390,365,196684,1,0,0:0:0:0:
