osu file format v14

[General]
AudioFilename: audio.mp3
AudioLeadIn: 0
PreviewTime: 16650
Countdown: 0
SampleSet: Soft
StackLeniency: 0.3
Mode: 0
LetterboxInBreaks: 1
WidescreenStoryboard: 1

[Editor]
DistanceSpacing: 1.2
BeatDivisor: 4
GridSize: 16
TimelineZoom: 3.099999

[Metadata]
Title:Star Vs. The Forces Of Evil Theme
TitleUnicode:Star Vs. The Forces Of Evil Theme
Artist:bradbreeck
ArtistUnicode:bradbreeck
Creator:StaroaX
Version:Laser Stream Madness 9.7
Source:Star Vs. The Forces of Evil
Tags:
BeatmapID:1719062
BeatmapSetID:819979

[Difficulty]
HPDrainRate:6.7
CircleSize:4.1
OverallDifficulty:8.9
ApproachRate:9.7
SliderMultiplier:1.84
SliderTickRate:1

[Events]
//Background and Video events
0,0,"star_butterfly_by_theastralwanderer-d9mretz.png",0,0
//Break Periods
//Storyboard Layer 0 (Background)
//Storyboard Layer 1 (Fail)
//Storyboard Layer 2 (Pass)
//Storyboard Layer 3 (Foreground)
//Storyboard Sound Samples

[TimingPoints]
446,415.512465373961,4,2,1,50,1,0
2939,-80,4,2,1,50,0,0
8236,-80,4,2,1,5,0,0
8340,-80,4,2,1,50,0,0
8652,-80,4,2,1,5,0,0
8756,-80,4,2,1,50,0,0
12911,-111.111111111111,4,2,1,5,0,0
13119,-111.111111111111,4,2,1,5,0,0
13326,-111.111111111111,4,2,1,5,0,0
13534,-111.111111111111,4,2,1,5,0,0
13742,-80,4,2,1,50,0,0
14885,-80,4,2,1,5,0,0
14988,-80,4,2,1,50,0,0
15300,-80,4,2,1,5,0,0
15404,-80,4,2,1,50,0,0
17066,-66.6666666666667,4,2,1,75,0,1
30362,-90.9090909090909,4,2,1,50,0,0
36595,-80,4,2,1,50,0,0
40335,-80,4,2,1,5,0,0

[Colours]
Combo1 : 255,128,128
Combo2 : 255,128,255

[HitObjects]
355,120,1277,6,0,L|351:166,1,46
414,256,1693,2,0,L|419:302,1,46
93,302,2108,6,0,L|97:254,1,46
161,166,2523,2,0,L|156:118,1,46
252,21,2939,6,0,L|315:32,1,57.5
434,73,3146,2,0,L|370:84,1,57.5
252,129,3354,6,0,L|315:140,1,57.5
434,181,3561,2,0,L|370:192,1,57.5
47,242,3770,5,0,0:0:0:0:
248,289,3977,1,0,0:0:0:0:
248,289,4081,1,0,0:0:0:0:
248,289,4185,1,0,0:0:0:0:
37,129,4393,1,0,0:0:0:0:
316,325,4601,6,0,P|348:333|380:325,1,57.5
438,294,4808,2,0,P|460:270|470:238,1,57.5
354,160,5016,6,0,P|304:209|403:209,1,230
0,104,5639,1,0,0:0:0:0:
0,104,5743,1,0,0:0:0:0:
0,104,5847,1,0,0:0:0:0:
148,258,6055,1,0,0:0:0:0:
253,3,6263,5,0,0:0:0:0:
72,187,6470,1,0,0:0:0:0:
43,3,6678,5,0,0:0:0:0:
225,188,6885,1,0,0:0:0:0:
148,0,7094,6,0,B|92:0|92:0|50:41,2,115
319,95,7717,1,0,0:0:0:0:
238,200,7925,2,0,L|113:75,1,172.5
175,96,8340,2,0,L|299:220,1,172.5
464,384,8756,5,0,0:0:0:0:
449,139,8964,6,0,P|417:131|385:139,1,57.5
327,170,9171,2,0,P|305:194|295:226,1,57.5
282,309,9379,2,0,P|258:287|226:277,1,57.5
101,348,9587,2,0,P|132:338|156:315,1,57.5
159,172,9795,2,0,P|151:203|159:236,1,57.5
222,357,10002,5,0,0:0:0:0:
270,129,10209,1,0,0:0:0:0:
52,202,10417,5,0,0:0:0:0:
365,267,10626,1,0,0:0:0:0:
365,267,10729,1,0,0:0:0:0:
365,267,10833,1,0,0:0:0:0:
101,348,11041,1,0,0:0:0:0:
407,200,11249,6,0,P|415:168|407:136,1,57.5
376,78,11456,2,0,P|352:56|320:46,1,57.5
242,162,11664,6,0,P|291:212|291:113,1,230
0,198,12288,1,0,0:0:0:0:
0,198,12391,1,0,0:0:0:0:
0,198,12495,1,0,0:0:0:0:
176,0,12703,1,0,0:0:0:0:
215,304,12911,6,0,B|163:294|163:294|138:311,1,82.7999974731446
0,283,13326,2,0,B|51:291|51:291|75:274,1,82.7999974731446
351,82,13742,5,0,0:0:0:0:
288,218,13950,2,0,P|312:240|344:250,1,57.5
469,179,14158,2,0,P|438:189|414:212,1,57.5
411,355,14366,2,0,P|419:324|411:291,1,57.5
334,87,14573,2,0,L|164:116,1,172.5
115,154,14988,2,0,L|284:124,1,172.5
182,35,15404,6,0,L|119:46,1,57.5
0,87,15611,2,0,L|64:98,1,57.5
182,143,15819,6,0,L|119:154,1,57.5
0,195,16026,2,0,L|64:206,1,57.5
182,254,16235,5,0,0:0:0:0:
0,306,16443,1,0,0:0:0:0:
305,384,16650,2,0,L|362:375,3,57.5
427,343,17066,5,0,0:0:0:0:
472,282,17170,1,0,0:0:0:0:
473,206,17274,1,0,0:0:0:0:
436,140,17378,1,0,0:0:0:0:
363,120,17482,5,0,0:0:0:0:
356,165,17585,1,0,0:0:0:0:
349,210,17689,1,0,0:0:0:0:
342,256,17793,1,0,0:0:0:0:
256,298,17897,5,0,0:0:0:0:
161,308,18001,1,0,0:0:0:0:
78,261,18105,1,0,0:0:0:0:
29,180,18209,1,0,0:0:0:0:
66,92,18313,5,0,0:0:0:0:
107,130,18417,1,0,0:0:0:0:
119,186,18521,1,0,0:0:0:0:
104,241,18625,1,0,0:0:0:0:
43,286,18728,5,0,0:0:0:0:
104,241,18832,1,0,0:0:0:0:
180,240,18936,1,0,0:0:0:0:
246,277,19040,1,0,0:0:0:0:
282,344,19144,5,0,0:0:0:0:
327,337,19247,1,0,0:0:0:0:
371,330,19351,1,0,0:0:0:0:
418,323,19455,1,0,0:0:0:0:
481,251,19559,5,0,0:0:0:0:
491,156,19663,1,0,0:0:0:0:
444,73,19767,1,0,0:0:0:0:
363,24,19871,1,0,0:0:0:0:
268,35,19975,6,0,L|218:84,1,69.0000026321412
188,245,20182,2,0,L|237:195,1,69.0000026321412
117,5,20390,5,0,0:0:0:0:
67,72,20494,1,0,0:0:0:0:
66,155,20598,1,0,0:0:0:0:
107,228,20702,1,0,0:0:0:0:
188,245,20806,5,0,0:0:0:0:
196,196,20909,1,0,0:0:0:0:
204,148,21013,1,0,0:0:0:0:
212,96,21117,1,0,0:0:0:0:
109,117,21221,5,0,0:0:0:0:
28,182,21325,1,0,0:0:0:0:
0,283,21429,1,0,0:0:0:0:
25,384,21533,1,0,0:0:0:0:
128,361,21637,5,0,0:0:0:0:
173,319,21741,1,0,0:0:0:0:
186,257,21845,1,0,0:0:0:0:
169,197,21949,1,0,0:0:0:0:
102,147,22052,5,0,0:0:0:0:
169,197,22156,1,0,0:0:0:0:
252,198,22260,1,0,0:0:0:0:
324,157,22364,1,0,0:0:0:0:
342,76,22468,5,0,0:0:0:0:
293,68,22571,1,0,0:0:0:0:
245,60,22675,1,0,0:0:0:0:
193,52,22779,1,0,0:0:0:0:
64,66,22883,5,0,0:0:0:0:
131,177,22987,1,0,0:0:0:0:
245,241,23091,2,0,L|314:253,1,69.0000026321412
512,149,23299,2,0,L|442:161,1,69.0000026321412
245,60,23506,2,0,L|314:72,1,69.0000026321412
443,160,23714,5,0,0:0:0:0:
447,187,23818,1,0,0:0:0:0:
451,214,23922,2,0,L|463:283,1,69.0000026321412
321,384,24130,5,0,0:0:0:0:
317,357,24234,1,0,0:0:0:0:
313,330,24338,2,0,L|301:261,1,69.0000026321412
162,160,24545,5,0,0:0:0:0:
166,187,24649,1,0,0:0:0:0:
170,214,24753,2,0,L|182:283,1,69.0000026321412
40,384,24961,5,0,0:0:0:0:
36,357,25065,1,0,0:0:0:0:
32,330,25169,2,0,L|20:261,1,69.0000026321412
35,55,25376,5,0,0:0:0:0:
62,59,25480,1,0,0:0:0:0:
89,63,25584,2,0,L|158:75,1,69.0000026321412
477,55,25792,5,0,0:0:0:0:
450,59,25896,1,0,0:0:0:0:
423,63,26000,2,0,L|354:75,1,69.0000026321412
89,215,26207,6,0,L|158:227,1,69.0000026321412
423,215,26415,2,0,L|354:227,1,69.0000026321412
89,373,26623,6,0,L|158:385,1,69.0000026321412
423,373,26831,2,0,L|354:385,1,69.0000026321412
19,238,27038,5,0,0:0:0:0:
15,211,27142,1,0,0:0:0:0:
11,184,27246,2,0,L|-1:115,1,69.0000026321412
141,14,27454,5,0,0:0:0:0:
145,41,27558,1,0,0:0:0:0:
149,68,27662,2,0,L|161:137,1,69.0000026321412
300,238,27869,5,0,0:0:0:0:
296,211,27973,1,0,0:0:0:0:
292,184,28077,2,0,L|280:115,1,69.0000026321412
422,14,28285,5,0,0:0:0:0:
426,41,28389,1,0,0:0:0:0:
430,68,28493,2,0,L|442:137,1,69.0000026321412
480,357,28700,5,0,0:0:0:0:
453,353,28804,1,0,0:0:0:0:
426,349,28908,2,0,L|357:337,1,69.0000026321412
216,236,29116,5,0,0:0:0:0:
189,240,29220,1,0,0:0:0:0:
162,244,29324,2,0,L|93:256,1,69.0000026321412
2,381,29531,6,0,L|71:369,1,69.0000026321412
308,154,29739,2,0,L|239:142,1,69.0000026321412
160,380,29947,6,0,L|229:368,1,69.0000026321412
466,153,30155,2,0,L|397:141,1,69.0000026321412
0,65,30362,6,0,L|49:73,7,50.6000015441895
67,105,31193,1,0,0:0:0:0:
97,87,31296,1,0,0:0:0:0:
132,80,31400,1,0,0:0:0:0:
166,86,31504,1,0,0:0:0:0:
199,100,31608,1,0,0:0:0:0:
231,116,31712,1,0,0:0:0:0:
264,127,31816,1,0,0:0:0:0:
299,128,31920,1,0,0:0:0:0:
333,115,32024,6,0,L|350:68,7,50.6000015441895
366,22,32855,5,0,0:0:0:0:
409,2,32958,1,0,0:0:0:0:
454,17,33062,1,0,0:0:0:0:
477,58,33166,1,0,0:0:0:0:
466,104,33270,1,0,0:0:0:0:
427,130,33374,1,0,0:0:0:0:
381,123,33478,1,0,0:0:0:0:
352,84,33583,1,0,0:0:0:0:
360,37,33686,6,0,L|343:84,7,50.6000015441895
333,145,34518,1,0,0:0:0:0:
345,201,34621,1,0,0:0:0:0:
384,247,34725,1,0,0:0:0:0:
439,273,34829,1,0,0:0:0:0:
499,271,34933,1,0,0:0:0:0:
439,282,35037,1,0,0:0:0:0:
378,292,35140,1,0,0:0:0:0:
318,303,35244,1,0,0:0:0:0:
258,313,35349,6,0,L|209:321,7,50.6000015441895
135,316,36180,1,0,0:0:0:0:
82,268,36283,1,0,0:0:0:0:
57,197,36387,1,0,0:0:0:0:
63,124,36491,1,0,0:0:0:0:
101,61,36595,6,0,L|159:72,1,57.5
411,323,36803,2,0,L|353:312,1,57.5
0,11,37011,5,0,0:0:0:0:
256,192,37218,12,0,40335,0:0:0:0:
