osu file format v14

[General]
AudioFilename: audio.mp3
AudioLeadIn: 0
PreviewTime: 2939
Countdown: 0
SampleSet: Normal
StackLeniency: 0.7
Mode: 1
LetterboxInBreaks: 0
WidescreenStoryboard: 1

[Editor]
DistanceSpacing: 1
BeatDivisor: 4
GridSize: 32
TimelineZoom: 1

[Metadata]
Title:Star Vs The Forces Of Evil Theme
TitleUnicode:Star Vs The Forces Of Evil Theme
Artist:bradbreeck
ArtistUnicode:bradbreeck
Creator:angki
Version:Futsuu
Source:Star vs. The Forces of Evil
Tags:disney xd brad breeck soundtrack cartoon marco versus i'm from another dimension pop english
BeatmapID:1541874
BeatmapSetID:730587

[Difficulty]
HPDrainRate:4
CircleSize:2
OverallDifficulty:7
ApproachRate:5
SliderMultiplier:1.3999999666214
SliderTickRate:1

[Events]
//Background and Video events
0,0,"wp1937383.png",0,-135
//Break Periods
//Storyboard Layer 0 (Background)
//Storyboard Layer 1 (Fail)
//Storyboard Layer 2 (Pass)
//Storyboard Layer 3 (Foreground)
//Storyboard Layer 4 (Overlay)
//Storyboard Sound Samples

[TimingPoints]
3771,415.512465373961,4,1,0,80,1,0
17067,-100,4,1,0,80,0,1
30363,-100,4,1,0,80,0,0

[HitObjects]
256,192,1277,5,2,0:0:0:0:
256,192,1693,1,2,0:0:0:0:
256,192,2108,1,0,0:0:0:0:
256,192,2524,1,0,0:0:0:0:
256,192,2939,2,0,L|544:192,1,279.99999332428
256,192,4186,1,0,0:0:0:0:
256,192,4602,1,2,0:0:0:0:
256,192,5017,1,2,0:0:0:0:
256,192,5848,1,0,0:0:0:0:
256,192,6264,1,2,0:0:0:0:
256,192,6679,1,2,0:0:0:0:
256,192,7510,1,0,0:0:0:0:
256,192,7926,1,2,0:0:0:0:
256,192,8341,1,0,0:0:0:0:
256,192,9172,1,2,0:0:0:0:
256,192,9588,1,0,0:0:0:0:
256,192,10003,1,2,0:0:0:0:
256,192,10419,1,2,0:0:0:0:
256,192,11250,1,2,0:0:0:0:
256,192,11665,1,2,0:0:0:0:
256,192,12496,1,2,0:0:0:0:
256,192,12912,1,0,0:0:0:0:
256,192,13327,1,0,0:0:0:0:
256,192,13743,1,2,0:0:0:0:
256,192,14574,1,2,0:0:0:0:
256,192,14989,1,0,0:0:0:0:
256,192,15820,1,2,0:0:0:0:
256,192,16236,1,2,0:0:0:0:
256,192,17067,1,2,0:0:0:0:
256,192,17275,1,0,0:0:0:0:
256,192,17690,1,0,0:0:0:0:
256,192,17898,1,0,0:0:0:0:
256,192,18313,1,2,0:0:0:0:
256,192,18729,1,0,0:0:0:0:
256,192,18937,1,2,0:0:0:0:
256,192,19352,1,2,0:0:0:0:
256,192,19560,1,0,0:0:0:0:
256,192,19975,1,2,0:0:0:0:
256,192,20391,1,2,0:0:0:0:
256,192,21014,1,0,0:0:0:0:
256,192,21222,1,2,0:0:0:0:
256,192,21638,1,2,0:0:0:0:
256,192,22053,1,2,0:0:0:0:
256,192,22676,1,0,0:0:0:0:
256,192,22884,1,2,0:0:0:0:
256,192,23300,1,0,0:0:0:0:
256,192,23715,1,0,0:0:0:0:
256,192,24131,1,2,0:0:0:0:
256,192,24754,1,2,0:0:0:0:
256,192,25169,1,2,0:0:0:0:
256,192,25377,1,0,0:0:0:0:
256,192,25793,1,0,0:0:0:0:
256,192,26624,1,0,0:0:0:0:
256,192,27039,1,2,0:0:0:0:
256,192,27455,1,2,0:0:0:0:
256,192,27870,1,2,0:0:0:0:
256,192,28286,1,2,0:0:0:0:
256,192,28701,12,0,30363,0:0:0:0:
256,192,30779,5,0,0:0:0:0:
256,192,31610,1,0,0:0:0:0:
256,192,32025,1,4,0:0:0:0:
256,192,32441,1,2,0:0:0:0:
256,192,33272,1,2,0:0:0:0:
256,192,33687,1,4,0:0:0:0:
256,192,34103,1,0,0:0:0:0:
256,192,34934,1,2,0:0:0:0:
256,192,35349,1,4,0:0:0:0:
256,192,35765,1,2,0:0:0:0:
256,192,36596,1,0,0:0:0:0:
256,192,37011,12,0,40336,0:0:0:0:
