osu file format v14

[General]
AudioFilename: audio.mp3
AudioLeadIn: 0
PreviewTime: 15509
Countdown: 0
SampleSet: None
StackLeniency: 0.6
Mode: 0
LetterboxInBreaks: 0
WidescreenStoryboard: 1

[Editor]
Bookmarks: 25793
DistanceSpacing: 1.2
BeatDivisor: 4
GridSize: 8
TimelineZoom: 1.2

[Metadata]
Title:Star Vs The Forces Of Evil Theme
TitleUnicode:Star Vs The Forces Of Evil Theme
Artist:bradbreeck
ArtistUnicode:bradbreeck
Creator:_DT3
Version:Hard
Source:Star vs. The Forces of Evil
Tags:TV Disney XD brad breeck soundtrack cartoon marco versus A_r_M_i_N Armin Underforest I'm from Another Dimension Daron Nefcy Television Animation
BeatmapID:1175841
BeatmapSetID:508665

[Difficulty]
HPDrainRate:5
CircleSize:3.8
OverallDifficulty:6
ApproachRate:7
SliderMultiplier:1.5
SliderTickRate:1

[Events]
//Background and Video events
Video,919,"video.avi"
0,0,"Star-vs-The-Forces-of-Evil-post1[1].jpg",0,0
//Break Periods
//Storyboard Layer 0 (Background)
//Storyboard Layer 1 (Fail)
//Storyboard Layer 2 (Pass)
//Storyboard Layer 3 (Foreground)
//Storyboard Sound Samples

[TimingPoints]
3771,415.512465373961,4,3,1,65,1,0
12912,-100,4,3,1,40,0,0
13120,-100,4,3,1,40,0,0
13223,-100,4,3,1,5,0,0
13327,-100,4,3,1,40,0,0
13535,-100,4,3,1,40,0,0
13639,-100,4,3,1,5,0,0
13743,-100,4,3,1,65,0,0
16651,-100,4,3,1,50,0,0
17067,-83.3333333333333,4,3,1,80,0,1
27351,-83.3333333333333,4,3,1,5,0,1
27455,-83.3333333333333,4,3,1,80,0,1
27766,-83.3333333333333,4,3,1,5,0,1
27870,-83.3333333333333,4,3,1,80,0,1
28182,-83.3333333333333,4,3,1,5,0,1
28286,-83.3333333333333,4,3,1,80,0,1
30363,-100,4,3,1,50,0,0
37011,-100,4,3,1,60,0,0
37115,-100,4,3,1,25,0,0
40336,-100,4,3,1,10,0,0

[Colours]
Combo1 : 155,250,255
Combo2 : 225,85,255
Combo3 : 248,155,253
Combo4 : 254,156,173
Combo5 : 248,254,120

[HitObjects]
141,69,3771,5,4,0:0:0:0:
80,135,3978,2,0,L|75:227,1,75,8|2,0:2|0:2,0:0:0:0:
133,279,4394,1,8,0:2:0:0:
202,221,4602,2,0,P|237:212|286:221,1,75,2|8,0:2|0:2,0:0:0:0:
342,276,5017,2,0,P|377:284|426:276,1,75,2|8,0:2|0:2,0:0:0:0:
498,202,5433,5,8,0:0:0:0:
433,139,5640,2,0,L|389:136,2,37.5,8|0|2,0:2|0:0|0:2,0:0:0:0:
498,76,6056,1,8,0:2:0:0:
448,0,6264,2,0,L|360:6,1,75,2|8,0:2|0:2,0:0:0:0:
322,79,6679,2,0,L|234:73,1,75,2|8,0:2|0:2,0:0:0:0:
142,31,7095,5,4,0:0:0:0:
98,109,7302,2,0,P|133:118|182:109,2,75,8|2|8,0:2|0:2|0:2,0:0:0:0:
19,64,7926,2,0,L|13:152,1,75,2|8,0:2|0:2,0:0:0:0:
79,200,8341,2,0,L|73:288,1,75,2|8,0:2|0:2,0:0:0:0:
0,361,8757,5,8,0:0:0:0:
89,353,8964,2,0,P|125:348|162:357,1,75,8|2,0:2|0:2,0:0:0:0:
250,377,9380,1,8,0:2:0:0:
321,322,9588,2,0,L|315:247,1,75,2|8,0:2|0:2,0:0:0:0:
238,201,10003,1,2,0:2:0:0:
232,291,10211,1,8,0:2:0:0:
314,156,10419,5,4,0:0:0:0:
392,198,10626,2,0,L|394:235,2,37.5,8|0|2,0:2|0:0|0:2,0:0:0:0:
461,139,11042,1,8,0:2:0:0:
411,63,11250,2,0,P|376:54|327:63,1,75,2|10,0:2|0:2,0:0:0:0:
254,92,11665,2,0,P|219:100|170:92,1,75,2|8,0:2|0:2,0:0:0:0:
82,39,12081,5,8,0:0:0:0:
21,105,12289,1,8,0:2:0:0:
21,105,12392,1,0,0:0:0:0:
21,105,12496,1,2,0:2:0:0:
73,178,12704,1,8,0:2:0:0:
73,178,12912,6,0,P|127:194|185:175,1,112.5,0|0,0:0|0:0,0:0:0:0:
208,143,13327,2,0,P|262:127|320:146,1,112.5,0|0,0:0|0:0,0:0:0:0:
341,179,13743,5,4,0:0:0:0:
420,136,13951,2,0,P|429:172|424:209,1,75,8|2,0:2|0:2,0:0:0:0:
355,268,14366,1,8,0:2:0:0:
269,233,14574,2,0,L|183:231,1,75,2|8,0:2|0:2,0:0:0:0:
177,319,14989,2,0,L|251:316,1,75,2|8,0:2|0:2,0:0:0:0:
355,268,15405,5,8,0:0:0:0:
341,179,15613,1,8,0:2:0:0:
257,146,15820,1,2,0:2:0:0:
271,57,16028,1,0,0:0:0:0:
271,57,16236,2,0,L|184:59,1,75
128,118,16651,1,0,0:0:0:0:
190,183,16859,1,0,0:0:0:0:
135,277,17067,6,0,P|182:270|230:285,1,89.9999972534181,4|10,0:0|0:2,0:0:0:0:
324,315,17482,1,0,0:0:0:0:
383,225,17690,1,8,0:2:0:0:
383,225,17794,1,0,0:0:0:0:
383,225,17898,2,0,L|389:135,1,89.9999972534181,8|10,0:0|0:2,0:0:0:0:
275,107,18313,2,0,L|281:196,1,89.9999972534181,0|10,0:0|0:2,0:0:0:0:
175,84,18729,6,0,L|86:90,1,89.9999972534181,8|10,0:0|0:2,0:0:0:0:
17,174,19144,1,8,0:0:0:0:
114,242,19352,1,8,0:2:0:0:
114,242,19456,1,0,0:0:0:0:
114,242,19560,2,0,L|108:331,1,89.9999972534181,8|10,0:0|0:2,0:0:0:0:
221,363,19975,1,0,0:2:0:0:
221,363,20079,1,0,0:0:0:0:
221,363,20183,1,10,0:2:0:0:
305,235,20391,6,0,P|312:282|297:330,1,89.9999972534181,4|10,0:0|0:2,0:0:0:0:
195,270,20807,1,0,0:0:0:0:
228,167,21014,1,8,0:2:0:0:
228,167,21118,1,0,0:0:0:0:
228,167,21223,2,0,L|234:77,1,89.9999972534181,8|10,0:0|0:2,0:0:0:0:
132,39,21638,2,0,L|126:129,1,89.9999972534181,0|10,0:0|0:2,0:0:0:0:
3,220,22053,6,0,P|46:208|90:217,1,89.9999972534181,4|10,0:0|0:2,0:0:0:0:
195,270,22469,2,0,P|238:278|282:267,1,89.9999972534181,4|10,0:0|0:2,0:0:0:0:
233,160,22884,1,8,0:0:0:0:
233,160,22988,1,0,0:0:0:0:
233,160,23092,1,10,0:2:0:0:
195,270,23300,2,0,L|201:360,1,89.9999972534181,0|10,0:2|0:2,0:0:0:0:
131,183,23715,6,0,L|137:93,1,89.9999972534181,4|8,0:0|0:2,0:0:0:0:
251,66,24131,2,0,L|257:156,1,89.9999972534181,4|8,0:3|0:2,0:0:0:0:
371,183,24546,2,0,L|374:138,2,44.999998626709,2|2|10,0:2|0:2|0:2,0:0:0:0:
293,271,24962,1,2,0:2:0:0:
293,271,25066,1,0,0:0:0:0:
293,271,25169,1,10,0:2:0:0:
161,240,25377,6,0,P|117:228|73:237,1,89.9999972534181,4|8,0:0|0:2,0:0:0:0:
114,347,25793,2,0,P|157:355|201:344,1,89.9999972534181,4|8,0:0|0:2,0:0:0:0:
161,240,26208,2,0,L|158:196,3,44.999998626709,2|2|10|2,0:2|0:2|0:2|0:2,0:0:0:0:
166,150,26624,2,0,L|256:156,1,89.9999972534181,0|8,0:3|0:2,0:0:0:0:
431,213,27039,6,0,P|373:189|302:219,1,134.999995880127,8|0,0:0|0:0,0:0:0:0:
284,240,27455,2,0,P|226:264|155:234,1,134.999995880127,8|0,0:0|0:0,0:0:0:0:
142,209,27870,2,0,L|135:344,1,134.999995880127,8|0,0:0|0:0,0:0:0:0:
134,380,28286,1,8,0:0:0:0:
41,324,28493,1,8,0:2:0:0:
229,340,28701,6,0,L|319:346,1,89.9999972534181,4|8,0:0|0:2,0:0:0:0:
356,244,29117,2,0,L|266:250,1,89.9999972534181,4|8,0:0|0:2,0:0:0:0:
229,148,29532,2,0,L|273:151,3,44.999998626709,2|2|10|2,0:2|0:2|0:2|0:2,0:0:0:0:
311,111,29948,2,0,L|355:114,3,44.999998626709,2|2|10|2,0:2|0:2|0:2|0:2,0:0:0:0:
397,134,30363,6,0,L|389:283,1,150,8|8,0:0|0:2,0:0:0:0:
320,342,30987,2,0,P|246:321|172:336,1,150,4|4,0:0|0:0,0:0:0:0:
94,373,31610,1,8,0:2:0:0:
51,198,32025,5,4,0:0:0:0:
215,124,32441,1,8,0:2:0:0:
215,124,32649,2,0,L|364:132,1,150,4|12,0:0|0:0,0:0:0:0:
454,147,33272,1,8,0:2:0:0:
313,34,33687,6,0,L|164:42,1,150,8|8,0:0|0:2,0:0:0:0:
105,111,34311,2,0,P|126:185|111:259,1,150,4|4,0:0|0:0,0:0:0:0:
74,337,34934,1,8,0:2:0:0:
253,342,35349,5,8,0:0:0:0:
295,262,35557,2,0,L|290:187,1,75,0|8,0:0|0:2,0:0:0:0:
235,115,35973,1,4,0:0:0:0:
298,50,36180,2,0,L|390:55,1,75,0|8,0:0|0:0,0:0:0:0:
416,133,36596,1,10,0:2:0:0:
373,54,36804,1,2,0:2:0:0:
290,187,37011,5,14,0:2:0:0:
256,192,37115,12,0,40336,2:0:0:0:
