osu file format v14

[General]
AudioFilename: audio.mp3
AudioLeadIn: 0
PreviewTime: 15509
Countdown: 0
SampleSet: None
StackLeniency: 0.4
Mode: 0
LetterboxInBreaks: 0
WidescreenStoryboard: 1

[Editor]
Bookmarks: 23715
DistanceSpacing: 1.3
BeatDivisor: 4
GridSize: 8
TimelineZoom: 1

[Metadata]
Title:Star Vs The Forces Of Evil Theme
TitleUnicode:Star Vs The Forces Of Evil Theme
Artist:bradbreeck
ArtistUnicode:bradbreeck
Creator:_DT3
Version:Forest's Normal
Source:Star vs. The Forces of Evil
Tags:TV Disney XD brad breeck soundtrack cartoon marco versus A_r_M_i_N Armin Underforest I'm from Another Dimension Daron Nefcy Television Animation
BeatmapID:1081809
BeatmapSetID:508665

[Difficulty]
HPDrainRate:4
CircleSize:3.5
OverallDifficulty:4
ApproachRate:5
SliderMultiplier:1.25
SliderTickRate:1

[Events]
//Background and Video events
0,0,"Star-vs-The-Forces-of-Evil-post1[1].jpg",0,0
Video,919,"video.avi"
//Break Periods
//Storyboard Layer 0 (Background)
//Storyboard Layer 1 (Fail)
//Storyboard Layer 2 (Pass)
//Storyboard Layer 3 (Foreground)
//Storyboard Sound Samples

[TimingPoints]
3771,415.512465373961,4,3,1,65,1,0
10003,-100,4,3,1,65,0,0
10419,-100,4,3,1,65,0,0
12912,-100,4,3,1,40,0,0
13223,-100,4,3,1,5,0,0
13327,-100,4,3,1,40,0,0
13639,-100,4,3,1,5,0,0
13743,-100,4,3,1,65,0,0
16651,-100,4,3,1,50,0,0
17067,-100,4,3,1,80,0,1
30363,-100,4,3,1,50,0,0
37011,-100,4,3,1,60,0,0
37115,-100,4,3,1,25,0,0
40336,-100,4,3,1,10,0,0

[Colours]
Combo1 : 155,250,255
Combo2 : 225,85,255
Combo3 : 248,155,253
Combo4 : 254,156,173
Combo5 : 248,254,120

[HitObjects]
63,69,3771,6,0,L|145:54,1,62.5,4|8,0:0|0:2,0:0:0:0:
170,125,4186,2,0,L|98:139,1,62.5,2|8,0:2|0:2,0:0:0:0:
84,214,4602,2,0,P|103:258|187:284,1,125,2|2,0:2|0:2,0:0:0:0:
318,355,5433,6,0,P|355:346|402:357,1,62.5,8|8,0:0|0:2,0:0:0:0:
408,272,5848,2,0,L|415:198,1,62.5,2|8,0:2|0:2,0:0:0:0:
410,128,6264,2,0,B|380:124|351:154|351:154|292:132,1,125,2|2,0:2|0:2,0:0:0:0:
153,56,7095,6,0,P|112:48|72:60,1,62.5,4|8,0:0|0:2,0:0:0:0:
118,128,7510,2,0,P|92:156|83:200,1,62.5,2|8,0:2|0:2,0:0:0:0:
19,227,7926,2,0,P|43:247|136:241,1,125,2|2,0:2|0:2,0:0:0:0:
286,295,8757,6,0,L|365:303,1,62.5,8|8,0:0|0:2,0:0:0:0:
406,244,9172,2,0,L|418:183,1,62.5,2|8,0:2|0:2,0:0:0:0:
478,127,9588,2,0,P|418:138|353:117,1,125,2|2,0:2|0:2,0:0:0:0:
312,52,10211,1,8,0:2:0:0:
231,42,10419,6,0,P|190:37|145:46,1,62.5,4|8,0:0|0:2,0:0:0:0:
117,101,10834,2,0,P|81:102|41:90,1,62.5,2|8,0:2|0:2,0:0:0:0:
13,166,11250,2,0,B|0:224|0:224|17:308,1,125,2|2,0:2|0:2,0:0:0:0:
169,332,12081,6,0,L|254:323,1,62.5,8|8,0:0|0:2,0:0:0:0:
312,327,12496,2,0,L|374:333,1,62.5,2|8,0:2|0:2,0:0:0:0:
452,309,12912,1,0,0:0:0:0:
496,152,13327,1,0,0:0:0:0:
360,63,13743,6,0,B|325:58|325:58|287:65,1,62.5,4|8,0:0|0:2,0:0:0:0:
221,88,14158,2,0,B|194:92|194:92|159:87,1,62.5,2|8,0:2|0:2,0:0:0:0:
91,41,14574,2,0,P|77:94|112:156,1,125,2|2,0:2|0:2,0:0:0:0:
158,308,15405,6,0,P|204:312|235:302,1,62.5,8|8,0:0|0:2,0:0:0:0:
300,297,15820,2,0,P|344:289|374:295,1,62.5,2|0,0:2|0:0,0:0:0:0:
440,270,16236,1,0,0:0:0:0:
408,110,16651,1,0,0:0:0:0:
348,54,16859,1,0,0:0:0:0:
268,38,17067,6,0,P|192:22|130:37,1,125,4|0,0:0|0:0,0:0:0:0:
117,106,17690,1,10,0:2:0:0:
61,165,17898,2,0,P|35:140|-1:116,2,62.5,8|10|0,0:0|0:2|0:0,0:0:0:0:
148,302,18729,6,0,P|206:321|283:302,1,125,4|4,0:0|0:0,0:0:0:0:
349,312,19352,1,10,0:2:0:0:
430,312,19560,2,0,L|438:232,1,62.5,8|10,0:0|0:2,0:0:0:0:
476,178,19975,1,0,0:2:0:0:
429,111,20183,1,10,0:2:0:0:
453,33,20391,6,0,P|404:33|348:96,1,125,4|0,0:0|0:0,0:0:0:0:
270,92,21014,1,10,0:2:0:0:
190,76,21222,2,0,B|130:46|131:106|52:69,1,125,8|0,0:0|0:0,0:0:0:0:
51,237,22053,6,0,P|28:267|34:358,1,125,4|4,0:0|0:0,0:0:0:0:
109,364,22676,1,10,0:2:0:0:
189,352,22884,2,0,L|264:346,1,62.5,8|10,0:0|0:2,0:0:0:0:
326,314,23300,2,0,L|316:240,1,62.5,0|10,0:2|0:2,0:0:0:0:
370,189,23715,6,0,P|319:204|245:195,1,125,4|4,0:0|0:3,0:0:0:0:
178,49,24546,2,0,P|116:40|56:56,1,125,2|2,0:2|0:2,0:0:0:0:
28,131,25169,1,10,0:2:0:0:
19,211,25377,6,0,P|19:275|37:332,1,125,4|4,0:0|0:0,0:0:0:0:
193,288,26208,2,0,L|278:279,1,62.5,2|10,0:2|0:2,0:0:0:0:
334,304,26624,1,2,0:2:0:0:
410,330,26831,1,10,0:2:0:0:
485,300,27039,6,0,P|499:242|487:155,1,125,8|8,0:0|0:0,0:0:0:0:
405,41,27870,2,0,P|343:16|282:44,1,125,8|8,0:0|0:0,0:0:0:0:
260,110,28493,1,8,0:2:0:0:
210,46,28701,6,0,B|172:33|143:44|143:44|91:70,1,125,4|4,0:0|0:0,0:0:0:0:
36,222,29532,2,0,P|25:263|28:301,1,62.5,2|10,0:2|0:2,0:0:0:0:
53,360,29948,2,0,P|98:365|130:358,1,62.5,2|10,0:2|0:2,0:0:0:0:
196,360,30363,5,4,0:0:0:0:
358,368,30779,1,8,0:2:0:0:
476,256,31194,2,0,P|493:197|463:129,1,125,0|8,0:0|0:2,0:0:0:0:
320,80,32025,5,8,0:0:0:0:
168,139,32441,1,8,0:2:0:0:
12,93,32856,2,0,P|19:177|22:244,1,125,0|8,0:0|0:2,0:0:0:0:
89,365,33687,5,8,0:0:0:0:
228,281,34103,1,8,0:2:0:0:
384,324,34518,2,0,P|415:317|494:369,1,125,0|8,0:0|0:2,0:0:0:0:
463,201,35349,5,8,0:0:0:0:
322,118,35765,1,8,0:2:0:0:
189,212,36180,2,0,P|129:201|64:222,1,125,0|10,0:0|0:2,0:0:0:0:
16,156,36804,1,2,0:2:0:0:
30,76,37011,5,14,0:2:0:0:
256,192,37115,12,0,40336,2:0:0:0:
