osu file format v14

[General]
AudioFilename: audio.mp3
AudioLeadIn: 0
PreviewTime: 15509
Countdown: 0
SampleSet: None
StackLeniency: 0.4
Mode: 0
LetterboxInBreaks: 0
WidescreenStoryboard: 1

[Editor]
Bookmarks: 10211,23715
DistanceSpacing: 1.2
BeatDivisor: 8
GridSize: 8
TimelineZoom: 3.099999

[Metadata]
Title:Star Vs The Forces Of Evil Theme
TitleUnicode:Star Vs The Forces Of Evil Theme
Artist:bradbreeck
ArtistUnicode:bradbreeck
Creator:_DT3
Version:Cupcake of Doom!
Source:Star vs. The Forces of Evil
Tags:TV Disney XD brad breeck soundtrack cartoon marco versus A_r_M_i_N Armin Underforest I'm from Another Dimension Daron Nefcy Television Animation
BeatmapID:1304814
BeatmapSetID:508665

[Difficulty]
HPDrainRate:6
CircleSize:4.2
OverallDifficulty:8
ApproachRate:9.4
SliderMultiplier:1.9
SliderTickRate:1

[Events]
//Background and Video events
Video,919,"video.avi"
0,0,"Star-vs-The-Forces-of-Evil-post1[1].jpg",0,0
//Break Periods
//Storyboard Layer 0 (Background)
//Storyboard Layer 1 (Fail)
//Storyboard Layer 2 (Pass)
//Storyboard Layer 3 (Foreground)
//Storyboard Sound Samples

[TimingPoints]
3771,415.512465373961,4,3,1,65,1,0
10003,-83.3333333333333,4,3,1,65,0,0
10419,-100,4,3,1,65,0,0
12912,-133.333333333333,4,3,1,40,0,0
13223,-133.333333333333,4,3,1,5,0,0
13327,-133.333333333333,4,3,1,40,0,0
13639,-133.333333333333,4,3,1,5,0,0
13743,-100,4,3,1,65,0,0
16651,-133.333333333333,4,3,1,50,0,0
17067,-66.6666666666667,4,3,1,80,0,1
30363,-100,4,3,1,50,0,0
37011,-100,4,3,1,60,0,0
37115,-100,4,3,1,25,0,0
40336,-100,4,3,1,10,0,0

[Colours]
Combo1 : 155,250,255
Combo2 : 225,85,255
Combo3 : 248,155,253
Combo4 : 254,156,173
Combo5 : 248,254,120

[HitObjects]
80,176,1277,6,0,L|88:112,1,47.5,0|2,0:0|0:0,0:0:0:0:
176,192,1693,2,0,L|184:128,1,47.5,0|2,0:0|0:0,0:0:0:0:
368,280,2108,6,0,L|360:216,1,47.5,0|2,0:0|0:0,0:0:0:0:
272,296,2524,2,0,L|264:232,1,47.5,0|2,0:0|0:0,0:0:0:0:
288,123,2939,5,2,0:0:0:0:
287,128,3042,1,0,0:0:0:0:
286,134,3146,1,0,0:0:0:0:
285,140,3250,1,0,0:0:0:0:
285,146,3354,1,2,0:0:0:0:
284,152,3458,1,0,0:0:0:0:
283,158,3562,1,0,0:0:0:0:
282,164,3666,1,0,0:0:0:0:
266,248,3770,5,4,0:0:0:0:
460,348,3978,2,0,L|452:284,1,47.5,8|0,0:2|0:0,0:0:0:0:
442,205,4186,2,0,L|434:141,1,47.5,2|0,0:2|0:0,0:0:0:0:
424,62,4394,1,8,0:2:0:0:
250,168,4602,6,0,L|378:152,1,95,2|8,0:2|0:2,0:0:0:0:
442,78,4913,1,0,0:0:0:0:
424,62,5017,2,0,L|429:109,1,47.5,2|0,0:2|0:0,0:0:0:0:
454,300,5225,1,8,0:2:0:0:
290,137,5433,5,8,0:0:0:0:
187,315,5640,2,0,L|193:363,1,47.5,8|0,0:2|0:0,0:0:0:0:
285,317,5848,2,0,L|291:365,1,47.5,2|0,0:2|0:0,0:0:0:0:
382,319,6056,1,8,0:2:0:0:
189,92,6264,5,2,0:2:0:0:
291,270,6471,2,0,L|285:317,1,47.5,8|0,0:2|0:0,0:0:0:0:
193,272,6679,2,0,L|187:319,1,47.5,2|0,0:2|0:0,0:0:0:0:
98,274,6887,1,8,0:2:0:0:
189,92,7095,5,4,0:0:0:0:
338,275,7302,2,0,L|274:267,1,47.5,8|0,0:2|0:0,0:0:0:0:
177,188,7510,2,0,L|241:180,1,47.5,2|0,0:2|0:0,0:0:0:0:
338,101,7718,1,8,0:2:0:0:
512,207,7926,6,0,L|384:191,1,95,2|8,0:2|0:2,0:0:0:0:
320,117,8237,1,0,0:0:0:0:
338,101,8341,2,0,L|333:148,1,47.5,2|0,0:2|0:0,0:0:0:0:
308,339,8549,1,8,0:2:0:0:
417,195,8757,5,8,0:0:0:0:
223,95,8964,2,0,L|231:159,1,47.5,8|0,0:2|0:0,0:0:0:0:
241,238,9172,2,0,L|249:302,1,47.5,2|0,0:2|0:0,0:0:0:0:
259,381,9380,1,8,0:2:0:0:
435,338,9588,6,0,L|427:274,1,47.5,2|0,0:2|0:0,0:0:0:0:
417,195,9795,2,0,L|409:131,1,47.5,8|0,0:2|0:0,0:0:0:0:
216,75,10003,6,0,L|226:152,1,56.9999982604981,2|0,0:2|0:0,0:0:0:0:
237,246,10211,2,0,L|247:323,1,56.9999982604981,8|0,0:2|0:0,0:0:0:0:
399,52,10419,5,4,0:0:0:0:
399,226,10626,2,0,L|335:218,1,47.5,8|0,0:2|0:0,0:0:0:0:
238,139,10834,2,0,L|302:131,1,47.5,2|0,0:2|0:0,0:0:0:0:
399,52,11042,1,8,0:2:0:0:
494,151,11250,6,0,L|366:135,1,95,2|10,0:2|0:2,0:0:0:0:
272,101,11561,1,0,0:0:0:0:
290,85,11665,2,0,L|285:132,1,47.5,2|0,0:2|0:0,0:0:0:0:
260,323,11873,1,8,0:2:0:0:
400,140,12081,5,8,0:0:0:0:
225,233,12289,1,8,0:2:0:0:
225,233,12392,1,0,0:0:0:0:
225,233,12496,2,0,L|272:228,1,47.5,2|0,0:2|0:0,0:0:0:0:
463,203,12704,1,8,0:2:0:0:
463,203,12912,6,0,P|412:188|360:201,1,106.875004076958,0|0,0:0|0:0,0:0:0:0:
287,135,13327,2,0,P|236:150|184:137,1,106.875004076958,0|0,0:0|0:0,0:0:0:0:
111,203,13743,5,4,0:0:0:0:
305,303,13951,2,0,L|297:239,1,47.5,8|0,0:2|0:0,0:0:0:0:
287,160,14158,2,0,L|279:96,1,47.5,2|0,0:2|0:0,0:0:0:0:
269,17,14366,1,8,0:2:0:0:
107,218,14574,6,0,L|235:202,1,95,2|8,0:2|0:2,0:0:0:0:
299,128,14885,1,0,0:0:0:0:
281,112,14989,2,0,L|286:159,1,47.5,2|0,0:2|0:0,0:0:0:0:
299,255,15197,2,0,L|305:303,1,47.5,8|0,0:2|0:0,0:0:0:0:
493,355,15405,6,0,L|485:291,1,47.5,8|0,0:0|0:0,0:0:0:0:
475,212,15613,2,0,L|467:148,1,47.5,8|0,0:2|0:0,0:0:0:0:
457,69,15820,2,0,L|449:5,1,47.5,2|0,0:2|0:0,0:0:0:0:
328,128,16028,1,0,0:0:0:0:
475,212,16236,5,0,0:0:0:0:
475,212,16444,1,0,0:0:0:0:
332,310,16651,2,0,L|296:305,1,35.625001358986,0|0,0:0|0:0,0:0:0:0:
189,292,16859,2,0,L|153:287,1,35.625001358986,0|0,0:0|0:0,0:0:0:0:
46,274,17067,5,4,0:0:0:0:
41,238,17171,1,0,0:0:0:0:
36,203,17275,1,10,0:2:0:0:
31,168,17379,1,0,0:0:0:0:
74,94,17482,5,0,0:0:0:0:
114,70,17586,1,0,0:0:0:0:
161,68,17690,1,10,0:2:0:0:
203,89,17794,1,0,0:0:0:0:
236,170,17898,6,0,L|309:175,1,71.2500027179719,8|0,0:0|0:0,0:0:0:0:
413,181,18106,2,0,L|486:186,1,71.2500027179719,10|0,0:2|0:0,0:0:0:0:
348,276,18313,6,0,L|274:281,1,71.2500027179719,0|0,0:0|0:0,0:0:0:0:
171,287,18521,2,0,L|98:292,1,71.2500027179719,10|0,0:2|0:0,0:0:0:0:
28,211,18729,5,4,0:0:0:0:
63,208,18833,1,0,0:0:0:0:
99,206,18937,1,10,0:2:0:0:
134,203,19041,1,0,0:0:0:0:
171,126,19144,5,4,0:0:0:0:
206,129,19248,1,0,0:0:0:0:
242,131,19352,1,10,0:2:0:0:
277,134,19456,1,0,0:0:0:0:
351,177,19560,5,8,0:0:0:0:
375,217,19664,1,0,0:0:0:0:
377,264,19768,1,10,0:2:0:0:
356,306,19872,1,0,0:0:0:0:
274,329,19975,6,0,L|200:324,1,71.2500027179719,0|0,0:2|0:0,0:0:0:0:
97,318,20183,2,0,L|24:313,1,71.2500027179719,10|0,0:2|0:0,0:0:0:0:
171,212,20391,5,4,0:0:0:0:
206,215,20495,1,0,0:0:0:0:
242,217,20599,1,10,0:2:0:0:
277,220,20703,1,0,0:0:0:0:
351,177,20807,5,0,0:0:0:0:
375,137,20910,1,0,0:0:0:0:
377,90,21014,1,10,0:2:0:0:
356,48,21118,1,0,0:0:0:0:
273,22,21222,6,0,L|200:17,1,71.2500027179719,8|0,0:0|0:0,0:0:0:0:
96,11,21430,2,0,L|23:6,1,71.2500027179719,10|0,0:2|0:0,0:0:0:0:
128,154,21638,6,0,L|199:149,1,71.2500027179719,0|0,0:0|0:0,0:0:0:0:
304,142,21845,2,0,L|375:137,1,71.2500027179719,10|0,0:2|0:0,0:0:0:0:
512,210,22053,5,4,0:0:0:0:
477,213,22157,1,0,0:0:0:0:
441,215,22261,1,10,0:2:0:0:
406,218,22365,1,0,0:0:0:0:
369,295,22469,5,4,0:0:0:0:
334,292,22572,1,0,0:0:0:0:
298,290,22676,1,10,0:2:0:0:
263,287,22780,1,0,0:0:0:0:
226,210,22884,5,8,0:0:0:0:
191,213,22988,1,0,0:0:0:0:
155,215,23092,6,0,L|148:288,1,71.2500027179719,10|0,0:2|0:0,0:0:0:0:
305,144,23300,2,0,L|312:217,1,71.2500027179719,0|0,0:2|0:0,0:0:0:0:
139,51,23507,2,0,L|132:124,1,71.2500027179719,10|0,0:2|0:0,0:0:0:0:
392,226,23715,6,0,L|386:156,1,71.2500027179719,4|0,0:0|0:0,0:0:0:0:
291,58,23923,1,8,0:2:0:0:
256,61,24027,1,0,0:0:0:0:
220,63,24131,2,0,L|213:136,1,71.2500027179719,4|0,0:3|0:0,0:0:0:0:
398,297,24338,2,0,L|392:227,1,71.2500027179719,8|0,0:2|0:0,0:0:0:0:
214,134,24546,6,0,L|207:207,1,71.2500027179719,2|0,0:2|0:0,0:0:0:0:
193,345,24754,1,10,0:2:0:0:
392,226,24962,6,0,L|385:155,1,71.2500027179719,2|0,0:2|0:0,0:0:0:0:
371,15,25169,1,10,0:2:0:0:
252,214,25377,6,0,L|182:208,1,71.2500027179719,4|0,0:0|0:0,0:0:0:0:
84,113,25585,1,8,0:2:0:0:
87,78,25689,1,0,0:0:0:0:
89,42,25793,2,0,L|162:35,1,71.2500027179719,4|0,0:0|0:0,0:0:0:0:
323,220,26000,2,0,L|253:214,1,71.2500027179719,8|0,0:2|0:0,0:0:0:0:
160,36,26208,6,0,L|233:29,1,71.2500027179719,2|2,0:2|0:2,0:0:0:0:
371,15,26416,2,0,L|444:8,1,71.2500027179719,10|2,0:2|0:2,0:0:0:0:
252,214,26624,5,2,0:2:0:0:
228,211,26728,1,2,0:2:0:0:
204,209,26831,1,10,0:2:0:0:
181,207,26935,1,2,0:2:0:0:
96,198,27039,6,0,P|92:231|98:270,1,71.2500027179719,8|0,0:0|0:0,0:0:0:0:
329,145,27247,1,10,0:2:0:0:
329,145,27351,1,0,0:0:0:0:
329,145,27455,6,0,P|334:109|330:74,1,71.2500027179719,8|0,0:0|0:0,0:0:0:0:
98,127,27662,1,10,0:2:0:0:
98,127,27766,1,0,0:0:0:0:
98,127,27870,6,0,P|92:162|96:197,1,71.2500027179719,8|0,0:0|0:0,0:0:0:0:
328,215,28078,1,10,0:2:0:0:
328,215,28182,1,0,0:0:0:0:
328,215,28286,6,0,P|333:179|329:144,1,71.2500027179719,8|0,0:0|0:0,0:0:0:0:
99,57,28493,2,0,P|93:92|97:127,1,71.2500027179719,8|0,0:2|0:0,0:0:0:0:
219,283,28701,5,4,0:0:0:0:
255,288,28805,1,0,0:0:0:0:
290,293,28909,1,8,0:2:0:0:
325,298,29013,1,0,0:0:0:0:
360,303,29117,6,0,L|431:296,1,71.2500027179719,4|0,0:0|0:0,0:0:0:0:
458,105,29325,2,0,L|387:98,1,71.2500027179719,8|0,0:2|0:0,0:0:0:0:
187,198,29532,5,2,0:2:0:0:
192,197,29636,1,2,0:2:0:0:
198,196,29740,1,10,0:2:0:0:
204,195,29844,1,2,0:2:0:0:
210,195,29948,1,2,0:2:0:0:
216,194,30052,1,2,0:2:0:0:
222,193,30156,1,10,0:2:0:0:
228,192,30259,1,2,0:2:0:0:
312,176,30363,6,0,L|416:173,1,95,4|0,0:0|0:0,0:0:0:0:
471,301,30779,2,0,L|376:298,1,95,8|4,0:2|0:0,0:0:0:0:
331,94,31194,2,0,L|435:91,1,95,0|4,0:0|0:0,0:0:0:0:
484,215,31610,1,8,0:2:0:0:
200,176,32025,6,0,L|96:173,1,95,8|0,0:0|0:0,0:0:0:0:
41,301,32441,2,0,L|136:298,1,95,8|4,0:2|0:0,0:0:0:0:
181,94,32856,2,0,L|77:91,1,95,0|4,0:0|0:0,0:0:0:0:
28,215,33272,1,8,0:2:0:0:
28,215,33480,1,0,0:0:0:0:
150,279,33687,5,8,0:0:0:0:
150,279,33895,2,0,L|153:175,1,95,0|8,0:0|0:2,0:0:0:0:
25,120,34311,1,4,0:0:0:0:
25,120,34518,2,0,L|28:215,1,95,0|4,0:0|0:0,0:0:0:0:
232,260,34934,2,0,L|235:156,1,95,8|0,0:2|0:0,0:0:0:0:
359,6,35349,5,8,0:0:0:0:
359,6,35557,2,0,L|362:110,1,95,0|8,0:0|0:2,0:0:0:0:
234,165,35973,1,4,0:0:0:0:
234,165,36180,2,0,L|237:70,1,95,0|8,0:0|0:0,0:0:0:0:
441,25,36596,5,10,0:2:0:0:
237,70,36804,1,2,0:2:0:0:
512,199,37011,5,14,0:2:0:0:
256,192,37115,12,0,40336,2:0:0:0:
