osu file format v14

[General]
AudioFilename: audio.mp3
AudioLeadIn: 0
PreviewTime: 15509
Countdown: 0
SampleSet: None
StackLeniency: 0.6
Mode: 0
LetterboxInBreaks: 0
WidescreenStoryboard: 1

[Editor]
DistanceSpacing: 1
BeatDivisor: 4
GridSize: 4
TimelineZoom: 1

[Metadata]
Title:Star Vs The Forces Of Evil Theme
TitleUnicode:Star Vs The Forces Of Evil Theme
Artist:bradbreeck
ArtistUnicode:bradbreeck
Creator:_DT3
Version:A r M i N's Insane
Source:Star vs. The Forces of Evil
Tags:TV Disney XD brad breeck soundtrack cartoon marco versus A_r_M_i_N Armin Underforest I'm from Another Dimension Daron Nefcy Television Animation
BeatmapID:1081806
BeatmapSetID:508665

[Difficulty]
HPDrainRate:6
CircleSize:3
OverallDifficulty:7.5
ApproachRate:8.8
SliderMultiplier:1.7
SliderTickRate:1

[Events]
//Background and Video events
0,0,"Star-vs-The-Forces-of-Evil-post1[1].jpg",0,0
Video,919,"video.avi"
//Break Periods
//Storyboard Layer 0 (Background)
//Storyboard Layer 1 (Fail)
//Storyboard Layer 2 (Pass)
//Storyboard Layer 3 (Foreground)
//Storyboard Sound Samples

[TimingPoints]
3771,415.512465373961,4,3,1,65,1,0
10003,-83.3333333333333,4,3,1,65,0,0
10419,-100,4,3,1,65,0,0
12912,-125,4,3,1,40,0,0
13120,-100,4,3,1,5,0,0
13327,-125,4,3,1,40,0,0
13535,-100,4,3,1,5,0,0
13743,-100,4,3,1,65,0,0
16651,-133.333333333333,4,3,1,50,0,0
17067,-90.9090909090909,4,3,1,80,0,1
27351,-90.9090909090909,4,3,1,5,0,1
27455,-90.9090909090909,4,3,1,80,0,1
27766,-90.9090909090909,4,3,1,5,0,1
27870,-90.9090909090909,4,3,1,80,0,1
28182,-90.9090909090909,4,3,1,5,0,1
28286,-90.9090909090909,4,3,1,80,0,1
30363,-100,4,3,1,50,0,0
31921,-100,4,3,1,5,0,0
32025,-100,4,3,1,50,0,0
35246,-100,4,3,1,5,0,0
35349,-100,4,3,1,50,0,0
37011,-100,4,3,1,60,0,0
37115,-100,4,3,1,25,0,0
40336,-100,4,3,1,10,0,0

[Colours]
Combo1 : 155,250,255
Combo2 : 225,85,255
Combo3 : 248,155,253
Combo4 : 254,156,173
Combo5 : 248,254,120

[HitObjects]
313,52,1277,6,0,L|372:34,1,42.5,0|0,0:0|0:0,0:0:0:0:
313,161,1693,2,0,L|372:143,1,42.5,0|0,0:0|0:0,0:0:0:0:
237,237,2108,6,0,L|178:219,1,42.5,0|0,0:0|0:0,0:0:0:0:
237,346,2524,2,0,L|178:328,1,42.5,0|0,0:0|0:0,0:0:0:0:
151,118,2939,6,0,L|213:132,3,42.5,2|2|2|2,0:0|0:0|0:0|0:0,0:0:0:0:
235,126,3355,2,0,L|277:116,3,42.5,2|2|2|2,0:0|0:0|0:0|0:0,0:0:0:0:
319,118,3771,6,0,P|365:126|420:109,1,85,4|8,0:0|0:2,0:0:0:0:
487,71,4082,1,0,0:0:0:0:
487,71,4186,2,0,L|484:148,1,42.5,2|0,0:2|0:0,0:0:0:0:
449,205,4394,2,0,L|446:282,1,42.5,8|0,0:2|0:0,0:0:0:0:
352,308,4602,2,0,L|265:304,1,85,2|8,0:2|0:2,0:0:0:0:
182,353,4913,1,0,0:0:0:0:
182,353,5017,2,0,L|95:349,1,85,2|8,0:2|0:2,0:0:0:0:
36,218,5433,6,0,L|37:162,1,42.5,8|0,0:0|0:0,0:0:0:0:
134,175,5640,2,0,L|158:124,1,42.5,8|0,0:2|0:0,0:0:0:0:
242,175,5848,2,0,P|288:183|343:166,1,85,2|8,0:2|0:2,0:0:0:0:
410,128,6160,1,0,0:0:0:0:
410,128,6264,2,0,L|407:205,1,42.5,2|0,0:2|0:0,0:0:0:0:
372,262,6471,2,0,L|369:339,1,42.5,8|0,0:2|0:0,0:0:0:0:
461,342,6679,1,2,0:2:0:0:
276,276,6887,1,8,0:2:0:0:
98,359,7095,6,0,L|100:265,1,85,4|8,0:0|0:2,0:0:0:0:
174,211,7406,1,0,0:0:0:0:
174,211,7510,2,0,L|176:117,1,85,2|8,0:2|0:2,0:0:0:0:
246,56,7822,1,0,0:0:0:0:
246,56,7926,2,0,L|290:36,1,42.5,2|0,0:2|0:0,0:0:0:0:
285,136,8133,2,0,L|333:136,1,42.5,8|0,0:2|0:0,0:0:0:0:
285,225,8341,2,0,L|395:278,1,85,2|8,0:2|0:2,0:0:0:0:
265,355,8757,6,0,L|265:297,1,42.5,8|0,0:0|0:0,0:0:0:0:
190,248,8964,2,0,L|190:190,1,42.5,8|0,0:2|0:0,0:0:0:0:
115,140,9172,2,0,L|116:45,1,85,2|8,0:2|0:2,0:0:0:0:
207,19,9484,1,0,0:0:0:0:
207,19,9588,5,2,0:2:0:0:
190,205,9795,1,8,0:2:0:0:
21,107,10003,1,2,0:2:0:0:
226,115,10211,1,8,0:2:0:0:
106,221,10419,6,0,L|197:203,1,85,4|8,0:0|0:2,0:0:0:0:
284,228,10730,1,0,0:0:0:0:
284,228,10834,2,0,L|375:210,1,85,2|8,0:2|0:2,0:0:0:0:
462,239,11146,1,0,0:0:0:0:
462,239,11250,2,0,L|465:174,1,42.5,2|0,0:2|0:0,0:0:0:0:
402,120,11457,2,0,L|405:55,1,42.5,10|0,0:2|0:0,0:0:0:0:
342,0,11665,2,0,L|243:5,1,85,2|8,0:2|0:2,0:0:0:0:
162,126,12081,6,0,P|169:166|159:217,1,85,8|8,0:0|0:2,0:0:0:0:
108,291,12392,1,0,0:0:0:0:
108,291,12496,2,0,L|155:293,1,42.5,2|0,0:2|0:0,0:0:0:0:
249,293,12704,1,8,0:2:0:0:
387,189,12912,6,0,L|389:92,1,68,0|0,0:0|0:0,0:0:0:0:
247,225,13327,2,0,L|249:322,1,68,0|0,0:0|0:0,0:0:0:0:
51,79,13743,6,0,P|102:86|144:75,1,85,4|8,0:0|0:2,0:0:0:0:
218,28,14054,1,0,0:0:0:0:
218,28,14158,2,0,L|281:28,1,42.5,2|0,0:2|0:0,0:0:0:0:
345,78,14366,2,0,L|408:78,1,42.5,8|0,0:2|0:0,0:0:0:0:
476,35,14574,2,0,L|472:133,1,85,2|8,0:2|0:2,0:0:0:0:
416,200,14885,1,0,0:0:0:0:
416,200,14989,2,0,L|412:298,1,85,2|8,0:2|0:2,0:0:0:0:
248,281,15405,6,0,L|245:188,1,85,8|8,0:0|0:2,0:0:0:0:
189,115,15716,1,0,0:0:0:0:
189,115,15820,2,0,L|187:58,1,42.5,2|0,0:2|0:0,0:0:0:0:
100,138,16028,5,0,0:0:0:0:
265,31,16236,1,0,0:0:0:0:
245,196,16444,1,0,0:0:0:0:
395,165,16651,5,0,0:0:0:0:
404,193,16755,1,0,0:0:0:0:
407,222,16859,1,0,0:0:0:0:
405,251,16963,1,0,0:0:0:0:
373,281,17067,6,0,L|322:271,3,46.7500014266968,4|0|10|0,0:0|0:0|0:2|0:0,0:0:0:0:
247,272,17482,2,0,L|201:280,3,46.7500014266968,0|0|10|0,0:0|0:0|0:2|0:0,0:0:0:0:
123,261,17898,5,8,0:0:0:0:
109,229,18001,1,0,0:0:0:0:
104,195,18105,1,10,0:2:0:0:
108,161,18209,1,0,0:0:0:0:
121,129,18313,6,0,L|169:129,1,46.7500014266968,0|0,0:0|0:0,0:0:0:0:
207,103,18521,2,0,L|255:103,1,46.7500014266968,10|0,0:2|0:0,0:0:0:0:
333,111,18729,6,0,P|336:134|333:157,3,46.7500014266968,4|0|10|0,0:0|0:0|0:2|0:0,0:0:0:0:
370,228,19144,2,0,P|366:251|369:274,3,46.7500014266968,4|0|10|0,0:0|0:0|0:2|0:0,0:0:0:0:
346,351,19560,5,8,0:0:0:0:
315,365,19663,1,0,0:0:0:0:
281,370,19767,1,10,0:2:0:0:
247,366,19871,1,0,0:0:0:0:
210,336,19975,6,0,L|202:290,1,46.7500014266968,0|0,0:2|0:0,0:0:0:0:
258,232,20183,2,0,L|266:186,1,46.7500014266968,10|0,0:2|0:0,0:0:0:0:
213,115,20391,6,0,L|205:69,3,46.7500014266968,4|0|10|0,0:0|0:0|0:2|0:0,0:0:0:0:
111,56,20807,2,0,L|119:10,3,46.7500014266968,0|0|10|0,0:0|0:0|0:2|0:0,0:0:0:0:
17,75,21222,5,8,0:0:0:0:
5,113,21325,1,0,0:0:0:0:
13,151,21429,1,10,0:2:0:0:
39,181,21534,1,0,0:0:0:0:
65,210,21638,6,0,P|68:233|65:256,1,46.7500014266968,0|0,0:0|0:0,0:0:0:0:
45,298,21845,2,0,P|42:321|45:344,1,46.7500014266968,10|0,0:2|0:0,0:0:0:0:
124,334,22053,5,4,0:0:0:0:
156,308,22157,1,0,0:0:0:0:
197,298,22261,1,10,0:2:0:0:
239,306,22365,1,0,0:0:0:0:
275,334,22468,1,4,0:0:0:0:
311,362,22572,1,0,0:0:0:0:
353,370,22676,1,10,0:2:0:0:
394,360,22780,1,0,0:0:0:0:
424,313,22884,2,0,L|418:253,1,46.7500014266968,8|0,0:0|0:0,0:0:0:0:
372,173,23092,6,0,P|349:170|326:173,1,46.7500014266968,10|0,0:2|0:0,0:0:0:0:
250,196,23300,2,0,P|227:200|204:197,1,46.7500014266968,0|0,0:2|0:0,0:0:0:0:
128,173,23507,2,0,P|105:169|82:172,1,46.7500014266968,10|0,0:2|0:0,0:0:0:0:
8,245,23715,6,0,L|12:339,1,93.5000028533936,4|8,0:0|0:2,0:0:0:0:
107,378,24027,1,0,0:0:0:0:
107,378,24131,2,0,P|166:376|202:351,1,93.5000028533936,4|8,0:3|0:2,0:0:0:0:
261,164,24546,2,0,P|320:166|356:191,1,93.5000028533936,2|10,0:2|0:2,0:0:0:0:
403,271,24858,1,0,0:0:0:0:
403,271,24962,6,0,P|426:274|449:271,1,46.7500014266968,2|0,0:2|0:0,0:0:0:0:
512,188,25169,2,0,L|504:142,1,46.7500014266968,10|0,0:2|0:0,0:0:0:0:
448,53,25377,2,0,P|406:31|360:33,1,93.5000028533936,4|8,0:0|0:2,0:0:0:0:
286,105,25689,1,0,0:0:0:0:
286,105,25793,2,0,P|239:106|198:85,1,93.5000028533936,4|8,0:0|0:2,0:0:0:0:
37,215,26208,5,2,0:2:0:0:
40,233,26312,1,2,0:2:0:0:
43,251,26416,1,10,0:2:0:0:
46,269,26520,1,2,0:2:0:0:
49,286,26624,2,0,P|72:289|95:286,1,46.7500014266968,2|2,0:2|0:2,0:0:0:0:
180,227,26832,2,0,P|203:223|226:226,1,46.7500014266968,10|2,0:2|0:2,0:0:0:0:
326,265,27039,6,0,L|466:236,1,140.25000428009,8|0,0:0|0:0,0:0:0:0:
511,139,27455,2,0,P|488:83|409:49,1,140.25000428009,8|0,0:0|0:0,0:0:0:0:
333,113,27870,2,0,P|264:121|208:83,1,140.25000428009,8|0,0:0|0:0,0:0:0:0:
123,15,28286,6,0,P|100:12|77:15,1,46.7500014266968,8|0,0:0|0:0,0:0:0:0:
0,91,28493,2,0,L|8:137,1,46.7500014266968,8|0,0:2|0:0,0:0:0:0:
107,189,28701,6,0,L|91:280,1,93.5000028533936,4|8,0:0|0:2,0:0:0:0:
154,368,29013,1,0,0:0:0:0:
154,368,29117,2,0,P|213:366|249:341,1,93.5000028533936,4|8,0:0|0:2,0:0:0:0:
313,176,29532,6,0,L|321:129,3,46.7500014266968,2|2|10|2,0:2|0:2|0:2|0:2,0:0:0:0:
246,70,29948,2,0,L|237:23,3,46.7500014266968,2|2|10|2,0:2|0:2|0:2|0:2,0:0:0:0:
147,56,30363,6,0,L|131:231,1,170,4|8,0:0|0:2,0:0:0:0:
124,319,30987,1,4,0:0:0:0:
254,185,31402,5,4,0:0:0:0:
335,139,31610,2,0,B|414:108|414:108|475:134,1,127.5,8|0,0:2|0:0,0:0:0:0:
491,143,32025,1,8,0:0:0:0:
395,308,32441,5,8,0:2:0:0:
342,230,32649,2,0,L|141:204,1,170,4|4,0:0|0:0,0:0:0:0:
125,127,33272,1,8,0:2:0:0:
274,15,33687,6,0,L|262:190,1,170,8|8,0:0|0:2,0:0:0:0:
253,278,34311,1,4,0:0:0:0:
129,139,34726,5,4,0:0:0:0:
205,85,34934,2,0,P|291:73|344:104,1,127.5,8|0,0:2|0:0,0:0:0:0:
356,118,35349,1,8,0:0:0:0:
445,282,35765,6,0,L|447:181,1,85,8|4,0:2|0:0,0:0:0:0:
448,103,36180,1,0,0:0:0:0:
354,212,36388,1,8,0:0:0:0:
304,47,36596,5,10,0:2:0:0:
475,96,36804,1,2,0:2:0:0:
253,153,37011,1,14,0:2:0:0:
256,192,37115,12,0,40336,2:0:0:0:
