osu file format v14

[General]
AudioFilename: audio.mp3
AudioLeadIn: 0
PreviewTime: 3771
Countdown: 0
SampleSet: None
StackLeniency: 0.7
Mode: 3
LetterboxInBreaks: 0
SpecialStyle: 0
WidescreenStoryboard: 1

[Editor]
DistanceSpacing: 1
BeatDivisor: 4
GridSize: 4
TimelineZoom: 1.7

[Metadata]
Title:Star Vs The Forces Of Evil Theme
TitleUnicode:Star Vs The Forces Of Evil Theme
Artist:bradbreeck
ArtistUnicode:bradbreeck
Creator:Weber
Version:puxtu's MX
Source:Star vs. The Forces of Evil
Tags:disney xd brad breeck soundtrack cartoon marco versus Ayyri puxtu
BeatmapID:1236035
BeatmapSetID:553866

[Difficulty]
HPDrainRate:8.5
CircleSize:4
OverallDifficulty:8.5
ApproachRate:5
SliderMultiplier:1.4
SliderTickRate:1

[Events]
//Background and Video events
0,0,"Star-Butterfly-Wallpaper-star-vs-the-forces-of-evil-39686944-1920-1080.png",0,0
//Break Periods
//Storyboard Layer 0 (Background)
//Storyboard Layer 1 (Fail)
//Storyboard Layer 2 (Pass)
//Storyboard Layer 3 (Foreground)
//Storyboard Sound Samples

[TimingPoints]
3771,415.512465373961,4,3,0,50,1,0
17067,-100,4,3,0,50,0,1
30363,-100,4,3,0,50,0,0

[HitObjects]
320,192,1277,5,2,2:0:0:0:
64,192,1277,1,0,0:0:0:0:
320,192,1381,1,2,2:0:0:0:
192,192,1381,1,0,0:0:0:0:
320,192,1693,1,2,2:0:0:0:
64,192,1693,1,0,0:0:0:0:
320,192,1797,1,2,2:0:0:0:
192,192,1797,1,0,0:0:0:0:
192,192,2108,1,2,2:0:0:0:
320,192,2108,1,0,0:0:0:0:
192,192,2212,1,2,2:0:0:0:
448,192,2212,1,0,0:0:0:0:
192,192,2524,1,2,2:0:0:0:
320,192,2524,1,0,0:0:0:0:
192,192,2628,1,2,2:0:0:0:
448,192,2628,1,0,0:0:0:0:
320,192,2939,1,2,1:0:0:0:
448,192,2939,1,0,0:0:0:0:
64,192,3043,1,0,0:0:0:0:
192,192,3043,1,0,0:0:0:0:
320,192,3147,1,0,0:0:0:0:
448,192,3147,1,2,1:0:0:0:
64,192,3251,1,0,0:0:0:0:
192,192,3251,1,0,0:0:0:0:
448,192,3355,1,2,1:0:0:0:
320,192,3355,1,0,0:0:0:0:
64,192,3459,1,0,0:0:0:0:
192,192,3459,1,0,0:0:0:0:
448,192,3563,1,0,0:0:0:0:
320,192,3563,1,2,1:0:0:0:
192,192,3667,1,0,0:0:0:0:
64,192,3667,1,0,0:0:0:0:
320,192,3771,1,4,0:0:0:0:
448,192,3771,1,0,0:0:0:0:
192,192,3978,1,8,0:0:0:0:
64,192,3978,1,0,0:0:0:0:
320,192,4082,1,0,0:0:0:0:
448,192,4082,1,4,0:0:0:0:
192,192,4186,1,0,0:0:0:0:
64,192,4290,1,0,0:0:0:0:
320,192,4290,1,4,0:0:0:0:
192,192,4394,1,0,0:0:0:0:
448,192,4394,1,8,0:0:0:0:
64,192,4602,1,0,0:0:0:0:
320,192,4602,1,4,0:0:0:0:
192,192,4809,1,8,0:0:0:0:
448,192,4809,1,0,0:0:0:0:
64,192,4913,1,4,0:0:0:0:
320,192,4913,1,0,0:0:0:0:
192,192,5017,1,0,0:0:0:0:
64,192,5121,1,0,0:0:0:0:
448,192,5121,1,4,0:0:0:0:
192,192,5225,1,0,0:0:0:0:
320,192,5225,1,8,0:0:0:0:
64,192,5433,1,4,0:0:0:0:
448,192,5433,1,0,0:0:0:0:
320,192,5640,1,0,0:0:0:0:
192,192,5640,1,8,0:0:0:0:
64,192,5744,1,0,0:0:0:0:
448,192,5744,1,4,0:0:0:0:
320,192,5848,1,0,0:0:0:0:
192,192,5952,1,4,0:0:0:0:
64,192,5952,1,0,0:0:0:0:
448,192,6056,1,8,0:0:0:0:
320,192,6056,1,0,0:0:0:0:
64,192,6264,1,0,0:0:0:0:
192,192,6264,1,4,0:0:0:0:
320,192,6471,1,8,0:0:0:0:
448,192,6471,1,0,0:0:0:0:
64,192,6575,1,4,0:0:0:0:
192,192,6575,1,0,0:0:0:0:
320,192,6679,1,0,0:0:0:0:
448,192,6783,1,0,0:0:0:0:
192,192,6783,1,4,0:0:0:0:
320,192,6887,1,0,0:0:0:0:
64,192,6887,1,8,0:0:0:0:
192,192,7095,1,4,0:0:0:0:
448,192,7095,1,0,0:0:0:0:
64,192,7302,1,0,0:0:0:0:
320,192,7302,1,8,0:0:0:0:
192,192,7406,1,0,0:0:0:0:
448,192,7406,1,4,0:0:0:0:
320,192,7510,1,0,0:0:0:0:
192,192,7614,1,4,0:0:0:0:
64,192,7614,1,0,0:0:0:0:
448,192,7718,1,8,0:0:0:0:
320,192,7718,1,0,0:0:0:0:
192,192,7926,1,0,0:0:0:0:
64,192,7926,1,4,0:0:0:0:
448,192,8133,1,8,0:0:0:0:
320,192,8133,1,0,0:0:0:0:
192,192,8237,1,4,0:0:0:0:
64,192,8237,1,0,0:0:0:0:
448,192,8341,1,0,0:0:0:0:
320,192,8445,1,0,0:0:0:0:
192,192,8445,1,4,0:0:0:0:
64,192,8549,1,0,0:0:0:0:
448,192,8549,1,8,0:0:0:0:
320,192,8757,1,4,0:0:0:0:
192,192,8757,1,0,0:0:0:0:
64,192,8964,1,0,0:0:0:0:
448,192,8964,1,8,0:0:0:0:
320,192,9068,1,0,0:0:0:0:
192,192,9068,1,4,0:0:0:0:
448,192,9172,1,0,0:0:0:0:
320,192,9276,1,4,0:0:0:0:
64,192,9276,1,0,0:0:0:0:
448,192,9380,1,8,0:0:0:0:
192,192,9380,1,0,0:0:0:0:
64,192,9588,1,0,0:0:0:0:
320,192,9588,1,4,0:0:0:0:
192,192,9795,1,8,0:0:0:0:
448,192,9795,1,0,0:0:0:0:
64,192,9899,1,4,0:0:0:0:
320,192,9899,1,0,0:0:0:0:
448,192,10003,1,0,0:0:0:0:
64,192,10107,1,0,0:0:0:0:
192,192,10107,1,4,0:0:0:0:
320,192,10211,1,0,0:0:0:0:
448,192,10211,1,8,0:0:0:0:
192,192,10419,1,4,0:0:0:0:
64,192,10419,1,0,0:0:0:0:
320,192,10626,1,8,0:0:0:0:
448,192,10626,1,0,0:0:0:0:
192,192,10730,1,0,0:0:0:0:
64,192,10730,1,4,0:0:0:0:
320,192,10834,1,0,0:0:0:0:
448,192,10938,1,0,0:0:0:0:
192,192,10938,1,4,0:0:0:0:
320,192,11042,1,0,0:0:0:0:
64,192,11042,1,8,0:0:0:0:
448,192,11250,1,0,0:0:0:0:
192,192,11250,1,4,0:0:0:0:
320,192,11457,1,8,0:0:0:0:
64,192,11457,1,0,0:0:0:0:
448,192,11561,1,4,0:0:0:0:
192,192,11561,1,0,0:0:0:0:
320,192,11665,1,0,0:0:0:0:
448,192,11769,1,0,0:0:0:0:
64,192,11769,1,4,0:0:0:0:
320,192,11873,1,0,0:0:0:0:
192,192,11873,1,8,0:0:0:0:
448,192,12081,1,4,0:0:0:0:
64,192,12081,1,0,0:0:0:0:
192,192,12289,1,0,0:0:0:0:
320,192,12289,1,8,0:0:0:0:
448,192,12392,1,0,0:0:0:0:
64,192,12392,1,4,0:0:0:0:
192,192,12496,1,0,0:0:0:0:
320,192,12600,1,4,0:0:0:0:
448,192,12600,1,0,0:0:0:0:
64,192,12704,1,8,0:0:0:0:
192,192,12704,1,0,0:0:0:0:
320,192,12912,1,0,0:0:0:0:
448,192,12912,128,2,13120:3:0:0:0:
192,192,13327,1,0,0:0:0:0:
448,192,13327,128,2,13535:3:0:0:0:
320,192,13743,1,4,0:0:0:0:
64,192,13743,1,0,0:0:0:0:
448,192,13951,1,0,0:0:0:0:
192,192,13951,1,8,0:0:0:0:
320,192,14054,1,0,0:0:0:0:
64,192,14054,1,4,0:0:0:0:
192,192,14158,1,0,0:0:0:0:
320,192,14262,1,4,0:0:0:0:
448,192,14262,1,0,0:0:0:0:
64,192,14366,1,8,0:0:0:0:
192,192,14366,1,0,0:0:0:0:
320,192,14574,1,0,0:0:0:0:
448,192,14574,1,4,0:0:0:0:
64,192,14782,1,8,0:0:0:0:
192,192,14782,1,0,0:0:0:0:
320,192,14885,1,4,0:0:0:0:
448,192,14885,1,0,0:0:0:0:
64,192,14989,1,0,0:0:0:0:
192,192,15093,1,0,0:0:0:0:
320,192,15093,1,4,0:0:0:0:
448,192,15197,1,0,0:0:0:0:
64,192,15197,1,8,0:0:0:0:
192,192,15405,1,4,0:0:0:0:
320,192,15405,1,0,0:0:0:0:
448,192,15613,1,0,0:0:0:0:
64,192,15613,1,8,0:0:0:0:
192,192,15716,1,0,0:0:0:0:
320,192,15716,1,4,0:0:0:0:
64,192,15820,1,0,0:0:0:0:
320,192,15924,1,4,0:0:0:0:
448,192,15924,1,0,0:0:0:0:
64,192,16028,1,8,0:0:0:0:
192,192,16028,1,0,0:0:0:0:
192,192,16236,1,8,2:0:0:0:
448,192,16236,1,4,0:0:0:0:
64,192,16236,1,0,0:0:0:0:
192,192,16444,1,8,2:0:0:0:
64,192,16444,1,0,0:0:0:0:
448,192,16444,1,0,0:0:0:0:
320,192,16651,1,8,2:0:0:0:
448,192,16651,1,0,0:0:0:0:
64,192,16755,1,8,2:0:0:0:
192,192,16755,1,0,0:0:0:0:
320,192,16859,1,8,2:0:0:0:
448,192,16859,1,0,0:0:0:0:
192,192,16963,1,8,2:0:0:0:
320,192,17067,1,4,0:0:0:0:
448,192,17067,1,0,0:0:0:0:
64,192,17067,1,4,2:0:0:0:
192,192,17171,1,0,0:0:0:0:
320,192,17275,1,8,0:0:0:0:
448,192,17275,1,0,0:0:0:0:
192,192,17379,1,0,0:0:0:0:
64,192,17379,1,4,0:0:0:0:
320,192,17482,1,0,0:0:0:0:
448,192,17586,1,0,0:0:0:0:
192,192,17586,1,4,0:0:0:0:
320,192,17690,1,0,0:0:0:0:
64,192,17690,1,8,0:0:0:0:
448,192,17794,1,0,0:0:0:0:
192,192,17898,1,4,2:0:0:0:
320,192,17898,1,0,0:0:0:0:
64,192,17898,1,4,0:0:0:0:
448,192,18002,1,0,0:0:0:0:
320,192,18106,1,8,0:0:0:0:
64,192,18106,1,0,0:0:0:0:
448,192,18210,1,4,0:0:0:0:
192,192,18210,1,0,0:0:0:0:
64,192,18313,1,0,0:0:0:0:
448,192,18417,1,0,0:0:0:0:
320,192,18417,1,4,0:0:0:0:
64,192,18521,1,0,0:0:0:0:
192,192,18521,1,8,0:0:0:0:
320,192,18625,1,0,0:0:0:0:
192,192,18729,1,4,2:0:0:0:
448,192,18729,1,4,0:0:0:0:
64,192,18729,1,0,0:0:0:0:
320,192,18833,1,0,0:0:0:0:
64,192,18937,1,0,0:0:0:0:
448,192,18937,1,8,0:0:0:0:
320,192,19041,1,0,0:0:0:0:
192,192,19041,1,4,0:0:0:0:
64,192,19144,1,0,0:0:0:0:
320,192,19248,1,4,0:0:0:0:
448,192,19248,1,0,0:0:0:0:
64,192,19352,1,8,0:0:0:0:
192,192,19352,1,0,0:0:0:0:
448,192,19456,1,0,0:0:0:0:
192,192,19560,1,4,2:0:0:0:
64,192,19560,1,0,0:0:0:0:
320,192,19560,1,4,0:0:0:0:
448,192,19664,1,0,0:0:0:0:
192,192,19768,1,8,0:0:0:0:
64,192,19768,1,0,0:0:0:0:
448,192,19872,1,4,0:0:0:0:
320,192,19872,1,0,0:0:0:0:
192,192,19975,1,0,0:0:0:0:
64,192,20079,1,0,0:0:0:0:
320,192,20079,1,4,0:0:0:0:
192,192,20183,1,0,0:0:0:0:
448,192,20183,1,8,0:0:0:0:
320,192,20287,1,0,0:0:0:0:
448,192,20391,1,4,2:0:0:0:
192,192,20391,1,4,0:0:0:0:
64,192,20391,1,0,0:0:0:0:
320,192,20495,1,0,0:0:0:0:
448,192,20599,1,0,0:0:0:0:
192,192,20599,1,8,0:0:0:0:
320,192,20703,1,0,0:0:0:0:
64,192,20703,1,4,0:0:0:0:
192,192,20807,1,0,0:0:0:0:
320,192,20910,1,4,0:0:0:0:
448,192,20910,1,0,0:0:0:0:
64,192,21014,1,8,0:0:0:0:
192,192,21014,1,0,0:0:0:0:
320,192,21118,1,0,0:0:0:0:
192,192,21222,1,4,2:0:0:0:
64,192,21222,1,0,0:0:0:0:
448,192,21222,1,4,0:0:0:0:
320,192,21326,1,0,0:0:0:0:
64,192,21430,1,8,0:0:0:0:
192,192,21430,1,0,0:0:0:0:
320,192,21534,1,4,0:0:0:0:
448,192,21534,1,0,0:0:0:0:
192,192,21638,1,0,0:0:0:0:
64,192,21741,1,0,0:0:0:0:
448,192,21741,1,4,0:0:0:0:
320,192,21845,1,0,0:0:0:0:
192,192,21845,1,8,0:0:0:0:
64,192,21949,1,0,0:0:0:0:
320,192,22053,1,4,2:0:0:0:
192,192,22053,1,4,0:0:0:0:
448,192,22053,1,0,0:0:0:0:
64,192,22157,1,0,0:0:0:0:
448,192,22261,1,0,0:0:0:0:
192,192,22261,1,8,0:0:0:0:
64,192,22365,1,0,0:0:0:0:
320,192,22365,1,4,0:0:0:0:
448,192,22469,1,0,0:0:0:0:
192,192,22572,1,4,0:0:0:0:
320,192,22572,1,0,0:0:0:0:
448,192,22676,1,0,0:0:0:0:
64,192,22676,1,8,0:0:0:0:
192,192,22780,1,0,0:0:0:0:
320,192,22884,1,4,2:0:0:0:
448,192,22884,1,0,0:0:0:0:
64,192,22884,1,4,0:0:0:0:
192,192,22988,1,0,0:0:0:0:
320,192,23092,1,8,0:0:0:0:
64,192,23092,1,0,0:0:0:0:
448,192,23196,1,4,0:0:0:0:
192,192,23196,1,0,0:0:0:0:
64,192,23300,1,0,0:0:0:0:
448,192,23403,1,0,0:0:0:0:
320,192,23403,1,4,0:0:0:0:
192,192,23507,1,0,0:0:0:0:
64,192,23507,1,8,0:0:0:0:
320,192,23611,1,0,0:0:0:0:
192,192,23715,1,4,0:0:0:0:
448,192,23715,1,0,0:0:0:0:
64,192,23715,1,4,2:0:0:0:
320,192,23819,1,0,0:0:0:0:
192,192,23923,1,8,0:0:0:0:
64,192,23923,1,0,0:0:0:0:
320,192,24027,1,0,0:0:0:0:
448,192,24027,1,4,0:0:0:0:
64,192,24131,1,0,0:0:0:0:
192,192,24234,1,0,0:0:0:0:
320,192,24234,1,4,0:0:0:0:
64,192,24338,1,0,0:0:0:0:
448,192,24338,1,8,0:0:0:0:
320,192,24442,1,0,0:0:0:0:
448,192,24546,1,4,2:0:0:0:
64,192,24546,1,0,0:0:0:0:
192,192,24546,1,4,0:0:0:0:
320,192,24650,1,0,0:0:0:0:
192,192,24754,1,8,0:0:0:0:
448,192,24754,1,0,0:0:0:0:
64,192,24858,1,4,0:0:0:0:
320,192,24858,1,0,0:0:0:0:
448,192,24962,1,0,0:0:0:0:
192,192,25066,1,0,0:0:0:0:
64,192,25066,1,4,0:0:0:0:
448,192,25169,1,0,0:0:0:0:
320,192,25169,1,8,0:0:0:0:
192,192,25273,1,0,0:0:0:0:
448,192,25377,1,4,2:0:0:0:
64,192,25377,1,4,0:0:0:0:
320,192,25377,1,0,0:0:0:0:
192,192,25481,1,0,0:0:0:0:
320,192,25585,1,0,0:0:0:0:
64,192,25585,1,8,0:0:0:0:
192,192,25689,1,0,0:0:0:0:
448,192,25689,1,4,0:0:0:0:
320,192,25793,1,0,0:0:0:0:
448,192,25897,1,4,0:0:0:0:
64,192,25897,1,0,0:0:0:0:
320,192,26000,1,8,0:0:0:0:
192,192,26000,1,0,0:0:0:0:
64,192,26104,1,0,0:0:0:0:
320,192,26208,1,4,2:0:0:0:
448,192,26208,1,4,0:0:0:0:
64,192,26312,1,0,0:0:0:0:
192,192,26312,1,0,0:0:0:0:
448,192,26416,1,0,0:0:0:0:
320,192,26416,1,8,0:0:0:0:
64,192,26520,1,4,0:0:0:0:
192,192,26520,1,0,0:0:0:0:
448,192,26624,1,0,0:0:0:0:
320,192,26624,1,0,0:0:0:0:
192,192,26728,1,4,0:0:0:0:
64,192,26728,1,0,0:0:0:0:
448,192,26831,1,8,0:0:0:0:
320,192,26831,1,0,0:0:0:0:
192,192,26935,1,0,0:0:0:0:
64,192,26935,1,0,0:0:0:0:
320,192,27039,1,4,0:0:0:0:
448,192,27039,1,4,2:0:0:0:
192,192,27143,1,0,0:0:0:0:
64,192,27247,1,0,0:0:0:0:
320,192,27247,1,8,0:0:0:0:
192,192,27351,1,0,0:0:0:0:
448,192,27351,1,4,0:0:0:0:
320,192,27455,1,0,0:0:0:0:
192,192,27559,1,4,0:0:0:0:
64,192,27559,1,0,0:0:0:0:
448,192,27662,1,8,0:0:0:0:
320,192,27662,1,0,0:0:0:0:
64,192,27766,1,0,0:0:0:0:
448,192,27870,1,4,2:0:0:0:
192,192,27870,1,0,0:0:0:0:
320,192,27870,1,4,0:0:0:0:
64,192,27974,1,0,0:0:0:0:
448,192,28078,1,8,0:0:0:0:
320,192,28078,1,0,0:0:0:0:
192,192,28182,1,4,0:0:0:0:
64,192,28182,1,0,0:0:0:0:
448,192,28286,1,0,0:0:0:0:
320,192,28390,1,0,0:0:0:0:
192,192,28390,1,4,0:0:0:0:
64,192,28493,1,0,0:0:0:0:
448,192,28493,1,8,0:0:0:0:
320,192,28597,1,0,0:0:0:0:
192,192,28701,1,4,2:0:0:0:
448,192,28701,1,4,0:0:0:0:
64,192,28701,1,0,0:0:0:0:
320,192,28805,1,0,0:0:0:0:
192,192,28909,1,0,0:0:0:0:
448,192,28909,1,8,0:0:0:0:
320,192,29013,1,0,0:0:0:0:
64,192,29013,1,4,0:0:0:0:
192,192,29117,1,0,0:0:0:0:
64,192,29221,1,4,0:0:0:0:
448,192,29221,1,0,0:0:0:0:
192,192,29325,1,8,0:0:0:0:
320,192,29325,1,0,0:0:0:0:
64,192,29428,1,0,0:0:0:0:
320,192,29532,1,4,0:0:0:0:
448,192,29532,1,4,2:0:0:0:
64,192,29636,1,0,0:0:0:0:
192,192,29636,1,0,0:0:0:0:
448,192,29740,1,8,0:0:0:0:
320,192,29740,1,0,0:0:0:0:
192,192,29844,1,0,0:0:0:0:
64,192,29844,1,4,0:0:0:0:
320,192,29948,1,0,0:0:0:0:
448,192,29948,1,0,0:0:0:0:
64,192,30052,1,0,0:0:0:0:
192,192,30052,1,4,0:0:0:0:
320,192,30156,1,0,0:0:0:0:
448,192,30156,1,8,0:0:0:0:
192,192,30259,1,0,0:0:0:0:
64,192,30259,1,0,0:0:0:0:
448,192,30363,1,4,0:0:0:0:
320,192,30363,1,0,0:0:0:0:
192,192,30467,1,0,0:0:0:0:
64,192,30571,1,0,0:0:0:0:
320,192,30675,1,0,0:0:0:0:
192,192,30779,1,0,0:0:0:0:
448,192,30779,1,8,0:0:0:0:
64,192,30779,1,0,0:0:0:0:
320,192,30883,1,0,0:0:0:0:
192,192,30987,1,0,0:0:0:0:
448,192,30987,1,4,0:0:0:0:
64,192,31090,1,0,0:0:0:0:
320,192,31194,1,0,0:0:0:0:
192,192,31298,1,0,0:0:0:0:
64,192,31402,1,0,0:0:0:0:
448,192,31402,1,4,0:0:0:0:
320,192,31506,1,0,0:0:0:0:
448,192,31610,1,8,0:0:0:0:
192,192,31610,1,0,0:0:0:0:
64,192,31610,1,0,0:0:0:0:
320,192,31714,1,0,0:0:0:0:
192,192,31818,1,0,0:0:0:0:
448,192,31921,1,0,0:0:0:0:
64,192,32025,1,0,0:0:0:0:
192,192,32025,1,4,0:0:0:0:
320,192,32025,1,0,0:0:0:0:
448,192,32129,1,0,0:0:0:0:
64,192,32233,1,0,0:0:0:0:
192,192,32337,1,0,0:0:0:0:
320,192,32441,1,0,0:0:0:0:
448,192,32441,1,8,0:0:0:0:
64,192,32441,1,0,0:0:0:0:
192,192,32545,1,0,0:0:0:0:
448,192,32649,1,0,0:0:0:0:
320,192,32649,1,4,0:0:0:0:
64,192,32752,1,0,0:0:0:0:
192,192,32856,1,0,0:0:0:0:
320,192,32960,1,0,0:0:0:0:
192,192,33064,1,0,0:0:0:0:
448,192,33064,1,4,0:0:0:0:
64,192,33168,1,0,0:0:0:0:
320,192,33272,1,8,0:0:0:0:
448,192,33272,1,0,0:0:0:0:
192,192,33272,1,0,0:0:0:0:
64,192,33376,1,0,0:0:0:0:
448,192,33480,1,0,0:0:0:0:
320,192,33584,1,0,0:0:0:0:
192,192,33687,1,4,0:0:0:0:
64,192,33687,1,0,0:0:0:0:
448,192,33687,1,0,0:0:0:0:
320,192,33791,1,0,0:0:0:0:
64,192,33895,1,0,0:0:0:0:
192,192,33999,1,0,0:0:0:0:
320,192,34103,1,8,0:0:0:0:
448,192,34103,1,0,0:0:0:0:
64,192,34103,1,0,0:0:0:0:
192,192,34207,1,0,0:0:0:0:
448,192,34311,1,4,0:0:0:0:
320,192,34311,1,0,0:0:0:0:
64,192,34415,1,0,0:0:0:0:
192,192,34518,1,0,0:0:0:0:
320,192,34622,1,0,0:0:0:0:
448,192,34726,1,4,0:0:0:0:
64,192,34726,1,0,0:0:0:0:
192,192,34830,1,0,0:0:0:0:
320,192,34934,1,0,0:0:0:0:
448,192,34934,1,8,0:0:0:0:
64,192,34934,1,0,0:0:0:0:
192,192,35038,1,0,0:0:0:0:
320,192,35142,1,0,0:0:0:0:
64,192,35246,1,0,0:0:0:0:
320,192,35349,1,0,0:0:0:0:
448,192,35349,1,4,0:0:0:0:
192,192,35349,1,0,0:0:0:0:
64,192,35453,1,0,0:0:0:0:
448,192,35557,1,0,0:0:0:0:
320,192,35661,1,0,0:0:0:0:
64,192,35765,1,0,0:0:0:0:
448,192,35765,1,8,0:0:0:0:
192,192,35765,1,0,0:0:0:0:
320,192,35869,1,0,0:0:0:0:
64,192,35973,1,0,0:0:0:0:
192,192,35973,1,4,0:0:0:0:
448,192,36077,1,0,0:0:0:0:
320,192,36180,1,0,0:0:0:0:
192,192,36284,1,0,0:0:0:0:
64,192,36388,1,0,0:0:0:0:
320,192,36388,1,4,0:0:0:0:
448,192,36492,1,0,0:0:0:0:
320,192,36596,1,8,0:0:0:0:
64,192,36596,1,0,0:0:0:0:
192,192,36596,1,0,0:0:0:0:
448,192,36700,1,0,0:0:0:0:
192,192,36804,1,0,0:0:0:0:
320,192,36908,1,0,0:0:0:0:
64,192,37011,128,0,40336:0:0:0:0:
448,192,37011,128,4,39712:0:0:0:0:
192,192,37011,128,0,38881:0:0:0:0:
