osu file format v14

[General]
AudioFilename: audio.mp3
AudioLeadIn: 0
PreviewTime: 3771
Countdown: 0
SampleSet: Soft
StackLeniency: 0.7
Mode: 3
LetterboxInBreaks: 0
SpecialStyle: 0
WidescreenStoryboard: 1

[Editor]
Bookmarks: 1277,3771,7095,10419,13743,17067,20391,23715,27039,30363,33687,37011,40336
DistanceSpacing: 1
BeatDivisor: 4
GridSize: 4
TimelineZoom: 1.1

[Metadata]
Title:Star Vs The Forces Of Evil Theme
TitleUnicode:Star Vs The Forces Of Evil Theme
Artist:bradbreeck
ArtistUnicode:bradbreeck
Creator:Weber
Version:NM
Source:Star vs. The Forces of Evil
Tags:disney xd brad breeck soundtrack cartoon marco versus Ayyri puxtu
BeatmapID:1172739
BeatmapSetID:553866

[Difficulty]
HPDrainRate:7
CircleSize:4
OverallDifficulty:7
ApproachRate:5
SliderMultiplier:1.4
SliderTickRate:1

[Events]
//Background and Video events
0,0,"Star-Butterfly-Wallpaper-star-vs-the-forces-of-evil-39686944-1920-1080.png",0,0
//Break Periods
//Storyboard Layer 0 (Background)
//Storyboard Layer 1 (Fail)
//Storyboard Layer 2 (Pass)
//Storyboard Layer 3 (Foreground)
//Storyboard Sound Samples

[TimingPoints]
3771,415.512465373961,4,3,0,55,1,0
17067,-100,4,2,0,80,0,1
30363,-100,4,2,0,70,0,0
37011,-100,4,3,0,25,0,0

[HitObjects]
192,192,1277,5,0,0:0:0:0:
448,192,1381,1,2,0:0:0:0:
192,192,1693,1,0,0:0:0:0:
448,192,1797,1,2,0:0:0:0:
320,192,2108,1,2,0:0:0:0:
64,192,2212,1,0,0:0:0:0:
320,192,2524,1,2,0:0:0:0:
64,192,2628,1,0,0:0:0:0:
448,192,2939,1,2,0:0:0:0:
320,192,3043,1,0,0:0:0:0:
64,192,3147,1,2,0:0:0:0:
192,192,3251,1,0,0:0:0:0:
448,192,3355,1,2,0:0:0:0:
320,192,3459,1,0,0:0:0:0:
64,192,3563,1,2,0:0:0:0:
192,192,3667,1,0,0:0:0:0:
448,192,3771,1,4,0:0:0:0:
320,192,3771,1,4,0:0:0:0:
192,192,3978,1,0,0:0:0:0:
320,192,4082,1,0,0:0:0:0:
448,192,4186,1,0,0:0:0:0:
64,192,4394,1,0,0:0:0:0:
320,192,4602,1,0,0:0:0:0:
448,192,4602,1,0,0:0:0:0:
192,192,4809,1,0,0:0:0:0:
320,192,5017,1,0,0:0:0:0:
64,192,5017,1,0,0:0:0:0:
192,192,5225,1,0,0:0:0:0:
448,192,5433,1,4,0:0:0:0:
64,192,5433,1,4,0:0:0:0:
192,192,5640,1,0,0:0:0:0:
64,192,5744,1,0,0:0:0:0:
448,192,5848,1,0,0:0:0:0:
192,192,6056,1,0,0:0:0:0:
320,192,6264,1,0,0:0:0:0:
64,192,6264,1,0,0:0:0:0:
448,192,6471,1,0,0:0:0:0:
320,192,6679,1,0,0:0:0:0:
192,192,6679,1,0,0:0:0:0:
64,192,6887,1,0,0:0:0:0:
192,192,7095,1,4,0:0:0:0:
448,192,7095,1,4,0:0:0:0:
320,192,7302,1,0,0:0:0:0:
448,192,7406,1,0,0:0:0:0:
64,192,7510,1,0,0:0:0:0:
320,192,7718,1,0,0:0:0:0:
192,192,7926,1,0,0:0:0:0:
448,192,7926,1,0,0:0:0:0:
320,192,8133,1,0,0:0:0:0:
64,192,8341,1,0,0:0:0:0:
448,192,8341,1,0,0:0:0:0:
192,192,8549,1,0,0:0:0:0:
448,192,8757,1,4,0:0:0:0:
320,192,8757,1,4,0:0:0:0:
64,192,8964,1,0,0:0:0:0:
448,192,9068,1,0,0:0:0:0:
192,192,9172,1,0,0:0:0:0:
64,192,9380,1,0,0:0:0:0:
192,192,9588,1,0,0:0:0:0:
448,192,9588,1,0,0:0:0:0:
64,192,9795,1,0,0:0:0:0:
448,192,10003,1,8,0:0:0:0:
192,192,10003,1,8,0:0:0:0:
448,192,10211,1,8,0:0:0:0:
64,192,10211,1,8,0:0:0:0:
320,192,10419,1,4,0:0:0:0:
64,192,10419,1,4,0:0:0:0:
192,192,10626,1,2,0:0:0:0:
448,192,10730,1,2,0:0:0:0:
320,192,10834,1,2,0:0:0:0:
192,192,11042,1,0,0:0:0:0:
320,192,11250,1,0,0:0:0:0:
64,192,11250,1,0,0:0:0:0:
192,192,11457,1,0,0:0:0:0:
320,192,11665,1,0,0:0:0:0:
448,192,11665,1,0,0:0:0:0:
64,192,11873,1,0,0:0:0:0:
320,192,12081,1,4,0:0:0:0:
192,192,12081,1,4,0:0:0:0:
64,192,12289,1,2,0:0:0:0:
320,192,12392,1,2,0:0:0:0:
448,192,12496,1,2,0:0:0:0:
192,192,12704,1,0,0:0:0:0:
320,192,12704,1,0,0:0:0:0:
448,192,12912,128,2,13327:0:2:0:0:
192,192,12912,128,2,13327:0:2:0:0:
320,192,13327,128,2,13743:0:2:0:0:
64,192,13327,128,2,13743:0:2:0:0:
448,192,13743,1,4,0:0:0:0:
320,192,13951,1,0,0:0:0:0:
192,192,14054,1,0,0:0:0:0:
64,192,14158,1,0,0:0:0:0:
320,192,14366,1,0,0:0:0:0:
64,192,14574,1,0,0:0:0:0:
192,192,14574,1,0,0:0:0:0:
320,192,14782,1,0,0:0:0:0:
192,192,14989,1,0,0:0:0:0:
448,192,14989,1,0,0:0:0:0:
320,192,15197,1,0,0:0:0:0:
64,192,15405,1,4,0:0:0:0:
448,192,15405,1,4,0:0:0:0:
192,192,15613,1,0,0:0:0:0:
320,192,15716,1,0,0:0:0:0:
64,192,15820,1,0,0:0:0:0:
64,192,16028,1,0,0:0:0:0:
320,192,16236,1,2,0:0:0:0:
192,192,16444,1,2,0:0:0:0:
320,192,16651,1,2,0:0:0:0:
448,192,16651,1,2,0:0:0:0:
192,192,16859,1,2,0:0:0:0:
448,192,16859,1,2,0:0:0:0:
192,192,17067,128,4,17275:0:0:0:0:
320,192,17067,1,4,0:0:0:0:
64,192,17275,128,0,17482:0:0:0:0:
320,192,17482,128,0,17690:0:0:0:0:
192,192,17690,128,0,17898:0:0:0:0:
448,192,17898,128,4,18106:0:0:0:0:
320,192,17898,1,4,0:0:0:0:
64,192,18106,128,0,18313:0:0:0:0:
192,192,18313,128,0,18521:0:0:0:0:
320,192,18521,128,0,18729:0:0:0:0:
64,192,18729,128,4,18937:0:0:0:0:
448,192,18729,1,4,0:0:0:0:
192,192,18937,128,0,19144:0:0:0:0:
320,192,19144,128,0,19352:0:0:0:0:
448,192,19352,128,0,19560:0:0:0:0:
320,192,19560,128,4,19768:0:0:0:0:
64,192,19560,1,4,0:0:0:0:
192,192,19768,128,0,19975:0:0:0:0:
64,192,19975,128,2,20183:0:0:0:0:
192,192,20183,128,2,20391:0:0:0:0:
320,192,20391,128,4,20599:0:0:0:0:
448,192,20391,1,4,0:0:0:0:
192,192,20599,128,0,20807:0:0:0:0:
320,192,20807,128,0,21014:0:0:0:0:
64,192,21014,128,0,21222:0:0:0:0:
448,192,21222,128,4,21430:0:0:0:0:
320,192,21222,1,4,0:0:0:0:
192,192,21430,128,0,21638:0:0:0:0:
320,192,21638,128,4,21845:0:0:0:0:
192,192,21845,128,0,22053:0:0:0:0:
64,192,22053,128,4,22261:0:0:0:0:
320,192,22053,1,4,0:0:0:0:
192,192,22261,128,0,22469:0:0:0:0:
320,192,22469,128,0,22676:0:0:0:0:
448,192,22676,128,0,22884:0:0:0:0:
320,192,22884,128,4,23092:0:0:0:0:
64,192,22884,1,0,0:0:0:0:
192,192,23092,128,2,23300:0:0:0:0:
64,192,23300,128,2,23507:0:0:0:0:
320,192,23507,128,2,23715:0:0:0:0:
192,192,23715,1,4,0:0:0:0:
448,192,23819,1,2,0:0:0:0:
320,192,24131,1,4,0:0:0:0:
448,192,24234,1,2,0:0:0:0:
192,192,24546,1,4,0:0:0:0:
448,192,24650,1,2,0:0:0:0:
64,192,24962,1,4,0:0:0:0:
448,192,25066,1,2,0:0:0:0:
192,192,25377,1,4,0:0:0:0:
64,192,25481,1,2,0:0:0:0:
320,192,25793,1,4,0:0:0:0:
64,192,25897,1,2,0:0:0:0:
448,192,26208,1,2,0:0:0:0:
320,192,26312,1,2,0:0:0:0:
64,192,26416,1,2,0:0:0:0:
192,192,26520,1,2,0:0:0:0:
448,192,26624,1,6,0:0:0:0:
320,192,26728,1,2,0:0:0:0:
64,192,26831,1,6,0:0:0:0:
192,192,26935,1,2,0:0:0:0:
320,192,27039,128,4,27455:0:0:0:0:
448,192,27039,1,4,0:0:0:0:
192,192,27455,128,4,27870:0:0:0:0:
64,192,27455,1,0,0:0:0:0:
320,192,27870,128,4,28286:0:0:0:0:
448,192,27870,1,0,0:0:0:0:
192,192,28286,128,4,28493:0:0:0:0:
64,192,28493,128,4,28701:0:0:0:0:
320,192,28701,128,4,29532:0:0:0:0:
448,192,28701,128,4,29532:0:0:0:0:
192,192,29532,1,2,0:0:0:0:
64,192,29636,1,2,0:0:0:0:
320,192,29740,1,2,0:0:0:0:
192,192,29844,1,2,0:0:0:0:
448,192,29948,1,2,0:0:0:0:
320,192,30052,1,2,0:0:0:0:
64,192,30156,1,2,0:0:0:0:
192,192,30259,1,2,0:0:0:0:
320,192,30363,1,6,0:0:0:0:
448,192,30363,1,6,0:0:0:0:
192,192,30571,1,2,0:0:0:0:
64,192,30675,1,2,0:0:0:0:
320,192,30779,1,4,0:0:0:0:
448,192,30779,1,4,0:0:0:0:
192,192,30987,1,8,0:0:0:0:
64,192,31194,1,0,0:0:0:0:
192,192,31402,1,2,0:0:0:0:
320,192,31610,1,4,0:0:0:0:
448,192,31610,1,4,0:0:0:0:
192,192,31818,1,8,0:0:0:0:
64,192,32025,1,4,0:0:0:0:
320,192,32025,1,4,0:0:0:0:
448,192,32233,1,2,0:0:0:0:
320,192,32337,1,0,0:0:0:0:
64,192,32441,1,4,0:0:0:0:
192,192,32441,1,4,0:0:0:0:
320,192,32649,1,8,0:0:0:0:
192,192,32856,1,0,0:0:0:0:
320,192,33064,1,2,0:0:0:0:
448,192,33272,1,4,0:0:0:0:
192,192,33272,1,4,0:0:0:0:
320,192,33480,1,8,0:0:0:0:
64,192,33687,1,4,0:0:0:0:
192,192,33687,1,4,0:0:0:0:
64,192,33895,1,2,0:0:0:0:
320,192,33999,1,0,0:0:0:0:
192,192,34103,1,4,0:0:0:0:
448,192,34103,1,4,0:0:0:0:
320,192,34311,1,8,0:0:0:0:
192,192,34518,1,0,0:0:0:0:
320,192,34726,1,2,0:0:0:0:
64,192,34934,1,4,0:0:0:0:
448,192,34934,1,4,0:0:0:0:
192,192,35142,1,8,0:0:0:0:
320,192,35349,1,4,0:0:0:0:
448,192,35349,1,4,0:0:0:0:
64,192,35557,1,2,0:0:0:0:
192,192,35661,1,0,0:0:0:0:
320,192,35765,1,4,0:0:0:0:
448,192,35765,1,4,0:0:0:0:
320,192,35973,1,8,0:0:0:0:
64,192,36180,1,0,0:0:0:0:
192,192,36388,1,2,0:0:0:0:
448,192,36596,1,4,0:0:0:0:
64,192,36596,1,4,0:0:0:0:
192,192,36804,1,8,0:0:0:0:
448,192,36804,1,8,0:0:0:0:
64,192,37011,128,4,40336:0:1:0:0:
320,192,37011,128,4,40336:0:1:0:0:
