osu file format v14

[General]
AudioFilename: Star_Vs_The_Forces_Of_Evil_Theme.mp3
AudioLeadIn: 0
PreviewTime: 3780
Countdown: 0
SampleSet: Normal
StackLeniency: 0.7
Mode: 1
LetterboxInBreaks: 0
WidescreenStoryboard: 0

[Editor]
DistanceSpacing: 1.3
BeatDivisor: 4
GridSize: 32
TimelineZoom: 1.6

[Metadata]
Title:Star Vs the Forces Of Evil Theme (TV Size)
TitleUnicode:Star Vs the Forces Of Evil Theme (TV Size)
Artist:bradbreeck
ArtistUnicode:bradbreeck
Creator:Stefan
Version:Inner Oni
Source:Star vs. the Forces of Evil
Tags:i'm from another dimension brad breeck cartoon english pop disney xd thenutritiousguy tng
BeatmapID:1892116
BeatmapSetID:906710

[Difficulty]
HPDrainRate:7
CircleSize:5
OverallDifficulty:6
ApproachRate:5
SliderMultiplier:1.4
SliderTickRate:1

[Events]
//Background and Video events
0,0,"S1e1_flaming_rainbow_disaster.png",0,-112
//Break Periods
//Storyboard Layer 0 (Background)
//Storyboard Layer 1 (Fail)
//Storyboard Layer 2 (Pass)
//Storyboard Layer 3 (Foreground)
//Storyboard Layer 4 (Overlay)
//Storyboard Sound Samples

[TimingPoints]
1287,415.512465373961,6,1,0,50,1,0
3780,415.512465373961,4,1,0,50,1,0
16141,-100,4,1,0,35,0,0
16972,-100,4,1,0,50,0,0

[HitObjects]
256,224,1287,5,0,0:0:0:0:
256,224,1390,1,8,0:0:0:0:
256,224,1702,1,0,0:0:0:0:
256,224,1806,1,8,0:0:0:0:
256,224,2118,1,8,0:0:0:0:
256,224,2221,1,0,0:0:0:0:
256,224,2533,1,8,0:0:0:0:
256,224,2637,1,0,0:0:0:0:
256,224,2949,1,8,0:0:0:0:
256,224,3052,1,0,0:0:0:0:
256,224,3156,1,8,0:0:0:0:
256,224,3260,1,0,0:0:0:0:
256,224,3364,1,8,0:0:0:0:
256,224,3468,1,0,0:0:0:0:
256,224,3572,1,8,0:0:0:0:
256,224,3676,1,0,0:0:0:0:
256,224,3780,1,0,0:0:0:0:
256,224,3987,1,8,0:0:0:0:
256,224,4091,1,0,0:0:0:0:
256,224,4195,1,8,0:0:0:0:
256,224,4403,1,0,0:0:0:0:
256,224,4611,1,8,0:0:0:0:
256,224,4818,1,0,0:0:0:0:
256,224,4922,1,0,0:0:0:0:
256,224,5026,1,8,0:0:0:0:
256,224,5234,1,0,0:0:0:0:
256,224,5442,1,8,0:0:0:0:
256,224,5649,1,8,0:0:0:0:
256,224,5753,1,0,0:0:0:0:
256,224,5857,1,8,0:0:0:0:
256,224,6065,1,0,0:0:0:0:
256,224,6273,1,8,0:0:0:0:
256,224,6480,1,0,0:0:0:0:
256,224,6688,1,8,0:0:0:0:
256,224,6792,1,8,0:0:0:0:
256,224,6896,1,0,0:0:0:0:
256,224,7104,1,0,0:0:0:0:
256,224,7311,1,8,0:0:0:0:
256,224,7415,1,0,0:0:0:0:
256,224,7519,1,0,0:0:0:0:
256,224,7727,1,0,0:0:0:0:
256,224,7935,1,8,0:0:0:0:
256,224,8039,1,0,0:0:0:0:
256,224,8142,1,0,0:0:0:0:
256,224,8246,1,0,0:0:0:0:
256,224,8350,1,8,0:0:0:0:
256,224,8558,1,0,0:0:0:0:
256,224,8766,1,8,0:0:0:0:
256,224,8973,1,8,0:0:0:0:
256,224,9077,1,0,0:0:0:0:
256,224,9181,1,8,0:0:0:0:
256,224,9389,1,0,0:0:0:0:
256,224,9597,1,8,0:0:0:0:
256,224,9701,1,0,0:0:0:0:
256,224,9804,1,0,0:0:0:0:
256,224,10012,1,8,0:0:0:0:
256,224,10116,1,0,0:0:0:0:
256,224,10220,1,8,0:0:0:0:
256,224,10428,1,0,0:0:0:0:
256,224,10635,1,0,0:0:0:0:
256,224,10739,1,0,0:0:0:0:
256,224,10843,1,8,0:0:0:0:
256,224,11051,1,0,0:0:0:0:
256,224,11259,1,8,0:0:0:0:
256,224,11466,1,0,0:0:0:0:
256,224,11570,1,0,0:0:0:0:
256,224,11674,1,8,0:0:0:0:
256,224,11882,1,0,0:0:0:0:
256,224,12090,1,8,0:0:0:0:
256,224,12298,1,8,0:0:0:0:
256,224,12401,1,8,0:0:0:0:
256,224,12505,1,0,0:0:0:0:
256,224,12713,1,8,0:0:0:0:
256,224,12921,1,4,0:0:0:0:
256,224,13336,1,12,0:0:0:0:
256,224,13752,1,0,0:0:0:0:
256,224,13960,1,8,0:0:0:0:
256,224,14063,1,0,0:0:0:0:
256,224,14167,1,8,0:0:0:0:
256,224,14375,1,0,0:0:0:0:
256,224,14583,1,8,0:0:0:0:
256,224,14687,1,0,0:0:0:0:
256,224,14791,1,0,0:0:0:0:
256,224,14894,1,0,0:0:0:0:
256,224,14998,1,8,0:0:0:0:
256,224,15206,1,0,0:0:0:0:
256,224,15414,1,8,0:0:0:0:
256,224,15622,1,0,0:0:0:0:
256,224,15725,1,8,0:0:0:0:
256,224,15829,1,0,0:0:0:0:
256,224,16037,1,0,0:0:0:0:
256,224,16245,1,8,0:0:0:0:
256,224,16349,1,0,0:0:0:0:
256,224,16453,1,8,0:0:0:0:
256,224,16660,1,0,0:0:0:0:
256,224,16764,1,0,0:0:0:0:
256,224,16868,1,8,0:0:0:0:
256,224,16972,1,8,0:0:0:0:
256,224,17076,1,0,0:0:0:0:
256,224,17284,1,0,0:0:0:0:
256,224,17388,1,0,0:0:0:0:
256,224,17491,1,8,0:0:0:0:
256,224,17595,1,0,0:0:0:0:
256,224,17699,1,8,0:0:0:0:
256,224,17803,1,0,0:0:0:0:
256,224,17907,1,8,0:0:0:0:
256,224,18011,1,8,0:0:0:0:
256,224,18115,1,0,0:0:0:0:
256,224,18219,1,0,0:0:0:0:
256,224,18322,1,8,0:0:0:0:
256,224,18530,1,8,0:0:0:0:
256,224,18738,1,0,0:0:0:0:
256,224,18946,1,0,0:0:0:0:
256,224,19050,1,8,0:0:0:0:
256,224,19153,1,8,0:0:0:0:
256,224,19257,1,0,0:0:0:0:
256,224,19361,1,8,0:0:0:0:
256,224,19465,1,8,0:0:0:0:
256,224,19569,1,8,0:0:0:0:
256,224,19673,1,0,0:0:0:0:
256,224,19777,1,0,0:0:0:0:
256,224,19881,1,0,0:0:0:0:
256,224,19984,1,8,0:0:0:0:
256,224,20088,1,0,0:0:0:0:
256,224,20192,1,8,0:0:0:0:
256,224,20400,1,0,0:0:0:0:
256,224,20608,1,0,0:0:0:0:
256,224,20712,1,0,0:0:0:0:
256,224,20816,1,8,0:0:0:0:
256,224,20919,1,0,0:0:0:0:
256,224,21023,1,8,0:0:0:0:
256,224,21127,1,0,0:0:0:0:
256,224,21231,1,8,0:0:0:0:
256,224,21335,1,8,0:0:0:0:
256,224,21439,1,0,0:0:0:0:
256,224,21543,1,8,0:0:0:0:
256,224,21647,1,0,0:0:0:0:
256,224,21854,1,8,0:0:0:0:
256,224,22062,1,0,0:0:0:0:
256,224,22270,1,0,0:0:0:0:
256,224,22374,1,8,0:0:0:0:
256,224,22478,1,8,0:0:0:0:
256,224,22581,1,0,0:0:0:0:
256,224,22685,1,0,0:0:0:0:
256,224,22789,1,0,0:0:0:0:
256,224,22893,1,8,0:0:0:0:
256,224,22997,1,0,0:0:0:0:
256,224,23101,1,8,0:0:0:0:
256,224,23309,1,8,0:0:0:0:
256,224,23516,1,0,0:0:0:0:
256,224,23724,1,8,0:0:0:0:
256,224,23932,1,0,0:0:0:0:
256,224,24036,1,0,0:0:0:0:
256,224,24140,1,8,0:0:0:0:
256,224,24243,1,0,0:0:0:0:
256,224,24347,1,8,0:0:0:0:
256,224,24555,1,8,0:0:0:0:
256,224,24763,1,8,0:0:0:0:
256,224,24867,1,0,0:0:0:0:
256,224,24971,1,8,0:0:0:0:
256,224,25075,1,8,0:0:0:0:
256,224,25178,1,0,0:0:0:0:
256,224,25386,1,8,0:0:0:0:
256,224,25594,1,0,0:0:0:0:
256,224,25698,1,0,0:0:0:0:
256,224,25802,1,8,0:0:0:0:
256,224,26009,1,0,0:0:0:0:
256,224,26217,1,8,0:0:0:0:
256,224,26321,1,0,0:0:0:0:
256,224,26425,1,8,0:0:0:0:
256,224,26529,1,0,0:0:0:0:
256,224,26633,1,8,0:0:0:0:
256,224,26840,1,8,0:0:0:0:
256,224,27048,1,12,0:0:0:0:
256,224,27256,1,0,0:0:0:0:
256,224,27360,1,0,0:0:0:0:
256,224,27464,1,12,0:0:0:0:
256,224,27671,1,0,0:0:0:0:
256,224,27775,1,0,0:0:0:0:
256,224,27879,1,12,0:0:0:0:
256,224,28087,1,0,0:0:0:0:
256,224,28191,1,0,0:0:0:0:
256,224,28295,1,8,0:0:0:0:
256,224,28502,1,8,0:0:0:0:
256,224,28710,1,8,0:0:0:0:
256,224,28918,1,0,0:0:0:0:
256,224,29022,1,0,0:0:0:0:
256,224,29126,1,8,0:0:0:0:
256,224,29334,1,0,0:0:0:0:
256,224,29437,1,0,0:0:0:0:
256,224,29541,1,8,0:0:0:0:
256,224,29645,1,0,0:0:0:0:
256,224,29749,1,8,0:0:0:0:
256,224,29853,1,0,0:0:0:0:
256,224,29957,1,8,0:0:0:0:
256,224,30165,1,0,0:0:0:0:
256,224,30372,1,8,0:0:0:0:
256,224,30476,1,8,0:0:0:0:
256,224,30580,1,0,0:0:0:0:
256,224,30684,1,8,0:0:0:0:
256,224,30788,1,8,0:0:0:0:
256,224,30892,1,0,0:0:0:0:
256,224,30996,1,8,0:0:0:0:
256,224,31099,1,0,0:0:0:0:
256,224,31203,1,8,0:0:0:0:
256,224,31307,1,0,0:0:0:0:
256,224,31411,1,8,0:0:0:0:
256,224,31515,1,0,0:0:0:0:
256,224,31619,1,8,0:0:0:0:
256,224,31723,1,8,0:0:0:0:
256,224,31827,1,0,0:0:0:0:
256,224,31930,1,0,0:0:0:0:
256,224,32034,1,8,0:0:0:0:
256,224,32138,1,0,0:0:0:0:
256,224,32242,1,8,0:0:0:0:
256,224,32346,1,8,0:0:0:0:
256,224,32450,1,8,0:0:0:0:
256,224,32554,1,0,0:0:0:0:
256,224,32658,1,8,0:0:0:0:
256,224,32761,1,0,0:0:0:0:
256,224,32865,1,8,0:0:0:0:
256,224,32969,1,0,0:0:0:0:
256,224,33073,1,8,0:0:0:0:
256,224,33177,1,0,0:0:0:0:
256,224,33281,1,8,0:0:0:0:
256,224,33385,1,8,0:0:0:0:
256,224,33489,1,8,0:0:0:0:
256,224,33593,1,0,0:0:0:0:
256,224,33696,1,8,0:0:0:0:
256,224,33800,1,0,0:0:0:0:
256,224,33904,1,8,0:0:0:0:
256,224,34008,1,0,0:0:0:0:
256,224,34112,1,8,0:0:0:0:
256,224,34216,1,8,0:0:0:0:
256,224,34320,1,0,0:0:0:0:
256,224,34424,1,0,0:0:0:0:
256,224,34527,1,8,0:0:0:0:
256,224,34631,1,0,0:0:0:0:
256,224,34735,1,8,0:0:0:0:
256,224,34839,1,0,0:0:0:0:
256,224,34943,1,8,0:0:0:0:
256,224,35047,1,8,0:0:0:0:
256,224,35151,1,8,0:0:0:0:
256,224,35255,1,0,0:0:0:0:
256,224,35358,1,8,0:0:0:0:
256,224,35462,1,0,0:0:0:0:
256,224,35566,1,8,0:0:0:0:
256,224,35670,1,0,0:0:0:0:
256,224,35774,1,8,0:0:0:0:
256,224,35878,1,0,0:0:0:0:
256,224,35982,1,8,0:0:0:0:
256,224,36086,1,8,0:0:0:0:
256,224,36189,1,8,0:0:0:0:
256,224,36293,1,0,0:0:0:0:
256,224,36397,1,8,0:0:0:0:
256,224,36501,1,0,0:0:0:0:
256,224,36605,1,12,0:0:0:0:
256,224,36813,1,4,0:0:0:0:
256,224,37020,1,12,0:0:0:0:
256,192,37436,12,0,40345,0:0:0:0:
