osu file format v14

[General]
AudioFilename: audio.mp3
AudioLeadIn: 0
PreviewTime: 16548
Countdown: 0
SampleSet: Soft
StackLeniency: 0.7
Mode: 0
LetterboxInBreaks: 0
WidescreenStoryboard: 1

[Editor]
DistanceSpacing: 1.1
BeatDivisor: 4
GridSize: 4
TimelineZoom: 2.1

[Metadata]
Title:Star Vs The Forces Of Evil Theme
TitleUnicode:Star Vs The Forces Of Evil Theme
Artist:bradbreeck
ArtistUnicode:bradbreeck
Creator:Bakari
Version:Hard
Source:Star vs. The Forces of Evil
Tags:Liuth Marmowka Disney XD brad breeck soundtrack cartoon marco versus
BeatmapID:1033429
BeatmapSetID:484456

[Difficulty]
HPDrainRate:6
CircleSize:4
OverallDifficulty:7
ApproachRate:7.5
SliderMultiplier:1.6
SliderTickRate:2

[Events]
//Background and Video events
0,0,"sstar.jpg",0,0
Video,919,"notporngoaway.avi"
//Break Periods
//Storyboard Layer 0 (Background)
//Storyboard Layer 1 (Fail)
//Storyboard Layer 2 (Pass)
//Storyboard Layer 3 (Foreground)
//Storyboard Sound Samples

[TimingPoints]
3771,415.512465373961,4,2,0,70,1,0
12912,-83.3333333333333,4,2,0,70,0,0
13327,-100,4,2,0,70,0,0
13743,-100,4,2,0,70,0,0
17067,-100,4,2,0,80,0,1
28701,-83.3333333333333,4,2,0,80,0,1
30363,-100,4,2,0,70,0,0
37219,-100,4,2,0,5,0,0

[Colours]
Combo1 : 171,82,201
Combo2 : 237,237,120
Combo3 : 180,109,109
Combo4 : 135,190,145

[HitObjects]
45,264,1277,6,0,L|53:316,1,40,2|0,0:0|0:0,0:0:0:0:
169,280,1693,2,0,L|177:348,1,40,2|0,0:0|0:0,0:0:0:0:
293,296,2108,2,0,L|301:360,1,40,2|0,0:0|0:0,0:0:0:0:
417,312,2524,2,0,L|429:380,1,40,2|0,0:0|0:0,0:0:0:0:
373,196,2939,6,0,L|381:136,3,40,2|0|0|0,0:0|0:0|0:0|0:0,0:0:0:0:
365,120,3355,2,0,L|357:60,3,40,2|0|0|0,0:0|0:0|0:0|0:0,0:0:0:0:
329,56,3771,6,0,P|281:36|233:28,1,80,4|8,1:0|1:0,0:0:0:0:
173,80,4186,1,2,0:0:0:0:
221,164,4394,1,8,1:0:0:0:
137,212,4602,2,0,P|97:200|49:196,1,80,4|8,3:0|1:0,0:0:0:0:
6,296,5017,2,0,L|86:288,1,80,2|8,0:0|1:0,0:0:0:0:
171,365,5433,6,0,L|269:368,1,80,4|8,3:0|1:0,0:0:0:0:
317,300,5848,1,2,0:0:0:0:
252,248,6056,1,8,1:0:0:0:
301,164,6264,2,0,P|345:156|401:164,1,80,4|8,3:0|1:0,0:0:0:0:
465,268,6679,2,0,L|365:284,1,80,2|8,0:0|1:0,0:0:0:0:
297,360,7095,6,0,P|241:340|200:336,1,80,4|2,3:0|0:0,0:0:0:0:
136,344,7510,1,2,0:0:0:0:
57,384,7718,1,8,1:1:0:0:
9,244,7926,2,0,P|53:244|101:252,1,80,4|8,3:0|1:0,0:0:0:0:
145,132,8341,2,0,P|105:144|61:148,1,80,2|8,0:0|1:0,0:0:0:0:
9,21,8757,5,4,3:0:0:0:
97,60,8964,1,8,1:0:0:0:
193,44,9172,2,0,P|237:32|277:32,1,80,2|8,0:0|1:0,0:0:0:0:
353,84,9588,1,4,3:0:0:0:
301,164,9795,1,8,1:0:0:0:
361,88,10003,1,2,0:0:0:0:
397,216,10211,1,8,1:0:0:0:
361,88,10419,5,4,3:0:0:0:
455,137,10626,2,0,L|462:53,2,80,8|2|8,1:0|0:0|1:0,0:0:0:0:
329,225,11250,2,0,L|349:313,1,80,4|8,3:0|1:0,0:0:0:0:
189,349,11665,2,0,L|197:265,1,80,2|8,0:0|1:0,0:0:0:0:
46,188,12081,6,0,P|26:152|18:100,1,80,4|8,0:0|1:0,0:0:0:0:
92,8,12496,1,2,0:0:0:0:
140,92,12704,1,8,1:0:0:0:
252,112,12912,6,2,P|292:96|348:92,1,95.9999970703126,2|0,1:0|0:0,3:3:0:0:
265,231,13327,2,2,P|293:188|330:161,1,80,2|0,0:1|0:0,3:0:0:0:
443,78,13743,6,0,B|431:174,1,80,4|8,1:0|1:0,0:0:0:0:
372,232,14158,1,2,0:0:0:0:
452,284,14366,1,8,1:0:0:0:
372,340,14574,2,0,P|332:348|292:376,1,80,4|8,3:0|1:0,0:0:0:0:
204,360,14989,2,0,P|164:320|152:284,1,80,2|8,0:0|1:0,0:0:0:0:
184,148,15405,5,4,3:0:0:0:
108,204,15613,1,8,1:0:0:0:
200,232,15820,2,0,L|300:216,1,80,2|8,0:0|1:0,0:0:0:0:
360,268,16236,1,4,3:0:0:0:
420,152,16444,1,4,0:3:0:0:
305,161,16651,1,0,0:0:0:0:
273,128,16755,1,0,0:0:0:0:
253,88,16859,1,2,0:0:0:0:
251,42,16963,1,0,0:0:0:0:
268,8,17067,6,0,P|241:32|107:23,1,160,4|0,1:0|0:0,0:0:0:0:
64,100,17690,1,0,0:0:0:0:
44,184,17898,2,0,P|92:229|100:332,1,160,4|0,0:1|0:0,0:0:0:0:
176,368,18521,1,0,0:0:0:0:
264,368,18729,6,0,P|290:343|424:352,1,160,4|0,0:1|0:0,0:0:0:0:
480,288,19352,1,0,0:0:0:0:
488,200,19560,2,0,P|439:154|431:51,1,160,4|0,0:1|0:0,0:0:0:0:
352,16,20183,1,8,1:0:0:0:
264,20,20391,6,0,L|292:188,1,160,4|0,1:0|0:0,0:0:0:0:
236,248,21014,1,0,0:0:0:0:
164,320,21222,2,0,L|136:152,1,160,4|0,0:1|0:0,0:0:0:0:
176,144,21741,1,0,0:0:0:0:
220,136,21845,1,0,0:0:0:0:
248,168,21949,1,0,0:0:0:0:
280,200,22053,6,0,P|328:204|280:136,1,160,4|0,0:1|0:0,0:0:0:0:
264,116,22572,1,0,0:0:0:0:
220,136,22676,1,0,0:0:0:0:
188,168,22780,1,0,0:0:0:0:
156,196,22884,2,0,P|108:200|156:136,1,160,4|2,0:1|0:1,0:0:0:0:
220,136,23507,1,8,1:0:0:0:
280,200,23715,6,0,L|276:284,1,80,6|8,1:0|1:0,0:0:0:0:
212,340,24131,2,0,P|284:308|388:308,1,160,2|2,0:1|0:1,0:0:0:0:
440,352,24754,1,8,1:0:0:0:
484,276,24962,2,0,L|492:180,1,80,2|8,0:1|1:0,0:0:0:0:
352,124,25377,6,0,L|368:208,1,80,6|0,0:1|0:0,0:0:0:0:
252,288,25793,2,0,L|260:196,1,80,2|8,0:1|1:0,0:0:0:0:
248,112,26208,2,0,P|199:78|92:95,1,160,2|2,0:1|0:1,0:0:0:0:
72,180,26831,1,8,1:0:0:0:
176,272,27039,6,0,L|168:368,1,80,6|0,0:1|0:0,0:0:0:0:
280,224,27455,2,0,L|272:324,1,80,2|8,0:1|1:0,0:0:0:0:
388,179,27870,2,0,L|380:263,1,80,2|8,0:1|1:0,0:0:0:0:
273,303,28286,1,2,0:1:0:0:
169,353,28493,1,10,1:0:0:0:
232,216,28701,6,2,B|223:187|176:164|148:128|148:72|168:32|208:-8|268:28|283:51|283:51|288:60|295:51|295:51|308:44|344:20|392:36|408:56|408:96|400:120|388:148|368:160|316:172,1,575.999982421876,6|0,1:0|0:0,0:0:0:0:
264,338,30156,1,0,0:0:0:0:
267,351,30259,1,0,0:0:0:0:
271,362,30363,6,0,P|227:338|103:342,1,160,4|0,1:0|1:0,0:0:0:0:
28,368,30987,1,4,3:0:0:0:
61,232,31194,2,0,P|51:192|53:144,1,80,0|4,0:0|0:3,0:0:0:0:
132,96,31610,2,0,P|140:140|136:188,1,80,0|0,1:0|0:0,0:0:0:0:
216,232,32025,6,0,P|272:220|324:232,1,80,4|0,0:1|0:0,0:0:0:0:
332,244,32337,1,0,0:0:0:0:
360,276,32441,1,0,1:0:0:0:
336,368,32649,1,4,3:0:0:0:
428,360,32856,2,0,L|508:348,1,80,0|4,0:0|0:3,0:0:0:0:
336,368,33272,2,0,P|280:352|232:348,1,80,0|0,1:0|0:0,0:0:0:0:
164,372,33687,5,4,0:1:0:0:
166,360,33895,1,0,0:0:0:0:
92,300,34103,2,0,L|4:312,1,80,0|4,1:0|3:0,0:0:0:0:
168,232,34518,1,0,0:0:0:0:
92,172,34726,1,4,0:3:0:0:
210,140,34934,2,0,P|218:100|222:56,1,80,0|0,1:0|0:0,0:0:0:0:
138,3,35349,5,4,0:1:0:0:
112,96,35557,1,0,0:0:0:0:
88,188,35765,2,0,L|4:180,1,80,0|4,1:0|3:0,0:0:0:0:
112,96,36180,1,0,0:0:0:0:
184,172,36388,1,4,0:3:0:0:
216,304,36596,2,0,L|164:340,1,40,2|0,1:2|0:0,0:0:0:0:
248,332,36804,2,0,L|228:380,1,40,2|0,0:0|0:0,0:0:0:0:
288,333,37011,6,0,P|342:320|450:320,1,160,4|0,1:0|0:0,0:0:0:0:
256,192,37635,12,2,40336,0:0:0:0:
