osu file format v14

[General]
AudioFilename: audio.mp3
AudioLeadIn: 0
PreviewTime: -1
Countdown: 1
SampleSet: Soft
StackLeniency: 0.7
Mode: 0
LetterboxInBreaks: 0
WidescreenStoryboard: 0

[Editor]
DistanceSpacing: 1
BeatDivisor: 4
GridSize: 4
TimelineZoom: 1

[Metadata]
Title:Muzak Bossa
TitleUnicode:Muzak Bossa
Artist:bradbreeck
ArtistUnicode:bradbreeck
Creator:Ethan
Version:Hard
Source:We Bare Bears
Tags:cn cartoon network brad breeck reel daniel chong wbb grizzly panda panpan ice bear
BeatmapID:1160078
BeatmapSetID:547728

[Difficulty]
HPDrainRate:3.3
CircleSize:4
OverallDifficulty:5.5
ApproachRate:7.7
SliderMultiplier:1.4
SliderTickRate:1

[Events]
//Background and Video events
0,0,"DRo7n9.jpg",0,0
//Break Periods
//Storyboard Layer 0 (Background)
//Storyboard Layer 1 (Fail)
//Storyboard Layer 2 (Pass)
//Storyboard Layer 3 (Foreground)
//Storyboard Sound Samples

[TimingPoints]
131.937062937063,428.58041958042,4,2,0,54,1,0

[HitObjects]
112,236,129,6,0,P|180:256|236:204,1,140,0|8,0:0|0:0,0:0:0:0:
164,176,774,1,0,0:0:0:0:
196,336,989,2,0,L|280:300,1,70
112,360,1417,1,8,0:0:0:0:
44,296,1631,2,0,P|96:264|116:192,1,140
36,208,2274,1,8,0:0:0:0:
168,268,2489,1,0,0:0:0:0:
152,116,2703,2,0,B|224:144|224:80|312:128,1,140,0|8,0:0|0:0,0:0:0:0:
256,188,3346,1,0,0:0:0:0:
184,48,3560,6,0,P|104:56|76:128,1,140,0|8,0:0|0:0,0:0:0:0:
160,232,4203,1,0,0:0:0:0:
100,296,4417,1,0,0:0:0:0:
164,348,4632,1,0,0:0:0:0:
224,284,4846,1,8,0:0:0:0:
80,224,5060,2,0,P|44:248|52:348,1,140
168,164,5703,2,0,L|240:120,1,70,8|0,0:0|0:0,0:0:0:0:
176,68,6132,2,0,L|112:108,1,70
256,196,6560,1,8,0:0:0:0:
336,192,6774,1,0,0:0:0:0:
300,264,6989,6,0,P|232:276|176:216,1,140,2|8,0:0|0:0,0:0:0:0:
392,252,7632,2,0,P|456:224|528:248,2,140,0|8|0,0:0|0:0|0:0,0:0:0:0:
268,168,8703,1,0,0:0:0:0:
164,152,8917,1,0,0:0:0:0:
224,76,9132,1,8,0:0:0:0:
268,168,9346,2,0,P|320:216|408:200,2,140,0|8|0,0:0|0:0|0:0,0:0:0:0:
344,136,10417,5,0,0:0:0:0:
408,80,10632,1,0,0:0:0:0:
424,164,10846,1,8,0:0:0:0:
332,52,11060,1,0,0:0:0:0:
476,224,11275,2,0,B|452:272|500:272|476:328|476:328|432:284,1,140,0|8,0:0|0:0,0:0:0:0:
392,252,11917,2,0,B|369:229|369:229|345:285|393:285|369:333,1,140,0|8,0:0|0:0,0:0:0:0:
272,272,12560,1,0,0:0:0:0:
196,212,12775,1,0,0:0:0:0:
232,120,12989,1,0,0:0:0:0:
312,184,13203,1,0,0:0:0:0:
196,52,13417,2,0,P|164:84|156:112,1,70,8|8,0:0|0:0,0:0:0:0:
328,72,13846,6,0,P|392:108|472:88,1,140,2|8,0:0|0:0,0:0:0:0:
412,40,14489,2,0,P|380:116|420:176,2,140,0|8|0,0:0|0:0|0:0,0:0:0:0:
288,52,15560,5,0,0:0:0:0:
224,112,15775,1,0,0:0:0:0:
208,28,15989,1,8,0:0:0:0:
304,140,16203,2,0,L|392:172,2,70
312,224,16846,2,0,L|224:192,1,70,8|0,0:0|0:0,0:0:0:0:
388,252,17275,6,0,P|360:288|264:284,1,140,0|8,0:0|0:0,0:0:0:0:
420,180,17918,1,0,0:0:0:0:
472,244,18132,1,0,0:0:0:0:
336,188,18346,1,0,0:0:0:0:
500,168,18560,1,8,0:0:0:0:
440,328,18775,1,0,0:0:0:0:
272,136,18989,6,0,P|328:108|404:144,1,140,0|8,0:0|0:0,0:0:0:0:
396,232,19632,2,0,P|333:260|274:226,1,140,0|8,0:0|0:0,0:0:0:0:
468,152,20275,1,0,0:0:0:0:
496,256,20489,1,8,0:0:0:0:
416,348,20703,6,0,L|340:332,1,70,2|0,0:0|0:0,0:0:0:0:
336,256,21132,2,0,L|420:276,1,70,8|0,0:0|0:0,0:0:0:0:
308,160,21560,1,0,0:0:0:0:
384,100,21775,1,0,0:0:0:0:
304,72,21989,1,8,0:0:0:0:
228,120,22203,1,0,0:0:0:0:
336,252,22418,6,0,P|384:276|392:356,1,140,0|8,0:0|0:0,0:0:0:0:
320,324,23060,2,0,L|456:260,1,140
404,200,23703,1,8,0:0:0:0:
424,364,23918,1,0,0:0:0:0:
312,240,24132,2,0,L|264:236,3,35,2|0|0|0,0:0|0:0|0:0|0:0,0:0:0:0:
296,164,24561,2,0,L|240:156,3,35,10|0|0|0,0:0|0:0|0:0|0:0,0:0:0:0:
272,84,24989,2,0,L|216:76,3,35,2|0|0|0,0:0|0:0|0:0|0:0,0:0:0:0:
356,100,25418,2,0,L|436:112,1,70,10|0,0:0|0:0,0:0:0:0:
472,176,25846,6,0,P|420:200|432:292,1,140,0|8,0:0|0:0,0:0:0:0:
492,248,26489,2,0,L|368:172,1,140,0|8,0:0|0:0,0:0:0:0:
292,224,27132,1,0,0:0:0:0:
224,104,27346,1,8,0:0:0:0:
152,212,27561,1,4,0:0:0:0:
256,192,27668,12,0,30132,0:0:0:0:
