osu file format v14

[General]
AudioFilename: audio.mp3
AudioLeadIn: 0
PreviewTime: 26902
Countdown: 0
SampleSet: Normal
StackLeniency: 0.5
Mode: 0
LetterboxInBreaks: 0
WidescreenStoryboard: 0

[Editor]
DistanceSpacing: 1
BeatDivisor: 4
GridSize: 16
TimelineZoom: 1

[Metadata]
Title:Froyo Song
TitleUnicode:Froyo Song
Artist:bradbreeck
ArtistUnicode:bradbreeck
Creator:Venix
Version:Normal
Source:We Bare Bears
Tags:E010 Primal cartoon network daniel chong wbb grizzly panda panpan ice bear brad breeck ReFaller
BeatmapID:1119207
BeatmapSetID:527539

[Difficulty]
HPDrainRate:4
CircleSize:3
OverallDifficulty:4
ApproachRate:5
SliderMultiplier:1.2
SliderTickRate:1

[Events]
//Background and Video events
0,0,"Soonerorlater.png",0,0
//Break Periods
2,2063,3778
2,6793,8508
2,24446,25702
//Storyboard Layer 0 (Background)
//Storyboard Layer 1 (Fail)
//Storyboard Layer 2 (Pass)
//Storyboard Layer 3 (Foreground)
//Storyboard Sound Samples

[TimingPoints]
248,461.538461538462,4,1,1,50,1,0
4978,461.538461538462,4,1,1,50,1,0
9708,461.538461538462,4,1,1,35,1,0
13400,-100,4,1,1,50,0,0
26902,461.538461538462,4,1,1,45,1,1
49055,-100,4,1,1,35,0,0

[Colours]
Combo1 : 17,254,176
Combo2 : 173,255,95
Combo3 : 255,88,100
Combo4 : 255,94,55

[HitObjects]
28,325,248,5,4,2:0:0:0:
28,325,1171,2,0,P|99:340|141:335,2,90,2|2|0,2:0|2:0|2:0,0:0:0:0:
484,59,4978,5,4,0:0:0:0:
484,59,5901,2,0,P|413:44|371:49,2,90,2|2|0,2:0|2:0|2:0,0:0:0:0:
256,192,9708,12,0,12477,0:0:0:0:
45,253,13400,6,0,P|120:240|172:255,1,120,4|0,0:0|0:0,0:0:0:0:
210,285,14092,1,0,2:0:0:0:
256,320,14323,2,0,P|314:330|372:317,1,120,2|2,0:3|0:3,0:0:0:0:
484,363,15246,6,0,P|489:304|472:247,1,120,0|0,2:0|2:0,2:0:0:0:
358,208,16169,2,0,P|299:221|241:211,1,120,2|2,0:3|0:3,0:0:0:0:
188,102,17092,6,0,P|138:82|68:103,1,120
42,151,17784,1,0,2:0:0:0:
11,202,18015,2,0,P|61:222|131:201,1,120,2|2,0:3|0:3,0:0:0:0:
188,102,18938,5,0,0:0:0:0:
244,208,19400,1,0,0:0:0:0:
347,268,19861,2,0,P|367:218|346:148,1,120,2|2,0:3|0:3,0:0:0:0:
295,49,20784,6,0,P|349:31|407:49,1,120,4|0,0:2|0:0,0:0:0:0:
443,97,21477,1,0,2:0:0:0:
477,146,21708,2,0,P|492:202|472:258,1,120,2|2,0:3|0:3,0:0:0:0:
384,343,22631,6,0,P|328:322|271:338,1,120
162,289,23554,2,0,L|71:289,2,90,2|2|0,0:3|2:3|2:0,0:0:0:0:
138,124,26902,6,0,P|194:143|252:131,1,120,4|2,0:0|0:3,0:0:0:0:
296,90,27594,1,0,2:0:0:0:
338,47,27825,2,2,P|396:34|452:54,1,120
389,156,28748,6,0,P|376:199|382:239,1,60,0|2,0:0|2:0,0:0:0:0:
417,257,29209,2,0,P|415:286|404:314,1,60,2|2,0:3|2:0,0:0:0:0:
344,311,29671,2,0,P|288:291|230:304,1,120,0|2,0:0|0:3,0:0:0:0:
129,369,30594,6,0,P|71:382|15:362,1,120,0|2,0:0|0:3,0:0:0:0:
31,304,31286,1,0,2:0:0:0:
55,249,31517,2,2,P|112:235|168:255,1,120
232,153,32440,6,0,P|287:173|345:159,1,120,0|2,0:0|0:3,0:0:0:0:
397,129,33132,1,2,2:0:0:0:
449,100,33363,2,0,P|510:97|530:105,2,60,0|2|2,0:0|2:0|0:3,0:0:0:0:
345,158,34286,6,2,L|381:294,2,120,6|0|0,0:0|0:0|0:0,0:0:0:0:
292,50,35671,1,2,0:3:0:0:
206,134,36132,6,0,L|65:122,1,120,0|2,0:0|0:3,0:0:0:0:
69,242,37055,2,0,L|128:248,2,60,0|2|2,0:0|2:0|0:3,0:0:0:0:
55,361,37978,6,2,L|174:371,2,120,6|0|0,0:0|0:0|0:0,0:0:0:0:
142,278,39363,1,2,0:3:0:0:
228,194,39825,6,0,P|285:179|343:193,1,120,0|2,0:0|0:3,0:0:0:0:
383,237,40517,1,0,2:0:0:0:
412,291,40748,2,0,P|473:288|493:296,2,60,0|2|2,0:0|2:0|0:3,0:0:0:0:
304,343,41671,6,2,P|246:357|188:343,2,120,6|0|0,0:0|0:0|0:0,0:0:0:0:
245,238,43055,1,2,0:3:0:0:
187,132,43517,6,0,P|244:117|302:131,2,120,0|2|0,0:0|0:3|0:0,0:0:0:0:
136,163,44671,1,2,2:0:0:0:
76,166,44902,2,0,L|23:200,1,60,2|2,0:3|2:0,0:0:0:0:
32,258,45363,6,0,P|71:284|163:274,1,120,4|2,0:0|0:3,0:0:0:0:
251,235,46286,2,0,P|310:231|361:261,1,120,0|2,0:0|0:3,0:0:0:0:
441,350,47209,5,0,0:0:0:0:
441,229,47671,1,2,0:3:0:0:
441,109,48132,2,0,L|441:17,2,90,2|2|2,0:3|2:3|2:0,0:0:0:0:
397,150,49055,5,4,0:2:0:0:
