osu file format v14

[General]
AudioFilename: audio.mp3
AudioLeadIn: 0
PreviewTime: 12730
Countdown: 0
SampleSet: Soft
StackLeniency: 0.7
Mode: 0
LetterboxInBreaks: 0
WidescreenStoryboard: 0

[Editor]
Bookmarks: 262,5717,12730,25198,31951
DistanceSpacing: 3.2
BeatDivisor: 3
GridSize: 16
TimelineZoom: 1

[Metadata]
Title:Emotional Uplifting Orchestral
TitleUnicode:Emotional Uplifting Orchestral
Artist:bradbreeck
ArtistUnicode:bradbreeck
Creator:Venix
Version:Heaven
Source:We Bare Bears
Tags:cartoon network daniel chong wbb grizzly panda panpan ice bear brad breeck E004 Chloe ReFaller HappyRocket88
BeatmapID:1182090
BeatmapSetID:557532

[Difficulty]
HPDrainRate:5
CircleSize:4
OverallDifficulty:7
ApproachRate:8
SliderMultiplier:1.8
SliderTickRate:1

[Events]
//Background and Video events
0,0,"ezeeeeeeeeeeeeeeeeeeeeeeeeeeeeeeeeeeeek.jpg",0,0
//Break Periods
//Storyboard Layer 0 (Background)
//Storyboard Layer 1 (Fail)
//Storyboard Layer 2 (Pass)
//Storyboard Layer 3 (Foreground)
//Storyboard Sound Samples

[TimingPoints]
281,779.220779220779,4,2,2,20,1,0
3397,-100,4,2,2,25,0,0
6514,-100,4,2,2,30,0,0
9631,-100,4,2,2,35,0,0
12748,-100,4,2,2,40,0,0
15865,-100,4,2,2,45,0,0
18982,-100,4,2,2,50,0,0
22099,-100,4,2,2,55,0,0
25216,-100,4,2,2,60,0,0
28332,-100,4,2,1,35,0,0
29112,-100,4,2,1,30,0,0
29891,-100,4,2,1,25,0,0
30670,-100,4,2,1,15,0,0
31449,-100,4,2,1,5,0,0

[Colours]
Combo1 : 17,254,176
Combo2 : 173,255,95
Combo3 : 255,88,100
Combo4 : 255,94,55

[HitObjects]
219,271,280,6,0,P|193:254|177:230,2,60
293,111,1060,2,0,P|319:127|336:152,2,60,2|0|0,0:0|0:0|0:0,0:0:0:0:
294,271,1839,6,0,P|319:253|335:228,2,60,2|0|0,0:0|0:0|0:0,0:0:0:0:
218,111,2618,2,0,P|193:128|178:154,2,60,2|0|0,0:0|0:0|0:0,0:0:0:0:
221,274,3397,5,2,0:0:0:0:
137,360,3657,1,0,0:0:0:0:
89,249,3917,1,0,0:0:0:0:
218,111,4177,5,2,0:0:0:0:
302,197,4437,1,0,0:0:0:0:
350,86,4697,1,0,0:0:0:0:
311,269,4956,6,0,L|381:269,2,60,2|0|0,0:0|0:0|0:0,0:0:0:0:
202,115,5735,2,0,L|142:115,2,60,2|0|0,0:0|0:0|0:0,0:0:0:0:
83,262,6514,5,2,0:0:0:0:
204,230,6774,1,0,0:0:0:0:
172,352,7034,1,0,0:0:0:0:
327,245,7293,5,2,0:0:0:0:
403,146,7553,1,0,0:0:0:0:
278,127,7813,1,0,0:0:0:0:
439,224,8073,6,0,P|444:253|436:282,2,60,2|0|0,0:0|0:0|0:0,0:0:0:0:
265,300,8852,2,0,P|259:329|266:358,2,60,2|0|0,0:0|0:0|0:0,0:0:0:0:
142,156,9631,6,0,L|83:160,2,60,2|0|0,0:0|0:0|0:0,0:0:0:0:
303,58,10410,2,0,L|362:62,2,60,2|0|0,0:0|0:0|0:0,0:0:0:0:
225,231,11190,5,2,0:0:0:0:
338,194,11449,1,0,0:0:0:0:
253,108,11709,1,0,0:0:0:0:
130,252,11969,5,2,0:0:0:0:
49,356,12229,1,0,0:0:0:0:
3,232,12488,1,0,0:0:0:0:
168,328,12748,6,0,P|241:337|298:326,1,120,2|0,0:0|0:0,0:0:0:0:
388,171,13527,2,0,P|328:163|269:172,1,120,2|0,0:0|0:0,0:0:0:0:
97,95,14306,6,0,L|91:35,2,60,2|0|0,0:0|0:0|0:0,0:0:0:0:
173,268,15086,2,0,L|167:328,2,60,2|0|0,0:0|0:0|0:0,0:0:0:0:
253,96,15865,5,2,0:0:0:0:
331,195,16125,1,0,0:0:0:0:
377,78,16384,1,0,0:0:0:0:
253,222,16644,5,2,0:0:0:0:
375,272,16904,1,0,0:0:0:0:
272,356,17164,1,0,0:0:0:0:
322,173,17423,6,0,P|355:162|385:163,2,60,2|0|0,0:0|0:0|0:0,0:0:0:0:
147,246,18203,2,0,P|113:256|84:256,2,60,2|0|0,0:0|0:0|0:0,0:0:0:0:
195,66,18982,6,0,L|207:186,1,120,2|0,0:0|0:0,0:0:0:0:
375,272,19761,2,0,L|387:152,1,120,2|0,0:0|0:0,0:0:0:0:
258,291,20540,6,0,P|224:302|195:303,2,60,2|0|0,0:0|0:0|0:0,0:0:0:0:
106,178,21319,2,0,P|76:180|48:190,2,60,2|0|0,0:0|0:0|0:0,0:0:0:0:
253,58,22099,5,2,0:0:0:0:
324,161,22358,1,0,0:0:0:0:
382,49,22618,1,0,0:0:0:0:
238,173,22878,5,2,0:0:0:0:
135,244,23137,1,0,0:0:0:0:
247,302,23397,1,0,0:0:0:0:
164,132,23657,6,0,L|164:66,2,60,2|0|0,0:0|0:0|0:0,0:0:0:0:
58,289,24436,2,0,L|58:349,2,60,2|0|0,0:0|0:0|0:0,0:0:0:0:
247,302,25216,6,0,B|306:302|306:302|404:265,1,120,2|0,0:0|0:0,0:0:0:0:
363,91,25995,2,0,B|305:69|305:69|246:69,1,120,2|0,0:0|0:0,0:0:0:0:
391,192,26774,6,0,L|452:192,2,60,2|0|0,0:0|0:0|0:0,0:0:0:0:
202,192,27553,2,0,L|141:192,2,60,2|0|0,0:0|0:0|0:0,0:0:0:0:
384,308,28332,6,0,B|320:324|256:292|256:292|176:324|96:292|96:292|256:68|256:68|368:228,1,720,2|0,0:0|0:0,0:0:0:0:
256,192,31969,12,0,34047,0:0:0:0:
