osu file format v14

[General]
AudioFilename: audio.mp3
AudioLeadIn: 0
PreviewTime: 14320
Countdown: 0
SampleSet: Soft
StackLeniency: 0.7
Mode: 0
LetterboxInBreaks: 0
WidescreenStoryboard: 0

[Editor]
DistanceSpacing: 1.2
BeatDivisor: 4
GridSize: 4
TimelineZoom: 1

[Metadata]
Title:Emotional Sincere Touching Banjo Celeste
TitleUnicode:Emotional Sincere Touching Banjo Celeste
Artist:bradbreeck
ArtistUnicode:bradbreeck
Creator:100bit
Version:Bears
Source:We Bare Bears
Tags:cartoon network daniel chong wbb grizzly panda panpan ice bear Brad Breeck food truck episode 9 season 1 e009 ending ed
BeatmapID:1021037
BeatmapSetID:477980

[Difficulty]
HPDrainRate:5
CircleSize:3.8
OverallDifficulty:5
ApproachRate:7
SliderMultiplier:1.6
SliderTickRate:1

[Events]
//Background and Video events
Video,0,"wbb.avi"
0,0,"screen.jpg",0,0
//Break Periods
//Storyboard Layer 0 (Background)
//Storyboard Layer 1 (Fail)
//Storyboard Layer 2 (Pass)
//Storyboard Layer 3 (Foreground)
//Storyboard Sound Samples

[TimingPoints]
179,597.014925373134,4,2,1,20,1,0
4950,602.409638554217,4,2,1,30,1,0
9750,613.496932515337,4,2,1,35,1,0
12142,614.752092574733,4,2,1,35,1,0
13347,578.592092574735,4,2,1,40,1,0
14514,606.060606060606,4,2,1,55,1,0
19358,600,4,2,1,55,1,0
28958,-100,4,2,1,45,0,0
31358,-100,4,2,1,30,0,0
32558,634.920634920635,4,2,1,30,1,0
33192,-100,4,2,1,20,0,0
33830,1153.84615384615,4,2,1,10,1,0
34983,-100,4,2,1,7,0,0

[Colours]
Combo1 : 120,170,224
Combo2 : 57,137,27
Combo3 : 207,237,35

[HitObjects]
144,340,179,6,0,L|92:268,1,80,2|0,0:0|0:0,0:0:0:0:
40,200,776,2,0,L|86:135,1,80,8|0,0:0|0:0,0:0:0:0:
136,51,1373,2,0,P|172:71|216:71,1,80,2|0,0:0|0:0,0:0:0:0:
304,60,1970,2,0,P|343:61|378:81,1,80,8|0,0:0|0:0,0:0:0:0:
456,172,2567,5,2,0:0:0:0:
372,212,2865,1,0,0:0:0:0:
372,212,3014,1,0,0:0:0:0:
372,212,3164,2,0,L|372:152,2,40,8|0|0,0:0|0:0|0:0,0:0:0:0:
288,264,3761,1,2,0:0:0:0:
236,344,4059,1,0,0:0:0:0:
184,264,4358,1,8,0:0:0:0:
140,32,4950,6,0,L|180:8,2,40,2|0|0,0:0|0:0|0:0,0:0:0:0:
56,80,5552,2,0,P|28:136|28:172,1,80,8|0,0:0|0:0,0:0:0:0:
124,148,6154,2,0,P|251:166|296:148,1,160,2|8,0:0|0:0,0:0:0:0:
364,112,7058,1,0,0:0:0:0:
484,124,7359,6,0,L|462:201,1,80,2|0,0:0|0:0,0:0:0:0:
364,204,7962,2,0,L|385:281,1,80,8|0,0:0|0:0,0:0:0:0:
300,328,8564,1,2,0:0:0:0:
252,244,8865,1,0,0:0:0:0:
204,328,9166,1,8,0:0:0:0:
420,248,9750,6,0,L|380:292,2,40,2|0|0,0:0|0:0|0:0,0:0:0:0:
480,172,10363,2,0,P|456:144|392:128,1,80,8|0,0:0|0:0,0:0:0:0:
320,128,10976,2,0,L|344:204,2,80,2|0|8,0:0|0:0|0:0,0:0:0:0:
128,32,12142,6,0,L|50:49,1,80,2|0,0:0|0:0,0:0:0:0:
114,121,12756,2,0,L|192:137,1,80,8|0,0:0|0:0,0:0:0:0:
278,177,13347,2,0,P|242:217|194:233,2,80,2|0|8,0:0|0:0|0:0,0:0:0:0:
472,44,14514,5,2,0:0:0:0:
452,144,14817,1,0,0:0:0:0:
452,144,14968,1,0,0:0:0:0:
452,144,15120,2,0,P|430:176|397:198,1,80,8|0,0:0|0:0,0:0:0:0:
320,256,15726,2,0,P|284:228|276:164,1,80,2|0,0:0|0:0,0:0:0:0:
260,100,16332,1,8,0:0:0:0:
24,140,16938,6,0,L|48:228,1,80,2|0,0:0|0:0,0:0:0:0:
96,220,17392,1,0,0:0:0:0:
96,220,17544,2,0,L|117:142,1,80,8|0,0:0|0:0,0:0:0:0:
212,148,18150,2,0,P|256:136|312:176,1,80,2|0,0:0|0:0,0:0:0:0:
316,240,18756,2,0,P|353:250|391:238,1,80,8|0,0:0|0:0,0:0:0:0:
448,132,19358,6,0,L|448:76,3,40,2|0|0|0,0:0|0:0|0:0|0:0,0:0:0:0:
400,84,19958,2,0,L|400:36,2,40,8|0|0,0:0|0:0|0:0,0:0:0:0:
312,52,20558,1,2,0:0:0:0:
312,52,20858,1,0,0:0:0:0:
260,136,21158,2,0,L|182:114,1,80,8|0,0:0|0:0,0:0:0:0:
64,136,21758,5,2,0:0:0:0:
108,232,22058,1,0,0:0:0:0:
108,232,22208,1,0,0:0:0:0:
108,232,22358,2,0,P|148:236|208:232,1,80,8|0,0:0|0:0,0:0:0:0:
148,148,22958,2,0,L|69:133,1,80,2|0,0:0|0:0,0:0:0:0:
120,52,23558,2,0,L|208:36,1,80,8|0,0:0|0:0,0:0:0:0:
316,8,24158,5,2,0:0:0:0:
372,96,24458,1,0,0:0:0:0:
372,96,24608,1,0,0:0:0:0:
372,96,24758,2,0,B|404:124|404:124|432:172,1,80,8|0,0:0|0:0,0:0:0:0:
420,252,25358,2,0,B|401:284|401:284|369:312,1,80,2|0,0:0|0:0,0:0:0:0:
276,328,25958,1,8,0:0:0:0:
40,296,26558,5,2,0:0:0:0:
68,212,26858,1,0,0:0:0:0:
68,212,27008,1,0,0:0:0:0:
68,212,27158,2,0,L|96:112,1,80,8|0,0:0|0:0,0:0:0:0:
184,136,27758,1,2,0:0:0:0:
244,60,28058,1,0,0:0:0:0:
304,136,28358,1,8,0:0:0:0:
244,212,28658,1,0,0:0:0:0:
148,288,28958,5,2,0:0:0:0:
108,212,29258,1,0,0:0:0:0:
108,212,29408,1,0,0:0:0:0:
108,212,29558,2,0,L|80:128,1,80,8|0,0:0|0:0,0:0:0:0:
180,132,30158,2,0,L|204:44,1,80,2|0,0:0|0:0,0:0:0:0:
284,8,30758,1,8,0:0:0:0:
440,188,31358,5,2,0:0:0:0:
364,244,31658,1,0,0:0:0:0:
364,244,31808,1,0,0:0:0:0:
364,244,31958,2,0,L|292:284,1,80,2|0,0:0|0:0,0:0:0:0:
204,304,32558,6,0,B|184:228|184:228|205:149,1,160,8|8,0:0|0:0,0:0:0:0:
397,153,33830,6,0,P|417:233|389:321,1,160
