osu file format v14

[General]
AudioFilename: audio.mp3
AudioLeadIn: 0
PreviewTime: 37298
Countdown: 0
SampleSet: Soft
StackLeniency: 0.4
Mode: 0
LetterboxInBreaks: 0
WidescreenStoryboard: 1

[Editor]
Bookmarks: 1498,16498,31498,38998,53998,68998
DistanceSpacing: 1.6
BeatDivisor: 4
GridSize: 16
TimelineZoom: 2.3

[Metadata]
Title:wtf
TitleUnicode:wtf
Artist:boy pablo
ArtistUnicode:boy pablo
Creator:delusional
Version:hero's insane
Source:
Tags:777tv indie pop english Soy alternative Nicolas Muñoz koda unappreciative harepascals haruto_aizawa haruto s_o_u_r sour some hero canderos
BeatmapID:2532639
BeatmapSetID:1217224

[Difficulty]
HPDrainRate:5
CircleSize:4.3
OverallDifficulty:7.5
ApproachRate:8.6
SliderMultiplier:1.4
SliderTickRate:1

[Events]
//Background and Video events
0,0,"higher res aes wtf.jpg",0,0
//Break Periods
//Storyboard Layer 0 (Background)
//Storyboard Layer 1 (Fail)
//Storyboard Layer 2 (Pass)
//Storyboard Layer 3 (Foreground)
//Storyboard Layer 4 (Overlay)
//Storyboard Sound Samples

[TimingPoints]
-6002,468.75,4,2,1,60,1,0
1498,-76.9230769230769,4,2,1,65,0,0
16498,-100,4,2,1,50,0,0
31498,-133.333333333333,4,2,1,40,0,0
37943,-133.333333333333,4,2,1,60,0,0
38529,-100,4,2,1,60,0,0
38998,-76.9230769230769,4,2,2,70,0,1
53998,-76.9230769230769,4,2,1,60,0,0
68998,-133.333333333333,4,2,1,50,0,0
69115,-133.333333333333,4,2,2,15,0,0

[Colours]
Combo1 : 236,79,70
Combo2 : 132,191,251
Combo3 : 234,126,123
Combo4 : 67,158,250

[HitObjects]
467,384,443,5,8,0:2:0:0:
462,361,560,1,8,0:2:0:0:
441,271,794,1,8,0:2:0:0:
441,271,1029,2,0,L|428:216,1,35,8|8,0:2|0:2,0:0:0:0:
321,330,1263,2,0,L|335:276,1,35,8|8,0:2|0:2,0:0:0:0:
130,377,1498,6,0,P|124:325|115:277,1,90.9999958343508,6|2,1:2|0:2,0:0:0:0:
41,202,1966,2,0,P|35:253|26:302,1,90.9999958343508,8|2,0:2|0:3,0:0:0:0:
138,209,2318,1,2,0:3:0:0:
138,209,2435,2,0,P|120:148|92:119,2,90.9999958343508,0|0|8,1:0|0:0|0:2,0:0:0:0:
252,297,3138,6,0,B|230:259|230:259|233:192,1,90.9999958343508,0|2,0:0|1:2,0:0:0:0:
301,140,3607,2,0,B|327:175|327:175|326:243,1,90.9999958343508,2|8,0:2|0:2,0:0:0:0:
388,297,4076,2,0,B|418:263|418:263|421:194,2,90.9999958343508,0|0|0,0:0|1:0|0:0,0:0:0:0:
300,378,4779,1,8,0:2:0:0:
300,378,5013,1,0,0:0:0:0:
401,376,5248,6,0,P|445:378|506:387,1,90.9999958343508,2|2,1:2|0:2,0:0:0:0:
458,289,5716,2,0,P|423:252|388:205,1,90.9999958343508,8|2,0:2|0:3,0:0:0:0:
326,137,6068,1,2,0:3:0:0:
326,137,6185,2,0,P|313:182|294:224,2,90.9999958343508,0|0|8,1:0|0:0|0:2,0:0:0:0:
208,51,6888,6,0,B|232:89|232:89|221:134,1,90.9999958343508,0|2,0:0|1:2,0:0:0:0:
141,198,7357,2,0,B|117:160|117:160|128:115,1,90.9999958343508,2|8,0:2|0:2,0:0:0:0:
96,25,7826,2,0,B|56:43|56:43|36:93,2,90.9999958343508,0|2|0,0:0|1:2|1:0,0:0:0:0:
208,51,8529,1,10,0:2:0:0:
284,74,8646,1,8,0:2:0:0:
358,101,8763,1,10,0:2:0:0:
363,291,8998,6,0,P|338:238|284:214,1,90.9999958343508,6|2,1:2|0:2,0:0:0:0:
358,101,9466,2,0,P|383:154|437:178,1,90.9999958343508,8|2,0:2|0:3,0:0:0:0:
449,87,9818,1,2,0:3:0:0:
449,87,9935,2,0,P|456:42|442:0,2,90.9999958343508,0|0|8,1:0|0:0|0:2,0:0:0:0:
493,193,10638,6,0,B|455:171|455:171|389:171,1,90.9999958343508,0|2,0:0|1:2,0:0:0:0:
329,242,11107,2,0,B|303:206|303:206|300:140,1,90.9999958343508,2|8,0:2|0:2,0:0:0:0:
425,270,11576,2,0,B|450:306|450:306|449:354,2,90.9999958343508,2|0|2,0:2|1:0|0:2,0:0:0:0:
407,171,12279,1,8,0:2:0:0:
407,171,12513,1,0,0:0:0:0:
352,67,12748,6,0,P|304:67|226:57,1,90.9999958343508,2|2,1:2|0:2,0:0:0:0:
210,155,13216,2,0,P|257:154|336:165,1,90.9999958343508,8|2,0:2|0:3,0:0:0:0:
248,260,13568,1,2,0:3:0:0:
248,260,13685,2,0,P|204:268|171:304,2,90.9999958343508,0|0|8,1:0|0:0|0:2,0:0:0:0:
114,380,14388,6,0,B|81:347|81:347|80:274,1,90.9999958343508,0|2,0:0|1:2,0:0:0:0:
39,177,14857,1,2,0:2:0:0:
185,142,15091,1,8,0:0:0:0:
87,45,15326,1,0,1:0:0:0:
87,45,15560,2,0,B|137:66|192:61|211:-7,1,136.499993751526,10|0,0:2|1:0,0:0:0:0:
236,0,16029,1,10,0:2:0:0:
342,17,16263,1,0,3:0:0:0:
371,138,16498,6,0,P|338:122|304:112,2,70,2|0|8,1:2|0:0|0:2,0:0:0:0:
189,185,17201,1,2,0:2:0:0:
247,241,17435,1,2,0:2:0:0:
345,231,17669,1,2,0:2:0:0:
369,138,17904,2,0,P|382:105|403:78,1,70,10|0,0:2|0:0,0:0:0:0:
345,231,18373,6,0,P|337:300|326:369,1,140,2|8,1:2|0:2,0:0:0:0:
219,312,19076,1,2,0:2:0:0:
217,206,19310,1,2,0:2:0:0:
170,131,19544,1,2,0:2:0:0:
95,199,19779,2,0,P|77:169|70:134,1,70,10|0,0:2|0:0,0:0:0:0:
272,57,20248,6,0,B|223:50|174:83|168:132,1,140,2|10,1:2|0:2,0:0:0:0:
91,53,20951,1,2,0:2:0:0:
11,0,21185,1,2,0:2:0:0:
11,0,21419,1,2,1:2:0:0:
7,150,21654,1,10,0:2:0:0:
99,327,21888,2,0,P|80:292|48:254,1,70,2|0,1:2|1:0,0:0:0:0:
271,147,22357,2,0,B|197:152|182:179|149:271|193:280|212:331|176:388,1,280,2|0,0:2|0:0,0:0:0:0:
288,341,23529,2,0,P|309:318|372:293,1,70,8|0,0:2|0:0,0:0:0:0:
473,178,23998,6,0,P|452:201|389:226,2,70,0|0|8,1:0|0:0|0:2,0:0:0:0:
334,206,24701,1,2,0:2:0:0:
279,144,24935,1,2,0:2:0:0:
256,44,25169,1,2,0:2:0:0:
171,132,25404,2,0,P|167:92|139:52,1,70,10|0,0:2|0:0,0:0:0:0:
51,258,25873,6,0,B|72:200|83:122,1,140,2|10,1:2|0:2,0:0:0:0:
155,246,26576,1,2,0:2:0:0:
235,314,26810,1,2,0:2:0:0:
264,384,27044,1,2,0:2:0:0:
364,377,27279,2,0,P|340:346|331:311,1,70,10|0,0:2|0:0,0:0:0:0:
449,179,27748,6,0,B|427:236|416:314,1,140,2|10,1:2|0:2,0:0:0:0:
346,228,28451,1,2,0:2:0:0:
317,112,28685,1,2,0:2:0:0:
317,112,28919,1,2,0:2:0:0:
283,0,29154,1,10,0:2:0:0:
159,182,29388,2,0,P|201:168|212:134,1,70,2|0,1:2|1:0,0:0:0:0:
0,0,29857,2,0,B|74:5|88:32|122:124|78:133|59:184|95:241,1,280,2|0,0:2|1:2,0:0:0:0:
178,285,30912,1,0,1:0:0:0:
178,285,31029,2,0,P|163:321|155:363,1,70,8|0,0:2|1:0,0:0:0:0:
258,346,31498,6,0,L|342:188,1,157.500006008148,6|0,1:2|0:0,0:0:0:0:
261,21,32435,2,0,B|222:91|283:148|328:107,1,157.500006008148,2|0,0:2|0:0,0:0:0:0:
500,44,33373,2,0,P|462:138|385:346,1,315.000012016297,2|0,0:2|0:0,0:0:0:0:
48,79,35248,2,0,L|145:41,1,105.000004005432,2|0,0:2|0:0,0:0:0:0:
120,168,36185,2,0,B|99:171|99:171|187:130,1,105.000004005432,2|0,0:2|0:0,0:0:0:0:
311,33,37123,2,0,P|298:108|284:210,1,157.500006008148,2|0,0:2|0:0,0:0:0:0:
279,269,37943,5,8,0:2:0:0:
283,294,38060,1,8,0:2:0:0:
304,384,38294,1,8,0:2:0:0:
157,303,38529,2,0,P|138:293|107:276,1,35,8|8,0:2|0:2,0:0:0:0:
0,131,38763,2,0,P|19:141|50:158,1,35,8|8,0:2|0:2,0:0:0:0:
391,0,38998,6,0,P|346:16|311:90,1,90.9999958343508,4|0,1:2|0:2,0:0:0:0:
511,105,39466,2,0,P|506:57|482:20,1,90.9999958343508,8|2,0:2|0:3,0:0:0:0:
410,88,39818,1,2,0:3:0:0:
410,88,39935,2,0,L|381:184,2,90.9999958343508,0|2|10,1:0|0:2|0:2,0:0:0:0:
317,325,40638,1,0,0:0:0:0:
317,325,40873,6,0,P|303:277|259:241,1,90.9999958343508,2|0,1:2|0:0,0:0:0:0:
103,259,41341,2,0,P|141:227|198:223,1,90.9999958343508,10|0,0:2|0:0,0:0:0:0:
193,327,41810,2,0,B|118:379|118:379|18:341,1,181.999991668702,2|10,1:2|0:2,0:0:0:0:
16,119,42513,1,2,3:2:0:0:
48,147,42630,1,0,3:0:0:0:
71,167,42748,6,0,P|97:129|119:88,1,90.9999958343508,0|0,1:0|0:0,0:0:0:0:
241,0,43216,2,0,P|262:40|288:77,1,90.9999958343508,8|2,0:2|0:3,0:0:0:0:
359,152,43568,1,2,0:3:0:0:
359,152,43685,2,0,L|344:272,2,90.9999958343508,0|0|10,1:0|0:0|0:2,0:0:0:0:
477,23,44388,1,0,0:0:0:0:
477,23,44623,6,0,P|484:98|500:215,1,181.999991668702,2|10,1:2|0:2,0:0:0:0:
431,383,45326,2,0,P|424:308|414:256,2,90.9999958343508,0|2|0,0:0|1:2|3:0,0:0:0:0:
359,152,46029,1,10,0:2:0:0:
340,75,46146,1,0,3:0:0:0:
324,0,46263,1,0,3:0:0:0:
72,242,46498,6,0,B|113:208|101:159|101:159|87:99|149:61,1,181.999991668702,6|8,1:2|0:2,0:0:0:0:
181,372,47318,1,2,0:3:0:0:
181,372,47435,2,0,P|186:323|196:266,2,90.9999958343508,0|2|10,1:0|0:2|0:2,0:0:0:0:
130,83,48138,1,0,0:0:0:0:
130,83,48373,6,0,P|155:40|207:16,1,90.9999958343508,2|0,1:2|0:0,0:0:0:0:
308,124,48841,2,0,P|287:170|237:197,1,90.9999958343508,10|0,0:2|0:0,0:0:0:0:
101,273,49310,2,0,P|146:275|191:281,2,90.9999958343508,2|0|10,1:2|0:0|0:2,0:0:0:0:
312,128,50013,1,2,0:2:0:0:
312,128,50248,6,0,P|321:167|360:207,1,90.9999958343508,0|0,1:0|0:0,0:0:0:0:
512,124,50716,2,0,P|503:85|464:45,1,90.9999958343508,8|2,0:2|0:3,0:0:0:0:
388,0,51068,1,2,0:3:0:0:
388,0,51185,2,0,P|349:24|307:38,2,90.9999958343508,0|0|10,1:0|0:0|0:2,0:0:0:0:
152,8,51888,1,0,0:0:0:0:
152,8,52123,6,0,P|184:93|220:177,1,181.999991668702,2|10,1:2|0:2,0:0:0:0:
303,342,52826,1,0,0:0:0:0:
303,342,53060,2,0,P|346:303|320:263,1,90.9999958343508,10|8,0:2|0:2,0:0:0:0:
220,177,53529,1,10,0:2:0:0:
143,176,53646,1,8,0:2:0:0:
66,176,53763,1,8,0:2:0:0:
423,174,53998,6,0,B|384:194|316:154|358:33,1,181.999991668702,6|8,1:2|0:2,0:0:0:0:
227,21,54701,1,2,0:3:0:0:
227,21,54818,1,2,0:3:0:0:
227,21,54935,2,0,P|247:57|248:113,2,90.9999958343508,0|0|8,1:0|0:0|0:2,0:0:0:0:
152,89,55638,6,0,B|114:67|114:67|47:70,1,90.9999958343508,0|2,0:0|1:2,0:0:0:0:
0,189,56107,2,0,B|35:163|35:163|102:160,1,90.9999958343508,2|8,0:2|0:2,0:0:0:0:
158,283,56576,2,0,B|122:257|122:257|54:259,2,90.9999958343508,0|0|0,0:0|1:0|0:0,0:0:0:0:
228,361,57279,1,8,0:2:0:0:
392,183,57513,1,8,0:2:0:0:
386,208,57630,1,8,0:2:0:0:
379,233,57748,6,0,L|356:106,1,90.9999958343508,2|2,1:2|0:2,0:0:0:0:
253,11,58216,2,0,L|230:138,1,90.9999958343508,8|2,0:2|0:3,0:0:0:0:
119,131,58568,1,2,0:3:0:0:
119,131,58685,2,0,P|112:86|87:44,2,90.9999958343508,0|0|8,1:0|0:0|0:2,0:0:0:0:
26,119,59388,6,0,P|27:169|-2:205,1,90.9999958343508,0|2,0:0|1:2,0:0:0:0:
188,185,59857,2,0,P|145:216|104:220,1,90.9999958343508,2|8,0:2|0:2,0:0:0:0:
252,352,60326,2,0,P|199:343|168:318,2,90.9999958343508,0|2|8,0:0|1:2|0:2,0:0:0:0:
500,294,61029,1,10,0:2:0:0:
426,261,61146,1,8,0:2:0:0:
355,228,61263,1,2,3:2:0:0:
491,22,61498,6,0,P|443:46|389:70,1,90.9999958343508,6|2,1:2|0:2,0:0:0:0:
236,121,61966,2,0,P|188:97|134:73,1,90.9999958343508,8|2,0:2|0:3,0:0:0:0:
188,188,62318,1,2,0:3:0:0:
188,188,62435,2,0,P|225:202|296:184,2,90.9999958343508,0|0|8,1:0|0:0|0:2,0:0:0:0:
44,115,63138,6,0,B|66:153|66:153|66:219,1,90.9999958343508,0|2,0:0|1:2,0:0:0:0:
155,82,63607,2,0,B|129:46|129:46|126:-20,1,90.9999958343508,2|8,0:2|0:2,0:0:0:0:
187,187,64076,2,0,B|188:235|188:235|163:271,2,90.9999958343508,2|0|2,0:2|1:0|0:2,0:0:0:0:
82,346,64779,1,10,0:2:0:0:
262,341,65013,1,2,0:3:0:0:
237,347,65130,1,2,0:3:0:0:
212,352,65248,6,0,L|338:362,1,90.9999958343508,2|2,1:2|0:2,0:0:0:0:
502,277,65716,2,0,L|376:287,1,90.9999958343508,8|2,0:2|0:3,0:0:0:0:
324,202,66068,1,2,0:3:0:0:
324,202,66185,2,0,P|368:194|401:158,2,90.9999958343508,0|0|8,1:0|0:0|0:2,0:0:0:0:
324,119,66888,6,0,B|311:77|311:77|361:38,1,90.9999958343508,0|2,0:0|1:2,0:0:0:0:
438,0,67357,1,10,0:2:0:0:
197,67,67591,1,8,0:2:0:0:
273,57,67708,1,8,0:2:0:0:
348,48,67826,1,8,0:2:0:0:
110,163,68060,1,2,1:2:0:0:
78,61,68294,1,8,0:2:0:0:
96,251,68529,2,0,P|112:193|97:126,1,90.9999958343508,2|2,0:0|0:0,0:0:0:0:
215,179,68998,6,0,B|270:199|316:153|316:153|331:151|331:151|369:122|411:133,1,210.000008010865,2|0,0:2|0:0,0:0:0:0:
