osu file format v14

[General]
AudioFilename: audio.mp3
AudioLeadIn: 0
PreviewTime: 37298
Countdown: 0
SampleSet: Soft
StackLeniency: 0.7
Mode: 0
LetterboxInBreaks: 0
WidescreenStoryboard: 1

[Editor]
Bookmarks: 25873,38998,53998,68998
DistanceSpacing: 1.6
BeatDivisor: 4
GridSize: 16
TimelineZoom: 2.3

[Metadata]
Title:wtf
TitleUnicode:wtf
Artist:boy pablo
ArtistUnicode:boy pablo
Creator:delusional
Version:haruto & s o u r's insane
Source:
Tags:777tv indie pop english Soy alternative Nicolas Muñoz koda unappreciative harepascals haruto_aizawa haruto s_o_u_r sour some hero canderos
BeatmapID:2532638
BeatmapSetID:1217224

[Difficulty]
HPDrainRate:5
CircleSize:4.3
OverallDifficulty:7
ApproachRate:8
SliderMultiplier:1.6
SliderTickRate:1

[Events]
//Background and Video events
0,0,"higher res aes wtf.jpg",0,0
//Break Periods
//Storyboard Layer 0 (Background)
//Storyboard Layer 1 (Fail)
//Storyboard Layer 2 (Pass)
//Storyboard Layer 3 (Foreground)
//Storyboard Layer 4 (Overlay)
//Storyboard Sound Samples

[TimingPoints]
-6002,468.75,4,2,1,60,1,0
443,-100,4,2,1,60,0,0
16498,-133.333333333333,4,2,1,50,0,0
31498,-153.846153846153,4,2,1,40,0,0
33373,-312.5,4,2,1,40,0,0
34779,-312.5,4,2,1,20,0,0
35248,-153.846153846154,4,2,1,40,0,0
37943,-100,4,2,1,60,0,0
38998,-100,4,2,2,70,0,1
53998,-100,4,2,1,60,0,0
68998,-133.333333333333,4,2,1,60,0,0
69115,-133.333333333333,4,2,2,15,0,0

[Colours]
Combo1 : 236,79,70
Combo2 : 132,191,251
Combo3 : 234,126,123
Combo4 : 67,158,250

[HitObjects]
187,253,443,5,8,0:2:0:0:
190,240,560,2,0,P|197:200|205:161,1,80,8|8,0:2|0:2,0:0:0:0:
165,21,1029,2,0,P|161:40|157:60,3,40,8|8|8|8,0:2|0:2|0:2|0:2,0:0:0:0:
154,81,1498,6,0,P|196:33|286:40,1,160,6|8,1:2|0:2,0:0:0:0:
116,167,2201,1,2,0:3:0:0:
116,167,2318,1,2,0:3:0:0:
116,167,2435,2,0,P|72:158|42:128,1,80,0|0,1:0|0:0,0:0:0:0:
206,162,2904,2,0,P|220:204|209:245,1,80,8|0,0:2|0:0,0:0:0:0:
107,351,3373,6,0,P|99:311|91:272,1,80,2|2,1:2|0:2,0:0:0:0:
285,39,3841,2,0,P|292:78|300:117,1,80,8|2,0:2|0:3,0:0:0:0:
308,135,4193,1,2,0:3:0:0:
308,135,4310,1,0,1:0:0:0:
154,81,4544,1,0,0:0:0:0:
379,17,4779,1,8,0:2:0:0:
155,95,5013,1,0,0:0:0:0:
323,213,5248,6,0,P|315:173|307:134,1,80,2|2,1:2|0:2,0:0:0:0:
379,17,5716,2,0,P|392:87|407:158,1,120,8|0,0:2|0:0,0:0:0:0:
406,148,6185,2,0,P|445:139|484:132,1,80,0|0,1:0|0:0,0:0:0:0:
285,39,6654,2,0,P|245:47|206:54,1,80,8|0,0:2|0:0,0:0:0:0:
344,306,7123,5,2,1:2:0:0:
344,306,7357,2,0,P|425:289|507:273,1,160,2|0,0:2|0:0,0:0:0:0:
323,213,8060,2,0,P|283:221|244:228,1,80,2|0,1:2|1:0,0:0:0:0:
172,333,8529,2,0,P|140:326|109:320,3,40,10|8|10|8,0:2|0:2|0:2|0:2,0:0:0:0:
171,348,8998,6,0,B|111:336|111:336|88:307|88:307|27:294,1,160,6|8,1:2|0:2,0:0:0:0:
168,160,9701,1,2,0:3:0:0:
168,160,9818,1,2,0:3:0:0:
168,160,9935,2,0,P|159:199|152:238,1,80,0|0,1:0|0:0,0:0:0:0:
328,384,10404,2,0,P|336:344|343:305,1,80,8|0,0:2|0:0,0:0:0:0:
295,97,10873,5,2,1:2:0:0:
295,97,11107,2,0,P|269:140|166:159,1,160,2|2,0:2|0:2,0:0:0:0:
39,7,11810,1,0,1:0:0:0:
202,69,12044,1,2,0:2:0:0:
32,25,12279,1,8,0:2:0:0:
152,238,12513,5,2,0:3:0:0:
152,238,12630,1,2,0:3:0:0:
152,238,12748,2,0,P|159:198|167:159,1,80,2|2,1:2|0:2,0:0:0:0:
310,18,13216,2,0,P|302:57|294:96,1,80,8|2,0:2|0:3,0:0:0:0:
409,171,13568,1,2,0:3:0:0:
406,157,13685,2,0,P|397:117|390:78,1,80,0|0,1:0|0:0,0:0:0:0:
426,259,14154,1,8,0:2:0:0:
311,134,14388,1,0,0:0:0:0:
337,230,14623,6,0,P|297:238|258:245,1,80,2|2,1:2|0:2,0:0:0:0:
411,360,15091,2,0,P|450:351|489:344,1,80,8|0,0:2|1:0,0:0:0:0:
194,169,15560,2,0,P|154:177|115:184,1,80,10|2,0:2|0:3,0:0:0:0:
97,189,15912,1,2,1:3:0:0:
80,193,16029,1,10,0:2:0:0:
162,263,16263,1,0,3:0:0:0:
2,73,16498,6,0,P|63:85|125:97,1,120.000004577637,2|8,1:2|0:2,0:0:0:0:
194,44,17201,1,2,0:2:0:0:
194,44,17435,2,0,P|223:49|252:56,1,60.0000022888184,2|2,0:2|0:2,0:0:0:0:
306,129,17904,2,0,P|335:123|364:116,1,60.0000022888184,10|0,0:2|0:0,0:0:0:0:
479,22,18373,6,0,P|503:57|505:141,1,120.000004577637,2|8,1:2|0:2,0:0:0:0:
430,185,19076,1,2,0:2:0:0:
306,129,19310,2,0,P|344:120|382:113,1,60.0000022888184,2|2,0:2|0:2,0:0:0:0:
504,267,19779,2,0,P|465:275|427:282,1,60.0000022888184,10|0,0:2|0:0,0:0:0:0:
326,359,20248,6,0,P|325:299|354:248,1,120.000004577637,2|10,1:2|0:2,0:0:0:0:
266,214,20951,1,2,0:2:0:0:
266,214,21185,2,0,P|227:222|189:229,1,60.0000022888184,2|2,0:2|1:2,0:0:0:0:
445,278,21654,1,10,0:2:0:0:
512,216,21888,1,2,3:2:0:0:
453,69,22123,6,0,P|440:130|428:192,1,120.000004577637,0|8,1:0|0:2,0:0:0:0:
219,286,22826,1,0,0:0:0:0:
219,286,23060,2,0,P|210:244|202:203,1,60.0000022888184,0|2,0:0|0:3,0:0:0:0:
206,206,23412,1,2,0:3:0:0:
206,206,23529,1,8,0:2:0:0:
242,377,23763,1,0,0:0:0:0:
31,379,23998,6,0,P|92:366|154:354,1,120.000004577637,0|8,1:0|0:2,0:0:0:0:
299,231,24701,1,2,0:2:0:0:
299,231,24935,2,0,P|304:190|292:165,1,60.0000022888184,2|2,0:2|0:2,0:0:0:0:
167,111,25404,2,0,P|208:102|249:94,1,60.0000022888184,10|0,0:2|0:0,0:0:0:0:
374,16,25873,6,0,P|403:67|402:126,1,120.000004577637,2|10,1:2|0:2,0:0:0:0:
330,227,26576,1,2,0:2:0:0:
330,227,26810,2,0,P|336:256|342:285,1,60.0000022888184,2|2,0:2|0:2,0:0:0:0:
196,336,27279,2,0,P|202:306|208:277,1,60.0000022888184,10|0,0:2|0:0,0:0:0:0:
239,127,27748,6,0,B|308:115|284:153|356:142,1,120.000004577637,2|10,1:2|0:2,0:0:0:0:
175,31,28451,1,2,0:2:0:0:
250,185,28685,2,0,P|243:155|238:126,1,60.0000022888184,2|2,0:2|0:2,0:0:0:0:
145,174,29154,1,10,0:2:0:0:
304,302,29388,1,2,1:2:0:0:
304,302,29505,1,0,1:0:0:0:
304,302,29623,2,0,P|310:272|316:243,1,60.0000022888184,0|2,1:0|0:2,0:0:0:0:
273,32,30091,6,0,P|331:26|374:66,1,120.000004577637,8|0,0:2|0:2,0:0:0:0:
428,216,30794,1,0,1:2:0:0:
428,216,30912,1,0,1:0:0:0:
428,216,31029,1,8,0:2:0:0:
374,65,31263,1,0,1:0:0:0:
320,287,31498,6,0,B|227:301|258:252|169:267,1,155.999992858887,6|0,1:2|0:0,0:0:0:0:
52,166,32435,2,0,P|100:107|176:105,1,155.999992858887,2|0,0:2|0:0,0:0:0:0:
292,200,33373,6,0,P|308:123|323:46,1,153.6,2|0,0:2|0:0,0:0:0:0:
322,49,35248,6,0,B|410:33|379:82|472:68,1,155.999992858887,2|0,0:2|0:0,0:0:0:0:
247,0,36185,2,0,P|195:55|202:131,1,155.999992858887,2|0,0:2|0:0,0:0:0:0:
346,214,37123,6,0,P|330:137|315:61,1,155.999992858887,2|0,0:2|0:0,0:0:0:0:
315,61,37943,1,8,0:2:0:0:
315,61,38060,1,8,0:2:0:0:
244,224,38294,1,8,0:2:0:0:
479,186,38529,5,8,0:2:0:0:
473,213,38646,1,8,0:2:0:0:
467,240,38763,1,8,0:2:0:0:
461,268,38880,1,8,0:2:0:0:
456,295,38998,6,0,P|404:295|346:204,1,160,4|8,1:2|0:2,0:0:0:0:
278,322,39701,1,2,0:3:0:0:
278,322,39818,1,2,0:3:0:0:
278,322,39935,2,0,P|230:312|183:303,1,80,0|2,1:0|0:2,0:0:0:0:
244,108,40404,2,0,P|283:115|322:123,1,80,10|0,0:2|0:0,0:0:0:0:
154,187,40873,6,0,B|58:172|90:223|-1:207,1,160,2|10,1:2|0:2,0:0:0:0:
0,207,41576,1,0,0:0:0:0:
162,10,41810,2,0,P|154:49|146:88,1,80,2|0,1:2|0:0,0:0:0:0:
244,108,42279,2,0,P|251:68|259:29,1,80,10|2,0:2|3:2,0:0:0:0:
376,49,42630,5,0,3:0:0:0:
386,58,42748,2,0,P|415:89|423:178,1,120,0|0,1:0|0:0,0:0:0:0:
423,176,43216,2,0,P|462:183|501:191,1,80,8|0,0:2|0:0,0:0:0:0:
329,221,43685,2,0,P|289:213|250:205,1,80,0|0,1:0|0:0,0:0:0:0:
394,354,44154,2,0,P|402:315|409:275,1,80,10|0,0:2|0:0,0:0:0:0:
277,117,44623,6,0,B|181:102|213:153|121:137,1,160,2|10,1:2|0:2,0:0:0:0:
61,34,45326,1,0,0:0:0:0:
61,34,45560,2,0,P|100:41|139:49,1,80,2|0,1:2|3:0,0:0:0:0:
306,217,46029,1,10,0:2:0:0:
278,211,46146,1,0,3:0:0:0:
251,206,46263,1,0,3:0:0:0:
45,321,46498,6,0,P|123:305|201:290,1,160,6|8,1:2|0:2,0:0:0:0:
355,101,47201,2,0,P|316:109|276:117,1,80,0|0,0:0|1:0,0:0:0:0:
379,314,47669,1,2,0:2:0:0:
379,314,47904,2,0,P|386:274|394:235,1,80,10|0,0:2|0:0,0:0:0:0:
204,10,48373,6,0,P|191:68|180:127,1,120,2|0,1:2|0:0,0:0:0:0:
177,140,48841,2,0,P|136:141|85:41,1,160,10|2,0:2|1:2,0:0:0:0:
313,161,49544,1,0,0:0:0:0:
313,161,49779,2,0,P|286:193|239:206,1,80,10|2,0:2|0:2,0:0:0:0:
203,10,50248,6,0,P|282:25|360:40,1,160,0|8,1:0|0:2,0:0:0:0:
470,126,50951,1,2,0:3:0:0:
470,126,51068,1,2,0:3:0:0:
470,126,51185,2,0,P|430:133|391:141,1,80,0|0,1:0|0:0,0:0:0:0:
250,205,51654,2,0,P|289:212|328:220,1,80,10|0,0:2|0:0,0:0:0:0:
457,300,52123,6,0,B|368:281|393:336|301:320,1,160,2|10,1:2|0:2,0:0:0:0:
162,191,52826,1,2,0:3:0:0:
162,191,52943,1,2,0:3:0:0:
162,191,53060,2,0,P|169:151|177:112,1,80,10|8,0:2|0:2,0:0:0:0:
360,41,53529,2,0,P|367:76|374:111,3,40,10|8|8|8,0:2|0:2|0:2|0:2,0:0:0:0:
372,31,53998,6,0,B|384:91|384:91|413:114|413:114|426:175,1,160,6|8,1:2|0:2,0:0:0:0:
302,320,54701,1,2,0:3:0:0:
302,320,54818,1,2,0:3:0:0:
302,320,54935,2,0,P|295:281|287:242,1,80,0|0,1:0|0:0,0:0:0:0:
238,67,55404,2,0,P|201:81|175:111,1,80,8|0,0:2|0:0,0:0:0:0:
379,107,55873,6,0,P|385:67|371:30,1,80,2|2,1:2|0:2,0:0:0:0:
286,241,56341,2,0,P|316:265|355:272,1,80,8|0,0:2|0:0,0:0:0:0:
467,68,56810,1,0,1:0:0:0:
354,182,57044,1,0,0:0:0:0:
238,67,57279,1,8,0:2:0:0:
121,228,57513,5,8,0:2:0:0:
121,228,57630,1,8,0:2:0:0:
121,228,57748,2,0,P|160:236|199:243,1,80,2|2,1:2|0:2,0:0:0:0:
80,33,58216,1,8,0:2:0:0:
238,67,58451,1,2,0:3:0:0:
238,67,58568,1,2,0:3:0:0:
238,67,58686,2,0,P|230:106|223:145,1,80,0|0,1:0|0:0,0:0:0:0:
105,306,59154,2,0,P|113:267|120:228,1,80,8|0,0:2|0:0,0:0:0:0:
295,274,59623,1,2,1:2:0:0:
222,145,59857,6,0,B|312:129|283:186|377:168,1,160,2|0,0:2|0:0,0:0:0:0:
347,18,60560,1,2,1:2:0:0:
295,274,60794,1,8,0:2:0:0:
234,157,61029,2,0,P|199:164|164:171,3,40,10|8|2|0,0:2|0:2|3:2|3:0,0:0:0:0:
222,145,61498,6,0,B|162:157|162:157|139:186|139:186|78:199,1,160,6|8,1:2|0:2,0:0:0:0:
58,57,62201,1,2,0:3:0:0:
58,57,62318,1,2,0:3:0:0:
58,57,62435,2,0,P|97:64|136:72,1,80,0|0,1:0|0:0,0:0:0:0:
289,226,62904,2,0,P|249:234|210:241,1,80,8|0,0:2|0:0,0:0:0:0:
307,141,63373,6,0,P|344:155|370:185,1,80,2|2,1:2|0:2,0:0:0:0:
123,224,63841,2,0,P|137:187|166:162,1,80,8|2,0:2|0:2,0:0:0:0:
449,183,64310,6,0,P|465:219|462:258,1,80,0|2,1:0|0:2,0:0:0:0:
176,78,64779,2,0,P|212:61|250:64,1,80,10|0,0:2|0:0,0:0:0:0:
322,315,65248,6,0,B|231:331|258:279|168:295,1,160,2|8,1:2|0:2,0:0:0:0:
383,162,65951,1,2,0:3:0:0:
383,162,66068,1,2,0:3:0:0:
383,162,66185,2,0,P|376:201|368:240,1,80,0|0,1:0|0:0,0:0:0:0:
283,111,66654,2,0,P|297:74|327:48,1,80,8|0,0:2|0:0,0:0:0:0:
231,208,67123,6,0,P|191:214|154:201,1,80,2|10,1:2|0:2,0:0:0:0:
94,42,67592,1,8,0:2:0:0:
89,65,67709,1,8,0:2:0:0:
85,89,67826,1,8,0:2:0:0:
34,293,68060,6,0,P|73:285|112:278,1,80,2|8,1:2|0:2,0:0:0:0:
215,129,68529,2,0,P|223:168|230:207,1,80,2|2,0:0|0:0,0:0:0:0:
256,313,68998,6,0,B|391:288|353:371|487:343,1,240.000009155274,2|0,0:2|0:0,0:0:0:0:
