osu file format v14

[General]
AudioFilename: audio.mp3
AudioLeadIn: 0
PreviewTime: 323
Countdown: 0
SampleSet: Soft
StackLeniency: 0.5
Mode: 0
LetterboxInBreaks: 0
WidescreenStoryboard: 1

[Editor]
Bookmarks: 22477,32784,41697,62311,82912
DistanceSpacing: 1.4
BeatDivisor: 8
GridSize: 16
TimelineZoom: 1

[Metadata]
Title:Duvet (TV Size)
TitleUnicode:Duvet (TV Size)
Artist:boa
ArtistUnicode:bôa
Creator:reiSevia
Version:suou's hard
Source:serial experiments lain
Tags:シリアルエクスペリメンツレイン op opening rock english anime alternative shirahane suou shirahane_suou roda totsuki roda_totsuki
BeatmapID:2991643
BeatmapSetID:1455295

[Difficulty]
HPDrainRate:4
CircleSize:5
OverallDifficulty:6
ApproachRate:7
SliderMultiplier:2.4
SliderTickRate:1

[Events]
//Background and Video events
0,0,"agony.jpg",0,0
Video,-450,"lain is god.mp4"
//Break Periods
//Storyboard Layer 0 (Background)
//Storyboard Layer 1 (Fail)
//Storyboard Layer 2 (Pass)
//Storyboard Layer 3 (Foreground)
//Storyboard Layer 4 (Overlay)
//Storyboard Sound Samples

[TimingPoints]
323,621.761658031088,4,2,1,35,1,0
1910,637.619553666313,4,2,1,45,1,0
1910,-111.111111111111,4,2,1,45,0,0
4456,648.648648648649,4,2,1,45,1,0
4456,-111.111111111111,4,2,1,45,0,0
7042,645.50833781603,4,2,1,45,1,0
7042,-111.111111111111,4,2,1,45,0,0
9618,645.161290322581,4,2,1,45,1,0
9618,-111.111111111111,4,2,1,45,0,0
12188,642.054574638844,4,2,1,45,1,0
12188,-111.111111111111,4,2,1,45,0,0
17352,643.776824034335,4,2,1,45,1,0
17352,-111.111111111111,4,2,1,45,0,0
19927,639.318060735216,4,2,1,45,1,0
19927,-111.111111111111,4,2,1,45,0,0
22500,643.949557284679,4,2,1,45,1,0
22500,-111.111111111111,4,2,1,45,0,0
25719,634.920634920635,4,2,1,45,1,0
25719,-111.111111111111,4,2,1,45,0,0
27642,650.406504065041,4,2,1,45,1,0
27642,-111.111111111111,4,2,1,45,0,0
30243,644.19153961778,4,2,1,45,1,0
30243,-111.111111111111,4,2,1,45,0,0
31205,-111.111111111111,4,2,1,50,0,0
32170,644.19153961778,4,2,1,50,1,0
32170,-111.111111111111,4,2,1,50,0,0
32797,644.19153961778,4,2,1,55,1,0
32797,-111.111111111111,4,2,1,55,0,0
40207,-111.111111111111,4,2,1,40,0,0
41096,618.556701030928,4,2,1,40,1,0
41712,652.173913043478,4,2,1,50,1,0
42382,640.34151547492,4,2,1,50,1,0
44959,647.249190938511,4,2,1,50,1,0
46900,642.914545941602,4,2,1,50,1,0
48185,640,4,2,1,50,1,0
49465,641.368252271513,4,2,1,50,1,0
52042,642.398286937902,4,2,1,50,1,0
54611,648.648648648649,4,2,1,50,1,0
57205,641.711229946524,4,2,1,50,1,0
59771,638.297872340426,4,2,1,50,1,0
62350,644.19153961778,4,2,1,55,1,0
62350,-111.111111111111,4,2,1,55,0,0
76522,632.244467860906,4,2,1,55,1,0
76522,-111.111111111111,4,2,1,55,0,0
77786,644.19153961778,4,2,1,55,1,0
77786,-111.111111111111,4,2,1,55,0,0
80040,-133.333333333333,4,2,1,55,0,0
80684,-133.333333333333,4,2,1,45,0,0
81329,-133.333333333333,4,2,1,35,0,0
81973,-133.333333333333,4,2,1,25,0,0
82926,638.297872340426,4,2,1,25,1,0
85498,639.318060735216,4,2,1,25,1,0
88055,643.776824034335,4,2,1,25,1,0
93205,647.249190938511,4,2,1,25,1,0

[Colours]
Combo1 : 180,162,154
Combo2 : 209,201,171
Combo3 : 109,98,92
Combo4 : 173,169,145

[HitObjects]
127,96,1910,6,0,B|168:73|217:107|190:104|232:143|277:119,1,161.999995056153,6|2,3:2|3:2,0:0:0:0:
338,74,2547,2,0,L|399:87,1,53.9999983520508,8|0,0:0|0:0,0:0:0:0:
442,147,2866,1,2,0:0:0:0:
442,147,3025,2,0,L|429:208,1,53.9999983520508,0|0,3:2|0:0,0:0:0:0:
393,265,3344,2,0,P|356:247|280:276,1,107.999996704102,0|0,3:2|3:2,0:0:0:0:
232,307,3822,1,8,0:0:0:0:
154,176,4141,1,0,0:0:0:0:
32,305,4456,6,0,B|73:326|73:326|45:205,1,161.999995056153,0|0,3:2|3:2,0:0:0:0:
5,149,5104,2,0,P|32:123|20:53,1,107.999996704102,8|2,0:0|0:0,0:0:0:0:
79,5,5591,2,0,L|137:18,1,53.9999983520508,0|2,3:2|0:0,0:0:0:0:
186,68,5915,2,0,L|244:55,1,53.9999983520508,0|2,3:2|0:0,0:0:0:0:
315,39,6239,1,0,3:2:0:0:
315,39,6401,2,0,P|342:65|330:135,1,107.999996704102,10|2,0:0|0:0,0:0:0:0:
197,244,7042,6,0,B|178:336|178:336|204:368|249:351,1,161.999995056153,2|2,3:2|3:2,0:0:0:0:
294,302,7687,2,0,L|350:314,1,53.9999983520508,8|0,0:0|0:0,0:0:0:0:
398,375,8010,1,2,0:0:0:0:
398,375,8171,2,0,L|454:363,1,53.9999983520508,0|0,3:2|0:0,0:0:0:0:
498,305,8494,2,0,P|468:275|481:204,1,107.999996704102,2|0,3:2|3:2,0:0:0:0:
505,144,8978,2,0,L|504:86,2,53.9999983520508,8|0|2,0:0|0:0|0:0,0:0:0:0:
353,138,9618,6,0,B|308:109|271:138|271:138|265:181|214:201,1,161.999995056153,0|0,3:2|3:2,0:0:0:0:
152,198,10263,2,0,P|115:167|128:105,1,107.999996704102,8|2,0:0|0:0,0:0:0:0:
164,49,10747,2,0,L|223:37,1,53.9999983520508,0|2,3:2|0:0,0:0:0:0:
284,4,11069,2,0,L|343:16,1,53.9999983520508,0|2,3:2|0:0,0:0:0:0:
402,61,11392,1,0,3:2:0:0:
402,61,11553,2,0,P|382:96|409:166,1,107.999996704102,10|2,0:0|0:0,0:0:0:0:
512,306,12188,6,0,B|471:283|422:317|449:314|407:353|362:329,1,161.999995056153,2|2,3:2|3:2,0:0:0:0:
299,286,12830,2,0,L|241:302,1,53.9999983520508,8|0,0:0|0:0,0:0:0:0:
187,346,13151,1,2,0:0:0:0:
187,346,13311,2,0,L|129:330,1,53.9999983520508,0|0,3:2|0:0,0:0:0:0:
78,281,13632,2,0,L|103:171,1,107.999996704102,0|0,3:2|3:2,0:0:0:0:
59,113,14114,1,8,0:0:0:0:
168,8,14435,1,2,0:0:0:0:
312,147,14756,6,0,B|271:170|222:136|249:139|207:100|162:124,1,161.999995056153,0|0,3:2|3:2,0:0:0:0:
102,176,15398,2,0,L|125:281,1,107.999996704102,8|2,0:0|0:0,0:0:0:0:
187,324,15879,2,0,L|245:306,1,53.9999983520508,0|2,3:2|0:0,0:0:0:0:
308,280,16200,2,0,P|319:244|311:215,1,53.9999983520508,0|2,3:2|0:0,0:0:0:0:
251,199,16521,1,0,3:2:0:0:
251,199,16682,2,0,P|227:172|242:105,1,107.999996704102,10|2,0:0|3:2,0:0:0:0:
369,27,17352,6,0,B|461:8|461:8|493:34|476:79,1,161.999995056153,2|2,3:2|3:2,0:0:0:0:
432,128,17995,2,0,L|444:200,1,53.9999983520508,8|0,0:0|0:0,0:0:0:0:
487,253,18317,1,2,0:0:0:0:
487,253,18478,2,0,P|460:268|428:264,1,53.9999983520508,0|0,3:2|0:0,0:0:0:0:
364,247,18800,2,0,L|257:264,1,107.999996704102,2|0,3:2|3:2,0:0:0:0:
196,309,19283,2,0,L|124:297,2,53.9999983520508,8|0|2,0:0|0:0|0:0,0:0:0:0:
302,169,19927,6,0,P|279:127|164:132,1,161.999995056153,0|0,3:2|3:2,0:0:0:0:
126,64,20566,2,0,P|96:107|106:158,1,107.999996704102,8|2,0:0|0:0,0:0:0:0:
166,204,21045,2,0,L|156:264,1,53.9999983520508,2|0,3:2|0:0,0:0:0:0:
96,302,21365,2,0,L|106:362,1,53.9999983520508,2|0,3:2|0:0,0:0:0:0:
180,384,21685,1,2,3:2:0:0:
180,384,21844,2,0,L|233:375,1,53.9999983520508,10|0,0:0|0:0,0:0:0:0:
291,325,22164,1,2,3:2:0:0:
291,325,22324,1,10,0:0:0:0:
374,378,22500,6,0,B|422:337|422:337|383:228,1,161.999995056153,6|0,3:2|3:2,0:0:0:0:
367,171,23143,2,0,L|314:161,1,53.9999983520508,8|0,0:0|0:0,0:0:0:0:
270,224,23465,1,2,0:0:0:0:
270,224,23626,2,0,L|217:234,2,53.9999983520508,0|2|0,3:2|0:0|3:2,0:0:0:0:
314,161,24109,2,0,L|304:108,1,53.9999983520508,2|2,0:0|3:2,0:0:0:0:
295,32,24431,1,8,0:0:0:0:
147,33,24753,1,2,0:0:0:0:
147,33,24914,1,2,0:0:0:0:
80,68,25075,6,0,P|68:148|54:228,1,161.999995056153,2|0,3:2|3:2,0:0:0:0:
89,295,25719,2,0,L|163:280,1,53.9999983520508,8|0,0:0|0:0,0:0:0:0:
201,237,26036,2,0,L|275:252,1,53.9999983520508,2|0,0:0|3:2,0:0:0:0:
317,288,26353,2,0,P|347:260|335:193,1,107.999996704102,2|2,0:0|0:0,0:0:0:0:
284,148,26830,1,0,3:2:0:0:
284,148,26988,1,10,0:0:0:0:
381,32,27306,1,2,0:0:0:0:
484,190,27642,6,0,B|503:282|503:282|477:314|432:297,1,161.999995056153,2|2,3:2|3:2,0:0:0:0:
370,275,28292,2,0,L|310:290,1,53.9999983520508,8|0,0:0|0:0,0:0:0:0:
256,331,28617,1,2,0:0:0:0:
256,331,28780,2,0,L|196:316,1,53.9999983520508,0|0,3:2|0:0,0:0:0:0:
140,275,29105,2,0,P|117:238|156:173,1,107.999996704102,2|0,3:2|3:2,0:0:0:0:
201,138,29593,2,0,L|253:124,2,53.9999983520508,8|0|2,0:0|0:0|3:2,0:0:0:0:
100,0,30243,6,0,B|52:41|52:41|91:150,1,161.999995056153,0|0,3:2|3:2,0:0:0:0:
139,182,30887,2,0,L|124:242,1,53.9999983520508,8|0,0:0|0:0,0:0:0:0:
146,311,31209,1,2,0:0:0:0:
146,311,31370,2,0,L|86:326,1,53.9999983520508,0|0,3:2|0:0,0:0:0:0:
21,348,31692,2,0,P|-9:310|22:241,1,107.999996704102,0|8,3:2|0:0,0:0:0:0:
25,225,32095,1,8,0:0:0:0:
25,225,32170,2,0,L|4:111,1,107.999996704102,6|0,3:2|0:0,0:0:0:0:
112,21,32797,6,0,B|153:-2|202:32|175:29|217:68|262:44,1,161.999995056153,6|0,3:2|0:0,0:0:0:0:
326,4,33441,2,0,B|366:43|366:43|351:105,1,107.999996704102,8|0,0:0|0:0,0:0:0:0:
288,132,33924,1,0,3:2:0:0:
310,204,34085,2,0,L|327:275,1,53.9999983520508,2|0,3:2|0:0,0:0:0:0:
382,302,34407,2,0,L|365:373,1,53.9999983520508,2|0,3:2|0:0,0:0:0:0:
298,381,34729,1,8,0:0:0:0:
162,272,35051,6,0,B|107:218|168:146|168:146|218:161|213:210,1,215.999993408203,6|2,3:2|3:2,0:0:0:0:
323,257,36017,2,0,L|428:235,1,107.999996704102,8|0,0:0|0:0,0:0:0:0:
506,105,36662,2,0,L|438:93,1,53.9999983520508,2|8,3:2|0:0,0:0:0:0:
387,67,36984,1,2,3:2:0:0:
387,67,37145,1,0,3:2:0:0:
356,136,37306,2,0,L|368:204,1,53.9999983520508,8|0,0:0|0:0,0:0:0:0:
429,235,37628,1,2,3:2:0:0:
269,183,37950,6,0,L|85:220,1,161.999995056153,6|0,3:2|0:0,0:0:0:0:
44,176,38594,2,0,P|27:141|75:83,1,107.999996704102,10|2,0:0|0:0,0:0:0:0:
99,21,39077,1,2,3:2:0:0:
153,73,39238,2,0,L|221:60,1,53.9999983520508,2|0,3:2|0:0,0:0:0:0:
261,11,39561,2,0,L|329:24,1,53.9999983520508,10|0,0:0|0:0,0:0:0:0:
350,87,39883,1,0,3:2:0:0:
487,0,40205,6,0,B|492:43|474:78|474:78|500:129|500:129|482:162|487:215,1,215.999993408203,2|0,3:2|0:0,0:0:0:0:
417,311,41096,5,4,0:0:0:0:
236,103,41712,6,0,L|159:88,1,60,4|0,3:2|0:0,0:0:0:0:
135,18,42038,2,0,L|58:33,1,60,2|0,3:2|0:0,0:0:0:0:
22,94,42382,2,0,P|55:131|38:213,1,120,8|0,0:0|0:0,0:0:0:0:
1,266,42862,1,0,3:2:0:0:
59,326,43022,2,0,P|60:355|51:384,2,60,0|8|0,3:2|0:0|3:2,0:0:0:0:
119,267,43502,1,0,3:2:0:0:
192,306,43662,2,0,B|223:309|245:323|245:323|259:299|309:277,1,120,8|0,0:0|0:2,0:0:0:0:
459,315,44303,6,0,P|473:281|465:242,1,60,2|8,3:2|0:0,0:0:0:0:
509,183,44623,2,0,P|509:153|496:126,1,60,2|0,3:2|0:0,0:0:0:0:
429,75,44959,2,0,B|394:77|368:62|368:62|359:92|319:109,1,120,8|0,0:0|0:0,0:0:0:0:
254,67,45444,1,0,3:2:0:0:
191,123,45606,2,0,L|119:109,1,60,0|8,3:2|0:0,0:0:0:0:
73,51,45929,1,0,3:2:0:0:
73,51,46091,1,0,3:2:0:0:
144,6,46253,1,8,0:0:0:0:
42,139,46577,2,0,L|55:206,1,60,0|0,0:0|3:2,0:0:0:0:
133,261,46900,6,0,L|215:243,1,60,2|0,3:2|0:0,0:0:0:0:
246,185,47221,2,0,L|328:203,1,60,2|0,3:2|0:0,0:0:0:0:
376,153,47542,2,0,P|404:182|396:266,1,120,8|0,0:0|0:0,0:0:0:0:
378,338,48025,1,0,3:2:0:0:
294,334,48185,2,0,P|278:298|288:256,2,60,0|8|0,3:2|0:0|3:2,0:0:0:0:
222,379,48665,1,0,3:2:0:0:
156,326,48825,2,0,P|119:319|59:384,1,120,8|0,0:0|2:0,0:0:0:0:
87,203,49465,6,0,L|72:135,1,60,2|8,3:2|0:0,0:0:0:0:
4,97,49785,2,0,L|19:29,1,60,2|0,3:2|0:0,0:0:0:0:
94,7,50106,2,0,P|142:39|199:24,1,120,8|0,0:0|0:0,0:0:0:0:
240,100,50587,1,0,3:2:0:0:
318,71,50747,2,0,L|385:83,1,60,0|8,3:2|0:0,0:0:0:0:
442,142,51068,1,0,3:2:0:0:
442,142,51228,1,0,3:2:0:0:
382,200,51389,1,8,0:0:0:0:
510,307,51709,2,0,L|437:328,1,60,0|8,3:2|0:0,0:0:0:0:
361,384,52042,6,0,L|288:363,1,60,6|0,3:2|0:0,0:0:0:0:
239,313,52363,2,0,L|166:334,1,60,6|0,3:2|0:0,0:0:0:0:
100,351,52684,2,0,P|77:325|93:242,1,120,10|2,0:0|0:0,0:0:0:0:
118,167,53166,2,0,L|193:182,1,60,2|0,3:2|3:2,0:0:0:0:
251,227,53487,1,10,0:0:0:0:
251,227,53647,2,0,L|326:212,1,60,2|0,3:2|3:2,0:0:0:0:
379,166,53968,1,10,0:0:0:0:
379,166,54129,2,0,P|401:128|352:53,1,120,2|2,0:0|3:2,0:0:0:0:
273,5,54611,6,0,L|147:30,1,120,2|2,3:2|3:2,0:0:0:0:
74,3,55097,1,2,0:0:0:0:
35,78,55259,2,0,B|41:108|68:128|68:128|55:150|49:208,1,120,8|0,0:0|0:0,0:0:0:0:
102,251,55746,1,0,3:2:0:0:
47,314,55908,2,0,L|-20:329,2,60,0|8|2,3:2|0:0|3:2,0:0:0:0:
113,364,56394,1,0,3:2:0:0:
186,323,56556,2,0,L|253:338,1,60,8|0,0:0|0:0,0:0:0:0:
315,381,56881,1,2,0:0:0:0:
315,381,57043,1,0,3:2:0:0:
370,292,57205,6,0,L|356:210,1,60,2|0,3:2|0:0,0:0:0:0:
301,172,57525,2,0,L|315:90,1,60,2|0,3:2|0:0,0:0:0:0:
354,41,57846,2,0,L|427:26,2,60,10|0|0,0:0|0:0|0:0,0:0:0:0:
279,2,58327,1,0,3:2:0:0:
205,43,58488,2,0,L|132:28,1,60,0|8,3:2|0:0,0:0:0:0:
69,65,58809,2,0,P|57:92|61:121,1,60,0|0,3:2|3:2,0:0:0:0:
120,181,59130,1,8,0:0:0:0:
18,314,59450,2,0,L|0:235,1,60,0|0,3:2|3:2,0:0:0:0:
103,284,59771,6,0,L|182:302,1,60,2|8,3:2|0:0,0:0:0:0:
231,251,60090,2,0,L|310:233,1,60,2|0,3:2|3:2,0:0:0:0:
179,168,60409,6,0,L|100:186,1,60,8|0,0:0|0:0,0:0:0:0:
62,122,60728,2,0,L|-17:104,1,60,0|0,3:2|3:2,0:0:0:0:
111,24,61047,6,0,L|175:40,1,60,2|8,3:2|0:0,0:0:0:0:
238,85,61366,2,0,L|302:69,1,60,2|0,3:2|3:2,0:0:0:0:
357,12,61685,6,0,P|394:6|457:58,1,120,8|2,0:0|3:2,0:0:0:0:
415,128,62164,1,8,0:0:0:0:
482,205,62350,6,0,B|519:256|519:256|481:359,1,161.999995056153,6|0,3:2|0:0,0:0:0:0:
415,380,62994,2,0,L|297:359,1,107.999996704102,8|0,0:0|0:0,0:0:0:0:
235,344,63477,1,0,3:2:0:0:
275,280,63638,2,0,L|262:220,1,53.9999983520508,2|0,3:2|0:0,0:0:0:0:
201,183,63960,2,0,L|214:123,1,53.9999983520508,2|0,3:2|0:0,0:0:0:0:
267,78,64282,1,8,0:0:0:0:
108,184,64604,6,0,P|54:201|56:85,1,215.999993408203,6|2,3:2|3:2,0:0:0:0:
179,9,65570,2,0,L|302:-3,1,107.999996704102,8|0,0:0|0:0,0:0:0:0:
400,98,66215,2,0,L|388:165,1,53.9999983520508,2|8,3:2|0:0,0:0:0:0:
336,203,66537,2,0,L|348:270,1,53.9999983520508,2|0,3:2|3:2,0:0:0:0:
411,292,66859,1,8,0:0:0:0:
288,381,67181,2,0,L|227:366,1,53.9999983520508,6|0,0:3|3:2,0:0:0:0:
191,290,67503,6,0,B|150:267|101:301|128:298|86:337|41:313,1,161.999995056153,6|0,3:2|0:0,0:0:0:0:
5,246,68147,2,0,L|24:139,1,107.999996704102,10|2,0:0|0:0,0:0:0:0:
2,67,68630,1,2,3:2:0:0:
74,44,68791,2,0,L|144:62,1,53.9999983520508,2|0,3:2|0:0,0:0:0:0:
182,6,69114,2,0,P|202:39|199:68,1,53.9999983520508,2|0,3:2|0:0,0:0:0:0:
181,126,69436,1,8,0:0:0:0:
337,234,69758,6,0,B|379:232|388:188|388:188|358:147|288:150|263:188,1,215.999993408203,6|2,3:2|3:2,0:0:0:0:
194,318,70724,2,0,L|314:342,1,107.999996704102,8|2,0:0|3:2,0:0:0:0:
368,371,71207,1,0,0:0:0:0:
432,331,71368,6,0,L|479:342,2,35.9999989013672,8|8|8,0:3|0:3|0:3,0:0:0:0:
436,280,71690,6,0,L|483:291,2,35.9999989013672,10|8|8,3:0|3:0|3:0,0:0:0:0:
397,246,72012,6,0,L|350:257,2,35.9999989013672,4|4|4,0:3|0:3|0:3,0:0:0:0:
393,195,72334,6,0,L|346:206,2,35.9999989013672,6|4|4,3:0|3:0|3:0,0:0:0:0:
442,185,72657,6,0,B|485:139|485:139|435:41,1,161.999995056153,6|0,3:2|0:0,0:0:0:0:
373,15,73301,2,0,B|329:46|329:46|264:27,1,107.999996704102,8|0,0:0|0:0,0:0:0:0:
207,1,73784,1,0,3:2:0:0:
163,62,73945,2,0,L|173:120,1,53.9999983520508,2|0,3:2|0:0,0:0:0:0:
245,133,74267,2,0,L|235:191,1,53.9999983520508,2|0,3:2|0:0,0:0:0:0:
199,252,74589,1,8,0:0:0:0:
352,132,74911,6,0,B|332:214|332:214|359:253|359:253|342:335,1,215.999993408203,6|2,3:2|3:2,0:0:0:0:
198,383,75878,2,0,L|80:362,1,107.999996704102,10|0,0:0|0:0,0:0:0:0:
3,241,76522,2,0,L|15:179,1,53.9999983520508,2|8,3:2|0:0,0:0:0:0:
75,145,76838,1,2,3:2:0:0:
75,145,76996,1,0,3:2:0:0:
141,181,77154,2,0,L|194:170,1,53.9999983520508,8|8,0:0|0:3,0:0:0:0:
246,116,77470,1,6,0:3:0:0:
353,221,77786,6,0,P|391:236|487:162,1,161.999995056153,6|0,3:2|0:0,0:0:0:0:
505,103,78430,2,0,P|451:95|398:85,1,107.999996704102,10|0,0:0|0:0,0:0:0:0:
360,19,78913,1,0,3:2:0:0:
296,59,79074,2,0,L|222:76,1,53.9999983520508,6|0,0:3|0:0,0:0:0:0:
176,36,79396,2,0,L|102:19,1,53.9999983520508,10|0,0:0|0:0,0:0:0:0:
65,72,79718,1,0,3:2:0:0:
187,184,80040,6,0,B|226:237|226:237|175:352,1,180.000006866455,6|0,3:2|0:0,0:0:0:0:
256,192,80845,12,2,82926,3:2:0:0:
