osu file format v14

[General]
AudioFilename: audio.mp3
AudioLeadIn: 0
PreviewTime: 41637
Countdown: 0
SampleSet: Soft
StackLeniency: 0.7
Mode: 0
LetterboxInBreaks: 0
WidescreenStoryboard: 1

[Editor]
Bookmarks: 22377,32693,41559,51830,62111,72415,82697
DistanceSpacing: 1
BeatDivisor: 4
GridSize: 16
TimelineZoom: 0.6999998

[Metadata]
Title:Duvet (TV Size)
TitleUnicode:Duvet (TV Size)
Artist:boa
ArtistUnicode:bôa
Creator:VenerableNyanta
Version:Normal
Source:serial experiments lain
Tags:シリアルエクスペリメンツレイン rock english anime alternative Nyanta she luv lando Kloster Sonnyc Le Mirai Cacturne storyboard opening sirmirai
BeatmapID:3208687
BeatmapSetID:1537881

[Difficulty]
HPDrainRate:2
CircleSize:2.6
OverallDifficulty:3.5
ApproachRate:4.2
SliderMultiplier:1.9
SliderTickRate:1

[Events]
//Background and Video events
0,0,"48578_serial_experiments_lain.jpg",0,0
//Break Periods
//Storyboard Layer 0 (Background)
Sprite,Background,Centre,"sb\f\_036.png",320,190 S,0,82912,,0.2 R,0,82912,,-0.02 R,0,82912,,0.01 F,0,82912,85465,1 R,0,83071,,-0.08 R,0,83230,,-0.02 R,0,83390,,-0.08 R,0,83549,,-0.06 R,0,83709,,0 R,0,83868,,0.07 R,0,84027,,-0.04 R,0,84187,,-0.08 R,0,84346,,0.06 R,0,84506,,-0.04 R,0,84665,,0.08 R,0,84824,,-0.03 R,0,84984,,0.03 R,0,85143,,0 R,0,85303,,0.08
Sprite,Background,Centre,"sb\f\_037.png",320,240 S,0,82912,,0.5 R,0,82912,,0.08 R,0,82912,,0.03 F,0,82912,85465,1 R,0,83071,,-0.02 R,0,83230,,0.06 R,0,83390,,-0.09 R,0,83549,,-0.03 R,0,83709,,-0.03 R,0,83868,,-0.05 R,0,84027,,0.08 R,0,84187,,0.05 R,0,84346,,-0.05 R,0,84506,,0.01 R,0,84665,,-0.07 R,0,84824,,0.08 R,0,84984,,0.03 R,0,85143,,0.02 R,0,85303,,0.01
Sprite,Background,Centre,"sb\f\_038.png",320,190 S,0,85465,,0.2 R,0,85465,,-0.05 R,0,85465,,0.07 F,0,85465,88018,1 R,0,85624,,-0.05 R,0,85783,,-0.03 R,0,85943,,0.01 R,0,86102,,0.01 R,0,86262,,0.04 R,0,86421,,0 R,0,86580,,0.08 R,0,86740,,-0.08 R,0,86899,,-0.01 R,0,87059,,-0.01 R,0,87218,,-0.02 R,0,87377,,0.06 R,0,87537,,-0.06 R,0,87696,,0.04 R,0,87856,,-0.07
Sprite,Background,Centre,"sb\f\_039.png",320,240 S,0,85465,,0.5 R,0,85465,,-0.01 R,0,85465,,-0.03 F,0,85465,88018,1 R,0,85624,,0.05 R,0,85783,,0.02 R,0,85943,,-0.03 R,0,86102,,-0.05 R,0,86262,,0.04 R,0,86421,,-0.07 R,0,86580,,-0.08 R,0,86740,,-0.02 R,0,86899,,-0.04 R,0,87059,,-0.04 R,0,87218,,-0.06 R,0,87377,,-0.08 R,0,87537,,-0.06 R,0,87696,,0.02 R,0,87856,,-0.03
Sprite,Background,Centre,"sb\f\_043.png",320,190 S,0,88018,,0.2 R,0,88018,,-0.07 R,0,88018,,0.04 F,0,88018,90571,1 R,0,88177,,-0.05 R,0,88336,,0.02 R,0,88496,,-0.03 R,0,88655,,-0.07 R,0,88815,,0.03 R,0,88974,,-0.03 R,0,89133,,-0.09 R,0,89293,,-0.04 R,0,89452,,0.07 R,0,89612,,0.05 R,0,89771,,0 R,0,89930,,0.07 R,0,90090,,-0.08 R,0,90249,,0.06 R,0,90409,,0.08
Sprite,Background,Centre,"sb\f\_044.png",320,240 S,0,88018,,0.5 R,0,88018,,-0.01 R,0,88018,,-0.04 F,0,88018,90571,1 R,0,88177,,0.06 R,0,88336,,0.08 R,0,88496,,0.06 R,0,88655,,0.02 R,0,88815,,0 R,0,88974,,-0.05 R,0,89133,,-0.01 R,0,89293,,-0.06 R,0,89452,,-0.02 R,0,89612,,-0.06 R,0,89771,,0.05 R,0,89930,,0.08 R,0,90090,,-0.04 R,0,90249,,0.05 R,0,90409,,-0.09
//Storyboard Layer 1 (Fail)
//Storyboard Layer 2 (Pass)
//Storyboard Layer 3 (Foreground)
Sprite,Foreground,Centre,"sb\px.png",98,400 R,0,71368,,0.03 C,0,71368,,219,169,61 P,0,71368,,A V,30,71368,71568,0,650,1,650
Sprite,Foreground,Centre,"sb\px.png",433,169 R,0,79074,,-0.01 C,0,79074,,219,169,61 P,0,79074,,A V,30,79074,79274,0,650,1,650
Sprite,Foreground,Centre,"sb\px.png",346,56 R,0,79718,,-0.01 C,0,79718,,219,169,61 P,0,79718,,A V,30,79718,79918,0,650,1,650
//Storyboard Layer 4 (Overlay)
//Storyboard Sound Samples

[TimingPoints]
323,621.761658031088,4,2,1,50,1,0
1910,637.619553666313,4,2,1,50,1,0
4456,648.648648648649,4,2,1,50,1,0
7042,645.50833781603,4,2,1,50,1,0
9618,645.161290322581,4,2,1,50,1,0
12188,642.054574638844,4,2,1,50,1,0
17352,643.776824034335,4,2,1,50,1,0
19927,639.318060735216,4,2,1,50,1,0
22500,643.949557284679,4,2,1,50,1,0
25719,634.920634920635,4,2,1,50,1,0
27642,650.406504065041,4,2,1,50,1,0
30243,644.19153961778,4,2,1,50,1,0
32170,644.19153961778,4,2,1,50,1,0
32797,644.19153961778,4,2,1,50,1,0
41096,618.556701030928,4,2,1,50,1,0
41712,652.173913043478,4,2,1,50,1,0
42382,640.34151547492,4,2,1,50,1,0
44959,647.249190938511,4,2,1,50,1,0
45848,-100,4,2,1,5,0,0
45929,-100,4,2,1,50,0,0
46900,642.914545941602,4,2,1,50,1,0
48185,640,4,2,1,50,1,0
49465,641.368252271513,4,2,1,50,1,0
52042,642.398286937902,4,2,1,50,1,0
54611,648.648648648649,4,2,1,50,1,0
57205,641.711229946524,4,2,1,50,1,0
59771,638.297872340426,4,2,1,50,1,0
62350,644.19153961778,4,2,1,50,1,0
76522,632.244467860906,4,2,1,50,1,0
77786,644.19153961778,4,2,1,50,1,0
82926,638.297872340426,4,2,1,50,1,0
85498,639.318060735216,4,2,1,50,1,0
88055,643.776824034335,4,2,1,50,1,0
93205,647.249190938511,4,2,1,50,1,0

[Colours]
Combo1 : 157,4,9
Combo2 : 255,217,183

[HitObjects]
30,71,1910,6,0,P|74:24|140:43,1,95,4|0,1:2|1:0,2:0:0:0:
190,92,2547,2,0,B|161:191|161:191|125:199|117:219,2,142.5,8|0|0,2:0|1:2|2:0,2:0:0:0:
265,15,3822,2,0,P|326:31|321:48,1,95,8|0,2:0|2:0,2:0:0:0:
334,147,4456,6,0,L|380:334,1,190,2|8,1:2|2:0,2:0:0:0:
274,354,5428,1,2,2:0:0:0:
182,366,5753,2,0,P|132:362|112:313,1,95,2|0,2:0|2:0,0:0:0:0:
158,239,6401,2,0,P|154:190|212:175,1,95,10|2,2:0|2:0,2:0:0:0:
277,228,7042,6,0,L|299:121,1,95,2|0,1:2|1:0,2:0:0:0:
317,40,7687,2,0,B|365:6|430:39|430:39|440:26|453:18,2,142.5,8|2|0,2:0|1:2|2:0,2:0:0:0:
218,34,8978,2,0,P|196:52|225:123,1,95,8|2,2:0|2:0,0:0:0:0:
305,134,9618,6,0,L|266:334,1,190,0|8,1:0|2:0,2:0:0:0:
164,364,10585,5,2,2:0:0:0:
65,338,10908,2,0,P|41:295|64:246,1,95,2|2,2:0|2:0,0:0:0:0:
11,164,11553,2,0,P|18:135|78:108,1,95,10|2,2:0|2:0,2:0:0:0:
167,163,12188,6,0,L|188:263,1,95,2|0,1:2|1:0,2:0:0:0:
269,330,12830,2,0,B|368:350|368:350|375:328|394:312,2,142.5,8|0|2,2:0|1:0|2:0,2:0:0:0:
176,374,14114,2,0,P|127:363|128:309,1,95,10|2,2:0|2:0,0:0:0:0:
181,245,14756,6,0,L|224:57,1,190,0|8,1:2|2:0,2:0:0:0:
319,27,15719,1,2,2:0:0:0:
380,104,16040,2,0,P|387:158|349:189,1,95,0|2,0:0|2:0,0:0:0:0:
375,280,16682,2,0,P|337:312|285:284,1,95,10|2,2:0|1:2,2:0:0:0:
248,207,17352,6,0,P|203:191|155:182,1,95,2|0,1:2|2:0,2:0:0:0:
59,228,17995,2,0,B|91:286|57:336|57:336|27:344|14:351,2,142.5,8|0|2,2:0|1:0|2:0,2:0:0:0:
75,117,19283,2,0,P|69:67|102:30,1,95,10|2,2:0|2:0,0:0:0:0:
200,62,19927,6,0,L|182:191,1,95,0|2,1:0|2:0,2:0:0:0:
167,259,20566,2,0,P|200:307|291:280,1,142.5,8|2,2:0|1:3,0:0:0:0:
293,203,21365,2,0,P|336:158|411:188,1,142.5,2|8,1:3|2:0,2:0:0:0:
388,276,22164,1,0,1:0:0:0:
298,327,22500,6,0,P|219:296|178:318,1,95,4|0,1:0|2:0,2:0:0:0:
130,356,23143,2,0,P|112:273|70:166,1,190,8|2,2:0|2:0,2:0:0:0:
115,79,24109,1,2,2:0:0:0:
216,118,24431,2,0,P|200:168|205:210,1,95,8|2,2:0|2:0,2:0:0:0:
295,283,25075,6,0,P|365:272|318:186,1,190.295054166667,0|8,1:0|2:0,2:0:0:0:
318,88,26036,1,2,2:0:0:0:
221,27,26353,2,0,P|163:21|131:51,1,95,0|2,1:0|2:0,2:0:0:0:
38,33,26988,2,0,P|16:73|66:133,1,95,10|2,2:0|2:0,2:0:0:0:
122,166,27642,6,0,P|94:257|83:366,1,190,0|8,1:0|2:0,2:0:0:0:
191,377,28617,2,0,P|199:289|235:178,1,190,2|0,2:0|2:0,0:0:0:0:
202,97,29593,2,0,P|173:43|127:45,1,95,8|0,2:0|1:0,0:0:0:0:
78,116,30243,6,0,P|94:172|95:214,1,95,0|2,1:0|2:0,2:0:0:0:
64,313,30887,1,8,2:0:0:0:
150,364,31209,2,0,B|208:379|232:326|232:326|263:269|320:293,1,190,2|2,2:0|2:0,2:0:0:0:
386,234,32170,2,0,P|378:184|386:134,1,95,12|0,2:0|2:0,2:0:0:0:
342,41,32797,6,0,P|238:37|293:178,1,285,4|2,1:0|2:0,2:0:0:0:
346,234,34085,2,0,P|325:285|314:344,1,95,2|2,1:2|1:2,2:0:0:0:
213,350,34729,1,10,2:0:0:0:
106,368,35051,6,0,P|33:297|157:220,1,285,4|10,1:0|2:0,2:0:0:0:
253,236,36340,1,2,2:0:0:0:
291,144,36662,2,0,P|270:82|270:38,1,95,2|2,1:2|1:2,2:0:0:0:
174,12,37306,1,10,2:0:0:0:
91,81,37628,1,2,1:2:0:0:
157,170,37950,6,0,P|165:227|148:366,1,190,4|10,1:0|2:0,2:0:0:0:
247,383,38916,1,2,2:0:0:0:
293,295,39238,2,0,P|279:241|282:199,1,95,2|8,1:3|2:0,2:0:0:0:
233,100,39883,1,0,1:0:0:0:
296,17,40205,1,4,1:2:0:0:
65,257,41712,6,0,B|20:214|-66:277|-21:416|168:414|178:289|159:219|159:219|125:88|189:-76|442:-59|492:61|495:265|349:307|247:281|200:174|260:113|307:127,1,1134.46466666667,4|2,1:0|1:2,2:0:0:0:
53,142,46900,6,0,P|25:104|123:23,1,190,0|8,1:0|2:0,2:0:0:0:
295,50,48185,6,0,P|275:100|273:165,1,95,0|0,1:0|1:0,0:0:0:0:
170,126,48825,1,8,2:0:0:0:
133,223,49145,1,2,2:0:0:0:
197,300,49465,2,0,P|145:363|41:327,1,190,0|8,1:0|2:0,2:0:0:0:
16,240,50427,5,2,2:0:0:0:
90,164,50747,2,0,P|102:103|94:46,1,95,2|2,1:2|1:2,2:0:0:0:
195,33,51389,2,0,P|200:92|220:120,1,95,10|2,2:0|1:2,2:0:0:0:
327,156,52042,1,4,1:0:0:0:
275,350,52684,6,0,B|209:363|197:290|197:290|167:259|113:280,1,190,10|0,2:0|0:0,2:0:0:0:
20,292,53647,1,2,1:2:0:0:
8,183,53969,6,0,P|22:120|135:127,1,190,10|2,2:0|1:2,2:0:0:0:
195,190,54935,1,2,1:2:0:0:
168,287,55259,6,0,P|154:347|256:339,1,190,8|0,2:0|1:0,0:0:0:0:
309,266,56232,1,0,1:0:0:0:
240,191,56556,1,8,2:0:0:0:
321,115,56881,2,0,P|319:44|203:43,1,188.828333333333,2|0,2:0|1:0,2:0:0:0:
115,27,57846,2,0,P|127:76|117:138,1,95,8|2,2:0|2:0,2:0:0:0:
28,291,58809,6,0,P|7:340|35:397,2,95,0|8|0,1:0|2:0|1:0,2:0:0:0:
132,254,59771,5,0,1:0:0:0:
255,346,60409,1,10,2:0:0:0:
391,241,61047,1,2,1:2:0:0:
336,62,61685,1,10,2:0:0:0:
185,79,62350,6,0,P|205:143|199:276,1,190,4|8,1:0|2:0,2:0:0:0:
265,352,63316,1,2,2:0:0:0:
366,312,63638,2,0,P|342:266|357:224,1,95,2|2,1:2|1:2,2:0:0:0:
407,138,64282,1,10,2:0:0:0:
403,22,64604,6,0,B|321:18|244:60|244:60|218:41|216:26,1,190,6|0,1:2|1:0,2:0:0:0:
124,6,65570,2,0,P|82:37|101:89,1,95,8|0,2:0|2:0,2:0:0:0:
169,149,66215,1,2,1:2:0:0:
134,238,66537,1,2,1:2:0:0:
89,336,66859,2,0,P|127:379|177:362,1,95,8|4,2:0|2:3,2:0:0:0:
266,357,67503,6,0,B|252:301|297:272|297:272|344:243|331:180,1,190,4|8,1:0|2:0,2:0:0:0:
267,111,68469,1,2,2:0:0:0:
339,36,68791,2,0,P|377:5|432:15,2,95,2|2|10,1:2|1:2|2:0,2:0:0:0:
267,111,69758,6,0,B|234:154|188:153|152:114|152:114|151:76|121:54,1,190,4|0,1:0|1:0,2:0:0:0:
48,142,70724,2,0,P|21:215|16:245,1,95,8|0,2:0|1:0,2:0:0:0:
34,344,71368,6,0,B|112:382|159:307|159:307|217:222|298:261,1,285,8|4,2:3|2:3,0:0:0:0:
361,306,72657,6,0,P|366:244|413:79,1,190,4|10,1:0|2:0,2:0:0:0:
355,30,73623,1,2,2:0:0:0:
266,75,73945,2,0,P|240:34|185:3,2,95,2|2|10,1:2|1:2|2:0,2:0:0:0:
260,177,74911,6,0,P|207:218|144:112,1,190,4|0,1:0|1:0,2:0:0:0:
67,69,75878,2,0,P|14:85|2:141,1,95,8|0,2:0|2:0,2:0:0:0:
43,214,76522,1,2,1:2:0:0:
0,303,76838,1,2,1:2:0:0:
77,363,77154,2,0,P|127:331|159:341,1,95,10|4,2:0|2:3,2:0:0:0:
261,367,77786,6,0,P|254:278|339:221,1,190,4|8,1:0|2:0,2:0:0:0:
415,197,78752,1,2,2:0:0:0:
369,113,79074,6,0,P|364:60|387:0,1,95,2|10,1:2|2:0,2:0:0:0:
282,0,79718,1,2,1:2:0:0:
237,96,80040,6,0,B|333:200|346:493|-38:523|-224:303|-72:18|146:46|223:194|166:249|123:243,1,851.46068,6|0,1:2|1:0,2:0:0:0:
256,192,83085,12,0,90630,2:0:0:0:
