osu file format v14

[General]
AudioFilename: audio.mp3
AudioLeadIn: 0
PreviewTime: 41637
Countdown: 0
SampleSet: Soft
StackLeniency: 0.5
Mode: 0
LetterboxInBreaks: 0
WidescreenStoryboard: 1

[Editor]
Bookmarks: 22364,32693,41559
DistanceSpacing: 0.8
BeatDivisor: 8
GridSize: 16
TimelineZoom: 2

[Metadata]
Title:Duvet (TV Size)
TitleUnicode:Duvet (TV Size)
Artist:boa
ArtistUnicode:bôa
Creator:VenerableNyanta
Version:Insane by she luv lando
Source:serial experiments lain
Tags:シリアルエクスペリメンツレイン rock english anime alternative Nyanta she luv lando Kloster Sonnyc Le Mirai Cacturne storyboard opening sirmirai
BeatmapID:3185738
BeatmapSetID:1537881

[Difficulty]
HPDrainRate:5.5
CircleSize:4.5
OverallDifficulty:7.8
ApproachRate:8.8
SliderMultiplier:2.6
SliderTickRate:1

[Events]
//Background and Video events
0,0,"48578_serial_experiments_lain.jpg",0,0
//Break Periods
//Storyboard Layer 0 (Background)
Sprite,Background,Centre,"sb\f\_03d.png",320,190 S,0,82912,,0.2 R,0,82912,,-0.02 R,0,82912,,0.01 F,0,82912,85465,1 R,0,83071,,-0.08 R,0,83230,,-0.02 R,0,83390,,-0.08 R,0,83549,,-0.06 R,0,83709,,0 R,0,83868,,0.07 R,0,84027,,-0.04 R,0,84187,,-0.08 R,0,84346,,0.06 R,0,84506,,-0.04 R,0,84665,,0.08 R,0,84824,,-0.03 R,0,84984,,0.03 R,0,85143,,0 R,0,85303,,0.08
Sprite,Background,Centre,"sb\f\_040.png",320,240 S,0,82912,,0.5 R,0,82912,,0.08 R,0,82912,,0.03 F,0,82912,85465,1 R,0,83071,,-0.02 R,0,83230,,0.06 R,0,83390,,-0.09 R,0,83549,,-0.03 R,0,83709,,-0.03 R,0,83868,,-0.05 R,0,84027,,0.08 R,0,84187,,0.05 R,0,84346,,-0.05 R,0,84506,,0.01 R,0,84665,,-0.07 R,0,84824,,0.08 R,0,84984,,0.03 R,0,85143,,0.02 R,0,85303,,0.01
Sprite,Background,Centre,"sb\f\_038.png",320,190 S,0,85465,,0.2 R,0,85465,,-0.05 R,0,85465,,0.07 F,0,85465,88018,1 R,0,85624,,-0.05 R,0,85783,,-0.03 R,0,85943,,0.01 R,0,86102,,0.01 R,0,86262,,0.04 R,0,86421,,0 R,0,86580,,0.08 R,0,86740,,-0.08 R,0,86899,,-0.01 R,0,87059,,-0.01 R,0,87218,,-0.02 R,0,87377,,0.06 R,0,87537,,-0.06 R,0,87696,,0.04 R,0,87856,,-0.07
Sprite,Background,Centre,"sb\f\_039.png",320,240 S,0,85465,,0.5 R,0,85465,,-0.01 R,0,85465,,-0.03 F,0,85465,88018,1 R,0,85624,,0.05 R,0,85783,,0.02 R,0,85943,,-0.03 R,0,86102,,-0.05 R,0,86262,,0.04 R,0,86421,,-0.07 R,0,86580,,-0.08 R,0,86740,,-0.02 R,0,86899,,-0.04 R,0,87059,,-0.04 R,0,87218,,-0.06 R,0,87377,,-0.08 R,0,87537,,-0.06 R,0,87696,,0.02 R,0,87856,,-0.03
Sprite,Background,Centre,"sb\f\_043.png",320,190 S,0,88018,,0.2 R,0,88018,,-0.07 R,0,88018,,0.04 F,0,88018,90571,1 R,0,88177,,-0.05 R,0,88336,,0.02 R,0,88496,,-0.03 R,0,88655,,-0.07 R,0,88815,,0.03 R,0,88974,,-0.03 R,0,89133,,-0.09 R,0,89293,,-0.04 R,0,89452,,0.07 R,0,89612,,0.05 R,0,89771,,0 R,0,89930,,0.07 R,0,90090,,-0.08 R,0,90249,,0.06 R,0,90409,,0.08
Sprite,Background,Centre,"sb\f\_044.png",320,240 S,0,88018,,0.5 R,0,88018,,-0.01 R,0,88018,,-0.04 F,0,88018,90571,1 R,0,88177,,0.06 R,0,88336,,0.08 R,0,88496,,0.06 R,0,88655,,0.02 R,0,88815,,0 R,0,88974,,-0.05 R,0,89133,,-0.01 R,0,89293,,-0.06 R,0,89452,,-0.02 R,0,89612,,-0.06 R,0,89771,,0.05 R,0,89930,,0.08 R,0,90090,,-0.04 R,0,90249,,0.05 R,0,90409,,-0.09
//Storyboard Layer 1 (Fail)
//Storyboard Layer 2 (Pass)
//Storyboard Layer 3 (Foreground)
Sprite,Foreground,Centre,"sb\px.png",64,316 R,0,71368,,0.03 C,0,71368,,219,169,61 P,0,71368,,A V,30,71368,71568,0,650,1,650
Sprite,Foreground,Centre,"sb\px.png",108,198 R,0,71690,,-0.01 C,0,71690,,219,169,61 P,0,71690,,A V,30,71690,71890,0,650,1,650
Sprite,Foreground,Centre,"sb\px.png",207,127 R,0,72012,,-0.01 C,0,72012,,219,169,61 P,0,72012,,A V,30,72012,72212,0,650,1,650
Sprite,Foreground,Centre,"sb\px.png",319,119 R,0,72334,,0.06 C,0,72334,,219,169,61 P,0,72334,,A V,30,72334,72534,0,650,1,650
Sprite,Foreground,Centre,"sb\px.png",280,407 R,0,79074,,0.01 C,0,79074,,219,169,61 P,0,79074,,A V,30,79074,79274,0,650,1,650
Sprite,Foreground,Centre,"sb\px.png",366,327 R,0,79396,,0.05 C,0,79396,,219,169,61 P,0,79396,,A V,30,79396,79596,0,650,1,650
Sprite,Foreground,Centre,"sb\px.png",80,201 R,0,79718,,-0.03 C,0,79718,,219,169,61 P,0,79718,,A V,30,79718,79918,0,650,1,650
//Storyboard Layer 4 (Overlay)
//Storyboard Sound Samples

[TimingPoints]
323,621.761658031088,4,2,1,50,1,0
1910,637.619553666313,4,2,1,50,1,0
1910,-100,4,2,1,50,0,0
4456,648.648648648649,4,2,1,50,1,0
7042,645.50833781603,4,2,1,50,1,0
9618,645.161290322581,4,2,1,50,1,0
12188,642.054574638844,4,2,1,50,1,0
17352,643.776824034335,4,2,1,50,1,0
19927,639.318060735216,4,2,1,50,1,0
20925,-83.3333333333333,4,2,1,50,0,0
22364,-71.4285714285714,4,2,1,50,0,0
22500,643.949557284679,4,2,1,50,1,0
22500,-71.4285714285714,4,2,1,50,0,0
24633,-100,4,2,1,50,0,0
24955,-83.3333333333333,4,2,1,50,0,0
25719,634.920634920635,4,2,1,50,1,0
25719,-83.3333333333333,4,2,1,50,0,0
27642,650.406504065041,4,2,1,50,1,0
27642,-83.3333333333333,4,2,1,50,0,0
28495,-100,4,2,1,50,0,0
28983,-83.3333333333333,4,2,1,50,0,0
30243,644.19153961778,4,2,1,50,1,0
30243,-83.3333333333333,4,2,1,50,0,0
30766,-100,4,2,1,50,0,0
32170,644.19153961778,4,2,1,50,1,0
32170,-250,4,2,1,50,0,0
32797,644.19153961778,4,2,1,50,1,0
32797,-71.4285714285714,4,2,1,50,0,0
33333,-83.3333333333333,4,2,1,50,0,0
34286,-250,4,2,1,50,0,0
34930,-71.4285714285714,4,2,1,50,0,0
35575,-83.3333333333333,4,2,1,50,0,0
35897,-71.4285714285714,4,2,1,50,0,0
36541,-83.3333333333333,4,2,1,50,0,0
37507,-250,4,2,1,50,0,0
37829,-71.4285714285714,4,2,1,50,0,0
38473,-83.3333333333333,4,2,1,50,0,0
40084,-1000,4,2,1,50,0,0
40970,-83.3333333333333,4,2,1,50,0,0
41096,618.556701030928,4,2,1,50,1,0
41712,652.173913043478,4,2,1,50,1,0
41712,-66.6666666666667,4,2,1,50,0,0
42382,640.34151547492,4,2,1,50,1,0
42382,-83.3333333333333,4,2,1,50,0,0
42542,-71.4285714285714,4,2,1,50,0,0
43502,-83.3333333333333,4,2,1,50,0,0
43822,-71.4285714285714,4,2,1,50,0,0
44142,-66.6666666666667,4,2,1,50,0,0
44959,647.249190938511,4,2,1,50,1,0
44959,-66.6666666666667,4,2,1,50,0,0
45444,-71.4285714285714,4,2,1,50,0,0
46738,-83.3333333333333,4,2,1,50,0,0
46900,642.914545941602,4,2,1,50,1,0
46900,-83.3333333333333,4,2,1,50,0,0
48025,-71.4285714285714,4,2,1,50,0,0
48185,640,4,2,1,50,1,0
48185,-71.4285714285714,4,2,1,50,0,0
48985,-83.3333333333333,4,2,1,50,0,0
49465,641.368252271513,4,2,1,50,1,0
49465,-83.3333333333333,4,2,1,50,0,0
49946,-71.4285714285714,4,2,1,50,0,0
50587,-83.3333333333333,4,2,1,50,0,0
51870,-71.4285714285714,4,2,1,50,0,0
52042,642.398286937902,4,2,1,50,1,0
52042,-71.4285714285714,4,2,1,50,0,0
52202,-62.5,4,2,1,50,0,0
53166,-71.4285714285714,4,2,1,50,0,0
53808,-83.3333333333333,4,2,1,50,0,0
54450,-62.5,4,2,1,50,0,0
54611,648.648648648649,4,2,1,50,1,0
54611,-62.5,4,2,1,50,0,0
55097,-71.4285714285714,4,2,1,50,0,0
56070,-83.3333333333333,4,2,1,50,0,0
56394,-62.5,4,2,1,50,0,0
57205,641.711229946524,4,2,1,50,1,0
57205,-62.5,4,2,1,50,0,0
57686,-83.3333333333333,4,2,1,5,0,0
57846,-83.3333333333333,4,2,1,50,0,0
58007,-62.5,4,2,1,50,0,0
58327,-83.3333333333333,4,2,1,50,0,0
58969,-71.4285714285714,4,2,1,50,0,0
59611,-83.3333333333333,4,2,1,50,0,0
59771,638.297872340426,4,2,1,50,1,0
59771,-83.3333333333333,4,2,1,50,0,0
59930,-62.5,4,2,1,50,0,0
60249,-55.5555555555556,4,2,1,50,0,0
61526,-100,4,2,1,50,0,0
61845,-250,4,2,1,50,0,0
62164,-62.5,4,2,1,50,0,0
62350,644.19153961778,4,2,1,50,1,0
62350,-62.5,4,2,1,50,0,0
63437,-83.3333333333333,4,2,1,50,0,0
63759,-71.4285714285714,4,2,1,50,0,0
65369,-83.3333333333333,4,2,1,50,0,0
66013,-71.4285714285714,4,2,1,50,0,0
66980,-250,4,2,1,50,0,0
67302,-62.5,4,2,1,50,0,0
67946,-71.4285714285714,4,2,1,50,0,0
68590,-83.3333333333333,4,2,1,50,0,0
68912,-100,4,2,1,50,0,0
69556,-62.5,4,2,1,50,0,0
70201,-100,4,2,1,50,0,0
70523,-83.3333333333333,4,2,1,50,0,0
71167,-62.5,4,2,1,50,0,0
71489,-71.4285714285714,4,2,1,50,0,0
71811,-83.3333333333333,4,2,1,50,0,0
72133,-100,4,2,1,50,0,0
72455,-62.5,4,2,1,50,0,0
73422,-83.3333333333333,4,2,1,50,0,0
74066,-250,4,2,1,50,0,0
74710,-62.5,4,2,1,50,0,0
75354,-71.4285714285714,4,2,1,50,0,0
75998,-83.3333333333333,4,2,1,50,0,0
76522,632.244467860906,4,2,1,50,1,0
76640,-100,4,2,1,50,0,0
77786,644.19153961778,4,2,1,50,1,0
77786,-62.5,4,2,1,50,0,0
78873,-83.3333333333333,4,2,1,50,0,0
79839,-500,4,2,1,50,0,0
82912,-100,4,2,1,50,0,0
82926,638.297872340426,4,2,1,50,1,0
85498,639.318060735216,4,2,1,50,1,0
88055,643.776824034335,4,2,1,50,1,0
93205,647.249190938511,4,2,1,50,1,0

[Colours]
Combo1 : 153,0,96
Combo2 : 255,217,183

[HitObjects]
407,86,1910,6,0,B|422:34|482:-6|482:-6|432:-3|407:20,1,195,4|2,1:2|1:2,0:0:0:0:
297,88,2547,2,0,L|321:238,1,130,8|2,0:0|0:0,0:0:0:0:
354,280,3025,2,0,P|384:253|388:225,1,65,0|0,1:2|0:0,0:0:0:0:
291,161,3344,2,0,P|299:200|321:217,1,65,0|0,1:2|0:0,0:0:0:0:
404,145,3663,1,0,1:0:0:0:
318,215,3822,6,0,B|274:246|218:229|226:211|171:195|122:239,1,195,8|0,0:0|0:0,0:0:0:0:
76,287,4456,2,0,L|58:358,2,65,2|0|0,1:2|0:0|0:0,0:0:0:0:
37,217,4942,1,2,1:2:0:0:
114,168,5104,2,0,L|138:254,2,65,8|0|2,0:0|0:0|0:2,0:0:0:0:
107,60,5591,6,0,P|71:94|69:118,1,65,0|2,1:2|0:2,0:0:0:0:
190,144,5915,1,0,1:2:0:0:
295,103,6077,2,0,P|253:60|170:74,1,130,0|10,0:0|0:0,0:0:0:0:
259,242,6564,2,0,P|277:212|274:173,1,65,0|2,0:0|0:2,0:0:0:0:
131,230,6888,5,0,0:0:0:0:
124,242,6969,1,2,0:0:0:0:
122,256,7042,2,0,L|164:387,1,130,2|0,1:2|0:0,0:0:0:0:
223,317,7526,1,2,1:2:0:0:
83,378,7687,2,0,P|25:361|35:287,1,130,8|2,0:0|0:0,0:0:0:0:
128,154,8171,6,0,P|86:170|72:190,1,65,2|0,1:2|0:0,0:0:0:0:
22,299,8494,2,0,P|29:254|18:232,1,65,2|0,1:2|0:0,0:0:0:0:
0,163,8817,1,0,1:0:0:0:
131,230,8978,2,0,B|174:266|228:246|221:232|276:216|318:255,1,195,8|0,0:0|0:0,0:0:0:0:
353,319,9618,5,0,1:0:0:0:
258,333,9779,2,0,L|285:254,1,65,0|2,0:0|0:0,0:0:0:0:
345,178,10101,1,2,1:2:0:0:
426,191,10263,1,8,0:0:0:0:
426,191,10424,2,0,L|394:103,1,65,0|2,0:0|0:0,0:0:0:0:
401,23,10747,6,0,P|440:7|469:19,1,65,2|2,1:2|0:0,0:0:0:0:
291,121,11069,2,0,P|256:97|224:100,1,65,0|2,1:2|0:0,0:0:0:0:
234,96,11392,1,0,1:2:0:0:
340,70,11553,2,0,L|315:205,1,130,10|2,0:2|0:0,0:0:0:0:
308,320,12037,1,0,0:0:0:0:
301,336,12118,1,2,0:0:0:0:
288,349,12188,6,0,P|271:285|198:242,1,130,2|0,1:2|0:0,0:0:0:0:
172,380,12669,1,2,1:2:0:0:
115,313,12830,2,0,P|168:305|206:300,2,65,8|0|2,0:0|0:0|0:0,0:0:0:0:
6,384,13311,2,0,P|36:345|33:317,1,65,0|0,1:0|0:0,0:0:0:0:
20,203,13632,2,0,P|38:248|64:259,1,65,0|2,1:2|0:2,0:0:0:0:
95,192,13953,1,0,1:2:0:0:
62,62,14114,6,0,L|37:152,2,65,10|2|2,0:0|0:0|0:0,0:0:0:0:
153,43,14595,1,2,0:0:0:0:
148,22,14675,1,2,0:0:0:0:
131,7,14756,5,0,1:2:0:0:
214,91,14916,2,0,P|185:116|153:117,1,65,0|2,0:0|0:0,0:0:0:0:
291,76,15237,1,0,1:0:0:0:
291,76,15398,2,0,P|298:113|283:141,1,65,8|0,0:0|0:0,0:0:0:0:
312,3,15719,2,0,P|347:15|364:42,1,65,2|0,0:0|1:2,0:0:0:0:
353,212,16040,6,0,L|368:135,1,65,0|0,0:0|1:2,0:0:0:0:
278,259,16361,2,0,L|317:407,1,130,2|10,0:2|0:2,0:0:0:0:
447,183,16842,2,0,P|409:161|355:224,1,130
259,330,17352,6,0,B|201:366|152:335|169:314|107:305|71:345,1,195,2|2,1:2|1:2,0:0:0:0:
15,246,17995,2,0,P|2:206|16:176,1,65,8|0,0:0|0:0,0:0:0:0:
15,246,18317,1,2,0:0:0:0:
161,238,18478,6,0,L|136:310,1,65,0|0,1:0|0:0,0:0:0:0:
75,132,18800,2,0,L|100:204,1,65,0|2,1:2|0:2,0:0:0:0:
143,101,19122,1,0,1:2:0:0:
59,21,19283,5,10,0:2:0:0:
181,40,19444,2,0,L|157:108,1,65,2|2,0:2|0:2,0:0:0:0:
257,202,19766,1,0,0:0:0:0:
267,185,19846,1,0,0:0:0:0:
264,164,19927,6,0,P|216:139|171:249,1,195,0|0,1:0|1:0,0:0:0:0:
181,360,20566,1,8,0:0:0:0:
231,279,20726,2,0,L|243:320,2,32.5,2|0|2,0:0|0:0|0:0,0:0:0:0:
93,254,21045,6,0,P|136:229|171:246,1,77.999997619629,2|0,1:3|0:0,0:0:0:0:
323,181,21365,2,0,P|264:190|251:217,1,77.999997619629,2|0,1:3|0:0,0:0:0:0:
231,279,21685,1,2,1:2:0:0:
192,165,21844,6,0,L|170:87,2,77.999997619629,8|0|0,0:0|0:0|1:0,0:0:0:0:
291,332,22324,1,0,3:0:0:0:
291,332,22404,1,0,3:0:0:0:
291,332,22500,6,0,B|303:302|350:292|350:292|328:251|267:227|217:235|217:235|231:254|230:279,1,272.999991668701,4|0,1:1|1:0,0:0:0:0:
359,384,23143,6,0,L|394:202,1,181.999994445801,8|2,0:0|0:0,0:0:0:0:
354,142,23626,1,2,1:2:0:0:
385,47,23787,5,2,0:0:0:0:
308,27,23948,1,2,1:2:0:0:
251,77,24109,1,2,0:0:0:0:
164,50,24270,6,0,B|149:33|128:26|128:26|187:3|229:26|238:73,1,181.999994445801,2|0,1:2|0:0,0:0:0:0:
155,139,24753,2,0,P|118:123|104:99,1,65,2|0,0:0|0:0,0:0:0:0:
236,151,24995,1,2,0:0:0:0:
236,151,25075,6,0,B|196:225|231:300|288:245|267:379,1,233.999992858887,0|0,1:0|1:0,0:0:0:0:
164,315,25719,2,0,P|188:266|222:252,1,77.999997619629,8|0,0:0|0:0,0:0:0:0:
323,243,26036,6,0,L|402:258,1,77.999997619629,2|0,0:0|1:0,0:0:0:0:
236,151,26353,2,0,L|402:183,1,155.999995239258,2|2,0:0|0:0,0:0:0:0:
389,180,26830,1,0,1:0:0:0:
309,67,26988,6,0,P|324:116|308:140,1,77.999997619629,10|0,0:0|0:0,0:0:0:0:
233,226,27306,2,0,P|183:214|170:188,1,77.999997619629,2|0,0:0|0:0,0:0:0:0:
0,122,27642,6,0,B|18:90|75:99|63:117|127:161|215:122|206:26|103:-10|77:73,1,311.999990478516,0|8,1:0|0:0,0:0:0:0:
78,68,28455,1,0,0:0:0:0:
184,42,28617,6,0,B|219:19|228:-5|228:-5|213:20|179:34,1,130,2|0,0:0|0:0,0:0:0:0:
307,92,29105,2,0,B|281:84|271:71|271:71|285:84|307:85,1,77.999997619629,2|0,1:2|0:0,0:0:0:0:
307,92,29430,1,0,1:0:0:0:
360,209,29593,6,0,P|342:252|328:305,2,77.999997619629,8|2|0,0:0|0:0|1:0,0:0:0:0:
418,161,30081,1,2,0:0:0:0:
430,166,30162,1,2,0:0:0:0:
438,179,30243,2,0,B|394:207|355:187|365:174|314:151|283:196,1,155.999995239258,0|2,1:0|0:0,0:0:0:0:
224,215,30726,1,0,1:0:0:0:
275,318,30887,2,0,P|290:275|263:241,1,65,8|0,0:0|0:0,0:0:0:0:
208,208,31209,5,2,0:0:0:0:
112,178,31370,1,0,1:0:0:0:
81,260,31531,2,0,L|126:411,1,130,2|2,0:0|0:0,0:0:0:0:
6,257,32014,1,0,3:0:0:0:
9,235,32095,1,0,3:0:0:0:
19,217,32170,6,0,P|32:201|89:185,1,78,12|0,0:0|0:0,0:0:0:0:
216,80,32797,6,0,B|281:53|313:155|251:199|151:162|132:94,1,272.999991668701,4|0,1:0|0:0,0:0:0:0:
329,21,33441,2,0,P|296:57|293:88,2,77.999997619629,10|0|2,0:0|0:0|0:0,0:0:0:0:
393,109,33924,5,0,3:0:0:0:
382,93,34004,1,0,3:0:0:0:
370,86,34085,2,0,L|390:179,1,77.999997619629,2|0,1:2|0:0,0:0:0:0:
417,182,34407,2,0,L|401:243,1,52,2|10,1:2|0:2,0:0:0:0:
101,384,35051,6,0,B|72:345|101:298|116:309|145:248|92:215,1,181.999994445801,4|0,1:0|0:0,0:0:0:0:
96,218,35534,1,0,0:0:0:0:
134,320,35695,2,0,L|220:349,1,77.999997619629,2|0,1:2|0:0,0:0:0:0:
0,199,36017,6,0,P|48:211|105:92,1,181.999994445801,10|2,0:2|0:2,0:0:0:0:
14,0,36501,1,0,3:0:0:0:
3,9,36581,1,0,3:0:0:0:
0,25,36662,2,0,P|27:58|67:61,1,77.999997619629,2|0,1:2|0:0,0:0:0:0:
199,24,36984,2,0,P|245:23|277:43,1,77.999997619629,2|0,1:2|1:0,0:0:0:0:
327,100,37306,1,10,0:0:0:0:
327,100,37467,1,0,0:0:0:0:
398,73,37628,2,0,L|416:29,1,39,2|0,1:2|0:0,0:0:0:0:
409,29,37950,6,0,B|350:74|386:160|427:111|436:200,1,181.999994445801,4|2,1:0|0:0,0:0:0:0:
395,247,38433,1,0,0:0:0:0:
219,230,38594,2,0,P|257:215|303:201,1,77.999997619629,10|0,0:0|0:0,0:0:0:0:
186,164,38916,2,0,P|224:149|270:135,1,77.999997619629,2|0,0:0|3:0,0:0:0:0:
263,132,39158,1,0,3:0:0:0:
270,122,39239,5,2,1:3:0:0:
59,94,39561,1,8,0:0:0:0:
133,384,39883,1,0,1:0:0:0:
191,334,40205,2,0,L|182:301,1,32.5,4|0,1:2|0:0,0:0:0:0:
181,290,41096,6,0,B|205:219|205:219|210:218|210:218|234:134,1,162.5,2|0,0:3|0:0,0:0:0:0:
54,56,41559,1,0,3:0:0:0:
37,70,41637,1,0,3:0:0:0:
30,84,41712,6,0,B|89:140|172:89|146:65|236:25|305:85,1,292.50001115799,4|0,1:0|0:0,0:0:0:0:
412,157,42382,2,0,P|415:209|397:234,1,77.999997619629,8|0,0:0|0:0,0:0:0:0:
311,90,42702,6,0,L|341:192,1,90.9999972229005,0|0,0:0|3:0,0:0:0:0:
252,334,43022,1,0,1:0:0:0:
328,318,43182,1,0,3:0:0:0:
395,376,43342,5,0,1:0:0:0:
395,376,43502,1,0,1:0:0:0:
335,330,43662,2,0,P|378:301|409:304,1,77.999997619629,8|0,0:0|0:0,0:0:0:0:
196,214,43982,6,0,L|166:316,1,90.9999972229005,0|0,0:0|3:0,0:0:0:0:
165,307,44222,1,0,3:0:0:0:
157,314,44303,6,0,B|137:327|111:315|112:308|89:294|59:311,1,97.50000371933,0|0,1:0|3:0,0:0:0:0:
0,351,44623,1,0,1:0:0:0:
255,102,44959,6,0,P|211:218|218:399,1,292.50001115799,8|0,0:0|3:0,0:0:0:0:
351,287,45606,2,0,P|359:225|352:188,1,90.9999972229005,0|0,1:0|0:0,0:0:0:0:
331,129,45929,1,0,1:0:0:0:
331,129,46091,1,0,1:0:0:0:
194,223,46253,6,0,P|134:248|99:235,1,90.9999972229005,8|0,0:0|0:0,0:0:0:0:
0,53,46577,2,0,P|52:82|52:173,1,136.499995834351,0|0,0:0|3:0,0:0:0:0:
52,160,46900,6,0,L|30:259,1,77.999997619629,0|0,1:0|0:0,0:0:0:0:
126,365,47221,2,0,L|68:297,1,77.999997619629
0,304,47542,5,8,0:0:0:0:
191,38,47864,1,0,0:0:0:0:
254,83,48025,1,0,3:0:0:0:
261,94,48105,1,0,3:0:0:0:
267,110,48185,6,0,P|249:175|237:250,1,136.499995834351,0|0,1:0|0:0,0:0:0:0:
232,254,48505,1,0,1:0:0:0:
276,322,48665,1,0,1:0:0:0:
413,177,48825,1,8,0:0:0:0:
183,119,49145,6,0,P|133:118|109:143,1,77.999997619629,0|0,0:0|3:0,0:0:0:0:
105,138,49385,1,0,3:0:0:0:
97,143,49465,2,0,L|67:224,1,77.999997619629,0|0,1:0|3:0,0:0:0:0:
32,94,49785,1,0,1:0:0:0:
187,382,50106,6,0,L|153:175,1,181.999994445801,8|2,0:0|0:0,0:0:0:0:
61,309,50587,1,0,3:0:0:0:
74,321,50667,1,0,0:0:0:0:
88,328,50747,2,0,P|125:309|141:277,1,77.999997619629,2|0,1:2|3:0,0:0:0:0:
190,132,51068,2,0,P|246:111|286:121,1,77.999997619629,2|0,1:2|1:0,0:0:0:0:
336,139,51389,1,10,0:0:0:0:
58,2,51709,5,2,1:2:0:0:
4,81,51870,1,0,0:0:0:0:
12,94,51950,1,0,0:0:0:0:
29,103,52042,2,0,B|59:105|64:84|65:79|80:65|115:73,1,90.9999972229005,4|0,1:0|0:0,0:0:0:0:
251,40,52363,2,0,B|227:11|205:13|201:17|182:32|158:10,1,104,0|0,1:0|0:0,0:0:0:0:
27,275,52684,6,0,P|109:257|101:134,1,208,10|2,0:0|0:0,0:0:0:0:
277,303,53166,1,2,3:2:0:0:
267,322,53246,1,0,0:0:0:0:
251,333,53327,2,0,P|195:312|186:278,1,90.9999972229005,0|2,0:0|3:2,0:0:0:0:
219,220,53648,1,2,1:2:0:0:
219,220,53808,1,0,0:0:0:0:
302,384,53969,6,0,P|304:324|364:243,1,155.999995239258,10|0,0:0|0:0,0:0:0:0:
420,160,54451,1,2,3:2:0:0:
433,166,54531,1,0,3:0:0:0:
444,184,54611,2,0,B|396:236|338:206|353:189|279:177|248:230,1,208,2|2,1:2|1:2,0:0:0:0:
323,160,55097,1,2,0:0:0:0:
371,297,55259,6,0,P|389:354|397:389,1,90.9999972229005,8|0,0:0|0:0,0:0:0:0:
228,309,55583,2,0,P|246:252|254:217,1,90.9999972229005,0|0,0:0|3:0,0:0:0:0:
245,214,55827,1,0,3:0:0:0:
237,205,55908,1,0,1:0:0:0:
93,276,56070,1,0,0:0:0:0:
122,203,56232,6,0,P|159:224|166:267,1,77.999997619629,0|0,1:0|1:0,0:0:0:0:
220,314,56556,2,0,P|122:297|60:375,1,208,8|2,0:0|0:0,0:0:0:0:
323,375,57043,1,0,0:0:0:0:
305,358,57124,1,0,0:0:0:0:
304,343,57205,6,0,B|325:297|289:276|280:284|246:236|257:152|343:117|402:153|416:191|416:191|382:168|333:194,1,364,4|0,0:0|0:0,0:0:0:0:
370,251,57846,2,0,P|392:301|396:355,1,77.999997619629,8|0,0:0|0:0,0:0:0:0:
211,176,58167,6,0,P|184:219|135:228,1,104,2|0,0:0|3:0,0:0:0:0:
40,311,58488,2,0,L|70:401,1,77.999997619629,0|0,1:0|3:0,0:0:0:0:
9,103,58809,5,0,1:0:0:0:
9,103,58969,1,0,1:0:0:0:
102,56,59130,2,0,L|53:262,1,181.999994445801,8|0,0:0|1:0,0:0:0:0:
204,84,59610,1,0,3:0:0:0:
216,72,59691,1,0,3:0:0:0:
222,53,59771,2,0,P|190:11|154:8,1,77.999997619629,0|0,1:0|3:0,0:0:0:0:
380,0,60090,6,0,B|343:16|341:66|359:57|367:112|313:140,1,156,0|0,1:0|0:0,0:0:0:0:
304,128,60409,2,0,B|284:166|315:212|325:191|369:234|341:294,1,175.499994644165,10|0,0:0|0:0,0:0:0:0:
378,365,60728,2,0,P|346:322|275:325,1,116.999996429443,0|0,1:0|0:0,0:0:0:0:
281,325,60967,1,0,3:0:0:0:
276,334,61047,5,2,1:2:0:0:
71,172,61366,1,0,1:0:0:0:
71,172,61526,1,0,0:0:0:0:
158,189,61685,2,0,L|176:260,1,65,10|0,0:0|0:0,0:0:0:0:
220,105,62005,6,0,L|207:135,1,26,0|0,1:0|3:0,0:0:0:0:
15,68,62350,6,0,P|55:90|168:1,1,208,4|0,1:0|0:0,0:0:0:0:
376,119,62994,1,8,0:0:0:0:
345,33,63155,1,2,0:0:0:0:
226,200,63316,5,2,0:0:0:0:
299,160,63477,1,0,3:0:0:0:
307,174,63557,1,0,3:0:0:0:
310,191,63638,2,0,P|292:245|286:281,1,77.999997619629,2|0,1:2|0:0,0:0:0:0:
282,384,63960,2,0,B|284:349|249:323|248:341|206:314|213:265,1,136.499995834351,2|0,1:2|0:0,0:0:0:0:
198,270,64282,5,10,0:2:0:0:
126,0,64604,2,0,B|78:60|120:127|145:102|170:203|116:257,1,272.999991668701,6|0,1:2|0:0,0:0:0:0:
55,295,65248,2,0,B|41:314|19:313|19:313|39:301|56:273,1,90.9999972229005,0|0,1:0|0:0,0:0:0:0:
158,138,65570,6,0,P|200:113|229:117,1,77.999997619629,8|0,0:0|0:0,0:0:0:0:
278,64,65893,1,0,0:0:0:0:
383,183,66054,1,0,3:0:0:0:
393,197,66135,1,0,3:0:0:0:
399,211,66215,2,0,P|388:265|385:324,1,90.9999972229005,2|0,1:2|0:0,0:0:0:0:
240,384,66537,1,2,1:2:0:0:
184,331,66698,1,0,0:0:0:0:
225,173,66859,5,8,0:0:0:0:
158,138,67020,1,8,0:3:0:0:
99,185,67181,2,0,L|87:219,1,26,4|0,0:3|0:0,0:0:0:0:
46,383,67503,6,0,P|77:269|-11:71,1,312,4|0,1:0|0:0,0:0:0:0:
124,0,68147,2,0,P|66:5|45:31,1,90.9999972229005,8|0,0:0|0:0,0:0:0:0:
25,168,68469,5,2,0:0:0:0:
158,107,68630,1,0,3:0:0:0:
168,103,68711,1,0,3:0:0:0:
184,101,68791,2,0,P|229:108|276:125,1,77.999997619629,2|0,1:2|0:0,0:0:0:0:
302,52,69114,2,0,P|328:77|339:104,1,65,2|0,1:2|0:0,0:0:0:0:
391,163,69436,1,10,0:2:0:0:
391,163,69597,1,0,0:0:0:0:
431,0,69758,6,0,B|423:80|351:104|322:63|235:111|237:220,1,312,4|0,1:0|0:0,0:0:0:0:
328,290,70402,2,0,P|349:248|347:212,1,65,0|0,1:0|0:0,0:0:0:0:
130,237,70724,6,0,P|159:304|183:403,1,155.999995239258,8|0,0:0|1:0,0:0:0:0:
7,287,71208,1,0,0:0:0:0:
0,272,71288,1,0,3:0:0:0:
0,260,71368,6,0,P|36:258|80:308,2,69.3333333333333,8|8|8,0:3|0:3|0:3,0:0:0:0:
44,142,71690,6,0,P|70:166|74:202,2,60.666664815267,0|8|8,1:0|0:3|0:3,0:0:0:0:
143,71,72012,6,0,P|145:107|124:131,2,51.999998413086,8|4|4,0:3|0:3|0:3,0:0:0:0:
255,63,72334,6,0,P|230:89|202:93,2,43.3333333333333,4|4|4,0:3|0:3|0:3,0:0:0:0:
307,1,72656,6,0,B|352:32|347:99|327:83|303:149|352:189,1,208,4|2,1:0|0:0,0:0:0:0:
109,379,73301,1,10,0:0:0:0:
126,300,73462,1,2,0:0:0:0:
283,354,73623,6,0,P|334:367|368:376,1,77.999997619629,2|0,0:0|3:0,0:0:0:0:
366,369,73864,1,0,3:0:0:0:
375,362,73945,1,2,1:2:0:0:
153,176,74267,2,0,L|143:228,1,52,2|10,1:2|0:2,0:0:0:0:
33,14,74911,6,0,B|150:-7|202:94|74:153|262:229,1,312,4|0,1:0|0:0,0:0:0:0:
299,205,75555,2,0,B|316:201|334:183|334:183|324:211|302:220,1,90.9999972229005,0|0,1:0|0:0,0:0:0:0:
26,287,75878,5,8,0:0:0:0:
26,287,76039,1,0,0:0:0:0:
113,384,76200,2,0,P|101:330|98:298,1,77.999997619629,0|0,0:0|3:0,0:0:0:0:
103,299,76441,1,0,3:0:0:0:
111,288,76522,5,2,1:2:0:0:
228,329,76680,1,2,0:0:0:0:
290,294,76838,2,0,P|314:295|346:320,1,65,2|0,1:2|0:0,0:0:0:0:
205,126,77154,5,10,0:0:0:0:
127,209,77312,1,8,0:3:0:0:
47,74,77470,1,4,0:3:0:0:
238,57,77628,5,0,0:0:0:0:
257,54,77707,1,0,0:0:0:0:
273,64,77786,2,0,P|232:135|199:299,1,208,4|2,1:0|0:0,0:0:0:0:
394,326,78430,2,0,P|384:223|343:123,1,208,8|2,0:0|0:0,0:0:0:0:
226,377,78913,5,0,3:0:0:0:
217,366,78993,1,0,0:0:0:0:
216,351,79074,2,0,B|230:321|255:319|264:323|296:323|308:278,1,116.999996429443,2|0,1:2|0:0,0:0:0:0:
302,271,79396,5,10,0:2:0:0:
16,145,79718,1,2,1:2:0:0:
280,41,80040,6,0,L|221:245,1,208,6|0,1:2|0:0,0:0:0:0:
222,240,82926,5,0,1:0:0:0:
256,192,83005,12,0,90630,0:0:0:0:
