osu file format v14

[General]
AudioFilename: audio.mp3
AudioLeadIn: 0
PreviewTime: 41637
Countdown: 0
SampleSet: Soft
StackLeniency: 0.7
Mode: 0
LetterboxInBreaks: 0
WidescreenStoryboard: 1

[Editor]
Bookmarks: 22377,32693,41559,51870,62164,72455,82724
DistanceSpacing: 0.8
BeatDivisor: 8
GridSize: 16
TimelineZoom: 1.9

[Metadata]
Title:Duvet (TV Size)
TitleUnicode:Duvet (TV Size)
Artist:boa
ArtistUnicode:bôa
Creator:VenerableNyanta
Version:Hard
Source:serial experiments lain
Tags:シリアルエクスペリメンツレイン rock english anime alternative Nyanta she luv lando Kloster Sonnyc Le Mirai Cacturne storyboard opening sirmirai
BeatmapID:3187211
BeatmapSetID:1537881

[Difficulty]
HPDrainRate:4
CircleSize:3.5
OverallDifficulty:5
ApproachRate:7.4
SliderMultiplier:2.8
SliderTickRate:1

[Events]
//Background and Video events
0,0,"48578_serial_experiments_lain.jpg",0,0
//Break Periods
//Storyboard Layer 0 (Background)
Sprite,Background,Centre,"sb\f\_036.png",320,190 S,0,82912,,0.2 R,0,82912,,-0.02 R,0,82912,,0.01 F,0,82912,85465,1 R,0,83071,,-0.08 R,0,83230,,-0.02 R,0,83390,,-0.08 R,0,83549,,-0.06 R,0,83709,,0 R,0,83868,,0.07 R,0,84027,,-0.04 R,0,84187,,-0.08 R,0,84346,,0.06 R,0,84506,,-0.04 R,0,84665,,0.08 R,0,84824,,-0.03 R,0,84984,,0.03 R,0,85143,,0 R,0,85303,,0.08
Sprite,Background,Centre,"sb\f\_037.png",320,240 S,0,82912,,0.5 R,0,82912,,0.08 R,0,82912,,0.03 F,0,82912,85465,1 R,0,83071,,-0.02 R,0,83230,,0.06 R,0,83390,,-0.09 R,0,83549,,-0.03 R,0,83709,,-0.03 R,0,83868,,-0.05 R,0,84027,,0.08 R,0,84187,,0.05 R,0,84346,,-0.05 R,0,84506,,0.01 R,0,84665,,-0.07 R,0,84824,,0.08 R,0,84984,,0.03 R,0,85143,,0.02 R,0,85303,,0.01
Sprite,Background,Centre,"sb\f\_038.png",320,190 S,0,85465,,0.2 R,0,85465,,-0.05 R,0,85465,,0.07 F,0,85465,88018,1 R,0,85624,,-0.05 R,0,85783,,-0.03 R,0,85943,,0.01 R,0,86102,,0.01 R,0,86262,,0.04 R,0,86421,,0 R,0,86580,,0.08 R,0,86740,,-0.08 R,0,86899,,-0.01 R,0,87059,,-0.01 R,0,87218,,-0.02 R,0,87377,,0.06 R,0,87537,,-0.06 R,0,87696,,0.04 R,0,87856,,-0.07
Sprite,Background,Centre,"sb\f\_039.png",320,240 S,0,85465,,0.5 R,0,85465,,-0.01 R,0,85465,,-0.03 F,0,85465,88018,1 R,0,85624,,0.05 R,0,85783,,0.02 R,0,85943,,-0.03 R,0,86102,,-0.05 R,0,86262,,0.04 R,0,86421,,-0.07 R,0,86580,,-0.08 R,0,86740,,-0.02 R,0,86899,,-0.04 R,0,87059,,-0.04 R,0,87218,,-0.06 R,0,87377,,-0.08 R,0,87537,,-0.06 R,0,87696,,0.02 R,0,87856,,-0.03
Sprite,Background,Centre,"sb\f\_043.png",320,190 S,0,88018,,0.2 R,0,88018,,-0.07 R,0,88018,,0.04 F,0,88018,90571,1 R,0,88177,,-0.05 R,0,88336,,0.02 R,0,88496,,-0.03 R,0,88655,,-0.07 R,0,88815,,0.03 R,0,88974,,-0.03 R,0,89133,,-0.09 R,0,89293,,-0.04 R,0,89452,,0.07 R,0,89612,,0.05 R,0,89771,,0 R,0,89930,,0.07 R,0,90090,,-0.08 R,0,90249,,0.06 R,0,90409,,0.08
Sprite,Background,Centre,"sb\f\_044.png",320,240 S,0,88018,,0.5 R,0,88018,,-0.01 R,0,88018,,-0.04 F,0,88018,90571,1 R,0,88177,,0.06 R,0,88336,,0.08 R,0,88496,,0.06 R,0,88655,,0.02 R,0,88815,,0 R,0,88974,,-0.05 R,0,89133,,-0.01 R,0,89293,,-0.06 R,0,89452,,-0.02 R,0,89612,,-0.06 R,0,89771,,0.05 R,0,89930,,0.08 R,0,90090,,-0.04 R,0,90249,,0.05 R,0,90409,,-0.09
//Storyboard Layer 1 (Fail)
//Storyboard Layer 2 (Pass)
//Storyboard Layer 3 (Foreground)
Sprite,Foreground,Centre,"sb\px.png",234,130 R,0,71368,,0.03 C,0,71368,,219,169,61 P,0,71368,,A V,30,71368,71568,0,650,1,650
Sprite,Foreground,Centre,"sb\px.png",291,95 R,0,72012,,-0.01 C,0,72012,,219,169,61 P,0,72012,,A V,30,72012,72212,0,650,1,650
Sprite,Foreground,Centre,"sb\px.png",254,385 R,0,79074,,-0.01 C,0,79074,,219,169,61 P,0,79074,,A V,30,79074,79274,0,650,1,650
Sprite,Foreground,Centre,"sb\px.png",308,180 R,0,79396,,0.06 C,0,79396,,219,169,61 P,0,79396,,A V,30,79396,79596,0,650,1,650
Sprite,Foreground,Centre,"sb\px.png",155,324 R,0,79718,,0.01 C,0,79718,,219,169,61 P,0,79718,,A V,30,79718,79918,0,650,1,650
//Storyboard Layer 4 (Overlay)
//Storyboard Sound Samples

[TimingPoints]
323,621.761658031088,4,2,1,50,1,0
1910,637.619553666313,4,2,1,50,1,0
4456,648.648648648649,4,2,1,50,1,0
7042,645.50833781603,4,2,1,50,1,0
9618,645.161290322581,4,2,1,50,1,0
12188,642.054574638844,4,2,1,50,1,0
17352,643.776824034335,4,2,1,50,1,0
19927,639.318060735216,4,2,1,50,1,0
22500,643.949557284679,4,2,1,50,1,0
25719,634.920634920635,4,2,1,50,1,0
27642,650.406504065041,4,2,1,50,1,0
30243,644.19153961778,4,2,1,50,1,0
32170,644.19153961778,4,2,1,50,1,0
32797,644.19153961778,4,2,1,50,1,0
41096,618.556701030928,4,2,1,50,1,0
41712,652.173913043478,4,2,1,50,1,0
42382,640.34151547492,4,2,1,50,1,0
44959,647.249190938511,4,2,1,50,1,0
45848,-100,4,2,1,5,0,0
45929,-100,4,2,1,50,0,0
46900,642.914545941602,4,2,1,50,1,0
48185,640,4,2,1,50,1,0
49465,641.368252271513,4,2,1,50,1,0
52042,642.398286937902,4,2,1,50,1,0
54611,648.648648648649,4,2,1,50,1,0
57205,641.711229946524,4,2,1,50,1,0
59771,638.297872340426,4,2,1,50,1,0
62350,644.19153961778,4,2,1,50,1,0
62350,-83.3333333333333,4,2,1,50,0,0
76522,632.244467860906,4,2,1,50,1,0
76522,-83.3333333333333,4,2,1,50,0,0
77786,644.19153961778,4,2,1,50,1,0
77786,-83.3333333333333,4,2,1,50,0,0
80040,-142.857142857143,4,2,1,50,0,0
82926,638.297872340426,4,2,1,50,1,0
85498,639.318060735216,4,2,1,50,1,0
88055,643.776824034335,4,2,1,50,1,0
93205,647.249190938511,4,2,1,50,1,0

[Colours]
Combo1 : 157,4,9
Combo2 : 255,217,183

[HitObjects]
0,76,323,5,2,2:0:0:0:
56,144,633,1,2,2:0:0:0:
4,205,944,1,2,2:0:0:0:
72,251,1255,1,2,2:0:0:0:
22,316,1566,1,2,2:0:0:0:
28,324,1910,6,0,L|54:179,1,140,4|0,1:2|1:0,2:0:0:0:
22,94,2388,1,2,1:2:0:0:
60,192,2547,2,0,P|102:196|124:179,1,70,8|0,2:0|2:0,2:0:0:0:
208,99,2866,5,2,2:0:0:0:
202,104,3025,2,0,P|204:184|224:250,1,140,0|0,1:2|1:2,2:0:0:0:
369,214,3663,5,0,1:0:0:0:
331,294,3822,2,0,P|338:319|383:344,2,70,8|0|0,2:0|2:0|2:0,2:0:0:0:
226,344,4301,5,0,2:0:0:0:
224,335,4456,2,0,P|160:288|107:303,1,140,2|2,1:2|2:0,2:0:0:0:
31,352,4942,1,2,1:2:0:0:
111,309,5104,2,0,P|119:268|99:232,1,70,8|0,2:0|2:0,2:0:0:0:
28,158,5428,6,0,P|65:164|85:136,1,70,2|0,2:0|1:2,0:0:0:0:
156,69,5753,2,0,P|214:32|271:84,1,140,2|0,2:0|2:0,0:0:0:0:
267,164,6239,1,0,1:2:0:0:
178,177,6401,2,0,P|184:226|198:252,1,70,10|0,2:0|0:0,2:0:0:0:
293,298,6726,6,0,P|250:312|238:354,1,70,2|0,2:0|2:0,2:0:0:0:
156,348,7042,2,0,P|101:363|53:301,1,140,2|0,1:2|1:0,2:0:0:0:
119,237,7526,1,2,1:2:0:0:
39,298,7687,2,0,P|37:253|27:225,1,70,8|0,2:0|2:0,2:0:0:0:
0,146,8010,5,2,2:0:0:0:
54,64,8171,2,0,B|106:76|106:76|107:79|107:79|200:101,1,140,2|2,1:2|1:2,2:0:0:0:
335,30,8817,5,0,1:0:0:0:
321,115,8978,2,0,L|306:197,2,70,8|2|2,2:0|2:0|2:0,0:0:0:0:
416,89,9462,5,0,2:0:0:0:
416,89,9618,2,0,L|389:243,1,140,0|2,1:0|2:0,2:0:0:0:
290,260,10101,1,2,1:2:0:0:
389,244,10263,2,0,L|372:324,1,70,8|0,2:0|0:0,2:0:0:0:
254,350,10585,6,0,P|216:341|185:363,1,70,2|2,2:0|1:2,2:0:0:0:
97,297,10908,2,0,P|59:329|11:266,1,140,2|2,2:0|2:0,0:0:0:0:
74,196,11392,1,0,1:2:0:0:
4,251,11553,2,0,P|-5:209|-21:170,1,70,10|0,2:0|2:0,2:0:0:0:
77,92,11876,2,0,P|70:145|76:204,1,105,2|2,2:0|2:0,2:0:0:0:
83,203,12188,6,0,P|125:212|188:136,1,140,2|0,1:2|1:0,2:0:0:0:
209,47,12669,1,2,1:2:0:0:
195,138,12830,2,0,P|247:135|268:158,1,70,8|0,2:0|2:0,2:0:0:0:
274,234,13151,5,2,2:0:0:0:
350,181,13311,2,0,P|348:127|374:40,1,140,0|0,1:0|1:2,2:0:0:0:
199,14,13953,5,0,1:2:0:0:
140,90,14114,2,0,P|160:124|172:155,2,70,10|2|2,2:0|2:0|2:0,0:0:0:0:
36,102,14595,5,2,2:0:0:0:
36,102,14756,2,0,P|73:170|98:236,1,140,0|2,1:2|2:0,2:0:0:0:
1,264,15237,1,0,1:0:0:0:
99,241,15398,2,0,P|80:290|78:317,1,70,8|0,2:0|2:0,2:0:0:0:
188,318,15719,6,0,P|203:354|210:394,1,70,2|0,2:0|1:2,0:0:0:0:
269,294,16040,2,0,P|284:332|291:368,1,70,0|0,0:0|1:2,0:0:0:0:
360,263,16361,6,0,P|363:197|381:178,1,70,2|0,2:0|1:2,0:0:0:0:
395,115,16682,2,0,P|381:61|302:56,1,140,10|2,2:0|1:2,2:0:0:0:
291,138,17163,1,0,2:0:0:0:
226,203,17352,6,0,P|167:238|135:178,1,140,2|0,1:2|2:0,2:0:0:0:
117,94,17834,1,2,1:2:0:0:
120,189,17995,2,0,P|66:193|53:206,1,70,8|0,2:0|2:0,2:0:0:0:
15,293,18317,5,2,2:0:0:0:
96,340,18478,2,0,B|132:334|157:361|157:361|170:321|213:313,1,140,0|0,1:0|1:2,2:0:0:0:
367,348,19122,5,0,1:2:0:0:
375,250,19283,2,0,P|391:219|414:186,2,70,10|2|2,2:0|2:0|2:0,0:0:0:0:
278,244,19766,5,0,2:0:0:0:
278,244,19927,2,0,P|297:195|347:120,1,140,0|2,1:0|2:0,2:0:0:0:
408,34,20406,1,0,1:0:0:0:
348,130,20566,2,0,P|328:92|308:66,1,70,8|2,2:0|2:0,0:0:0:0:
220,47,20885,1,2,2:0:0:0:
120,23,21045,6,0,B|85:44|92:81|92:81|81:45|36:38,1,140,2|2,1:3|1:3,2:0:0:0:
235,151,21685,5,2,1:2:0:0:
173,204,21844,2,0,P|126:260|194:286,1,140,8|0,2:0|1:0,2:0:0:0:
250,361,22324,5,0,3:0:0:0:
267,354,22404,1,0,0:0:0:0:
283,345,22500,2,0,P|265:300|287:258,1,70,4|0,1:0|0:0,2:0:0:0:
261,186,22821,2,0,P|277:157|269:110,1,70,0|0,2:0|1:0,0:0:0:0:
338,65,23143,2,0,B|350:92|380:96|380:96|203:123,1,210,8|2,2:0|1:2,2:0:0:0:
127,65,23787,6,0,P|97:27|71:17,2,70,2|2|2,2:0|1:2|2:0,0:0:0:0:
46,111,24270,1,2,1:2:0:0:
117,160,24431,2,0,L|92:289,1,105,8|0,2:0|0:0,2:0:0:0:
94,286,24753,2,0,P|111:322|144:322,1,70,2|0,2:0|2:0,2:0:0:0:
201,255,25075,6,0,B|250:228|286:275|286:275|292:351|366:354,1,210,0|0,1:0|1:0,2:0:0:0:
386,262,25719,2,0,P|378:212|382:179,1,70,8|0,2:0|2:0,2:0:0:0:
390,56,26036,5,2,2:0:0:0:
241,84,26353,1,0,1:0:0:0:
85,119,26671,1,2,2:0:0:0:
192,4,26988,5,10,2:0:0:0:
292,167,27306,1,2,2:0:0:0:
197,345,27642,6,0,P|167:298|238:275,1,140,0|0,1:0|2:0,2:0:0:0:
304,338,28129,1,0,1:0:0:0:
375,269,28292,2,0,L|352:176,1,70,8|0,2:0|2:0,2:0:0:0:
268,129,28617,5,2,2:0:0:0:
317,53,28780,2,0,L|274:200,1,140,0|2,1:0|1:2,2:0:0:0:
62,248,29430,5,0,1:0:0:0:
149,303,29593,2,0,L|168:376,2,70,8|2|0,2:0|2:0|1:0,0:0:0:0:
147,189,30081,5,2,2:0:0:0:
152,195,30243,2,0,L|195:48,1,140,0|2,1:0|2:0,2:0:0:0:
298,163,30887,6,0,L|317:236,1,70,8|0,2:0|0:0,2:0:0:0:
394,291,31209,6,0,B|390:229|305:184|242:246|242:246|271:313|190:355|158:291,1,350,2|0,2:0|3:0,2:0:0:0:
70,246,32170,2,0,P|20:276|74:330,1,140,12|0,2:0|2:0,2:0:0:0:
153,193,32797,6,0,B|198:150|145:-19|39:34|56:106|154:115,1,280,4|10,1:0|2:0,2:0:0:0:
295,25,33763,1,2,2:0:0:0:
312,41,33924,1,0,3:0:0:0:
325,52,34085,6,0,L|303:127,1,70,2|0,1:2|2:0,2:0:0:0:
362,195,34407,2,0,L|385:268,1,70,2|0,1:2|1:0,2:0:0:0:
314,332,34729,1,10,2:0:0:0:
179,222,35051,6,0,B|145:190|83:233|123:291|288:320|271:149,1,280,4|2,1:0|1:2,2:0:0:0:
136,59,36017,2,0,P|151:107|177:121,1,70,10|0,2:0|2:0,2:0:0:0:
245,64,36340,1,2,2:0:0:0:
368,179,36662,5,2,1:2:0:0:
313,342,36984,1,2,1:2:0:0:
366,171,37306,1,10,2:0:0:0:
391,355,37628,1,2,1:2:0:0:
238,195,37950,6,0,B|212:155|66:189|127:295|182:259|167:192,1,210,4|0,1:0|2:0,2:0:0:0:
83,143,38594,2,0,P|44:153|48:241,1,140,10|2,2:0|2:0,2:0:0:0:
57,331,39077,2,0,P|77:370|148:322,1,140,0|0,3:0|0:0,0:0:0:0:
140,244,39561,5,8,2:0:0:0:
277,300,39883,1,0,1:0:0:0:
213,130,40205,1,4,1:2:0:0:
0,375,41096,5,2,2:3:0:0:
0,375,41712,6,0,P|10:327|104:305,1,140,4|0,1:0|1:0,2:0:0:0:
254,354,42382,2,0,P|295:371|345:296,1,140,8|2,2:0|2:0,2:0:0:0:
323,206,42862,5,0,3:0:0:0:
323,206,43022,2,0,P|287:228|262:215,1,70,0|0,1:0|3:0,2:0:0:0:
194,157,43342,2,0,P|153:146|123:161,1,70,0|0,1:0|1:0,2:0:0:0:
53,219,43662,2,0,P|43:156|21:68,1,140,8|2,2:0|2:0,2:0:0:0:
182,21,44303,5,0,1:0:0:0:
141,159,44623,1,0,1:0:0:0:
289,228,44959,5,10,2:0:0:0:
253,99,45282,1,2,2:0:0:0:
404,18,45606,6,0,P|382:76|367:163,1,140,2|0,1:2|1:0,2:0:0:0:
395,332,46253,2,0,P|354:315|411:263,1,140,8|2,2:0|2:0,2:0:0:0:
246,327,46900,1,0,1:0:0:0:
246,327,47542,6,0,P|215:275|142:271,1,140,8|2,2:0|2:0,2:0:0:0:
44,307,48025,1,0,3:0:0:0:
44,307,48185,2,0,P|62:273|57:240,1,70,0|0,1:0|3:0,0:0:0:0:
1,173,48505,2,0,P|3:122|27:100,1,70,0|0,1:0|1:0,0:0:0:0:
114,76,48825,2,0,P|155:89|218:58,1,105,8|0,2:0|0:0,2:0:0:0:
219,53,49145,1,2,2:0:0:0:
349,46,49465,5,0,1:0:0:0:
301,199,49785,1,0,1:0:0:0:
325,44,50106,1,8,2:0:0:0:
416,186,50427,5,2,2:0:0:0:
290,136,50747,1,2,1:2:0:0:
157,185,51068,1,2,1:2:0:0:
121,325,51389,1,10,2:0:0:0:
289,317,51709,6,0,L|310:260,2,46.6666666666667,2|2|2,1:2|2:0|2:0,0:0:0:0:
282,336,52042,1,4,1:0:0:0:
129,302,52363,1,0,1:0:0:0:
208,177,52684,6,0,P|207:139|163:27,1,140,10|2,2:0|2:0,2:0:0:0:
69,70,53166,2,0,P|70:108|114:220,1,140,2|2,3:2|3:2,2:0:0:0:
157,295,53647,6,0,P|198:333|215:270,1,140,2|10,1:2|2:0,2:0:0:0:
208,177,54129,2,0,P|241:122|258:167,1,140,2|2,2:0|3:2,2:0:0:0:
322,253,54611,6,0,B|338:264|357:265|357:265|361:198|410:172,1,140,2|2,1:2|1:2,2:0:0:0:
369,75,55097,6,0,B|343:76|320:99|320:99|93:26,1,280,2|0,2:0|3:0,2:0:0:0:
7,0,55908,1,0,1:0:0:0:
103,138,56232,6,0,P|114:184|97:208,1,70,0|0,1:0|1:0,2:0:0:0:
39,270,56556,2,0,P|41:311|81:314,1,70,8|0,2:0|2:0,2:0:0:0:
164,324,56881,2,0,B|177:241|259:205|332:227|332:227|315:264|333:292,1,278.273333333333,2|0,2:0|1:0,2:0:0:0:
389,143,57846,2,0,B|381:127|378:110|378:110|321:77|285:127,1,140,8|2,2:0|2:0,2:0:0:0:
285,126,58809,6,0,P|275:82|217:3,2,140,0|8|0,1:0|2:0|1:0,2:0:0:0:
140,220,59771,1,0,1:0:0:0:
67,81,60090,5,0,1:0:0:0:
125,254,60409,1,10,2:0:0:0:
157,47,60728,5,0,1:0:0:0:
101,249,61047,1,2,1:2:0:0:
48,22,61366,5,0,1:0:0:0:
125,254,61685,1,10,2:0:0:0:
193,96,62005,5,2,1:2:0:0:
204,86,62164,1,0,3:0:0:0:
221,73,62350,2,0,B|264:57|291:111|291:111|318:160|367:144,1,168,4|0,1:0|2:0,2:0:0:0:
338,321,62994,2,0,P|324:264|292:154,1,168,8|2,2:0|2:0,0:0:0:0:
208,92,63477,5,0,3:0:0:0:
194,79,63638,2,0,P|149:81|128:117,1,84,2|0,1:2|2:0,2:0:0:0:
41,166,63960,2,0,P|74:183|58:240,1,84,2|0,1:2|1:0,2:0:0:0:
131,302,64282,1,10,2:0:0:0:
293,159,64604,6,0,B|381:115|450:209|392:296|325:274|333:222,1,252,6|0,1:2|0:0,2:0:0:0:
234,241,65248,2,0,B|160:256|121:193|121:193|90:197|87:226,2,168,0|8|0,1:0|2:0|2:0,2:0:0:0:
380,381,66215,6,0,P|357:346|310:347,1,84,2|0,1:2|0:0,2:0:0:0:
230,339,66537,2,0,P|197:371|165:355,1,84,2|0,1:2|2:0,2:0:0:0:
60,366,66859,1,8,2:0:0:0:
0,177,67181,6,0,P|42:194|31:234,1,84,4|2,2:3|2:3,2:0:0:0:
101,285,67503,2,0,P|151:240|259:219,1,168,4|2,1:0|2:0,2:0:0:0:
368,26,68147,6,0,P|366:75|379:114,1,84,8|0,2:0|2:0,2:0:0:0:
293,125,68469,2,0,P|281:71|284:21,1,84,2|0,2:0|3:0,2:0:0:0:
175,77,68791,6,0,P|127:91|132:-3,2,168,2|2|10,1:2|1:2|2:0,2:0:0:0:
377,17,69758,6,0,B|409:94|352:131|352:131|290:172|334:248,1,252,4|0,1:0|2:0,2:0:0:0:
308,354,70402,2,0,P|255:309|230:321,1,84,0|0,1:0|0:0,2:0:0:0:
154,340,70724,2,0,P|96:350|119:273,1,168,8|0,2:0|1:0,2:0:0:0:
170,74,71368,6,0,P|204:68|220:49,5,56,8|8|8|8|8|8,2:3|2:3|2:3|2:3|2:3|2:3,0:0:0:0:
227,39,72012,6,0,P|250:23|286:27,5,56,8|4|4|4|4|4,2:3|2:3|2:3|2:3|2:3|2:3,0:0:0:0:
300,34,72657,6,0,P|290:110|321:230,1,168,4|2,1:0|2:0,2:0:0:0:
331,364,73301,2,0,P|338:312|244:333,1,168,10|2,2:0|2:0,0:0:0:0:
152,336,73784,5,0,3:0:0:0:
139,343,73945,2,0,P|99:323|99:281,1,84,2|0,1:2|2:0,2:0:0:0:
32,218,74267,2,0,P|56:168|79:163,1,84,2|0,1:2|1:0,2:0:0:0:
168,101,74589,2,0,P|187:142|197:181,1,84,10|0,2:0|2:0,2:0:0:0:
326,243,74911,6,0,B|343:246|352:224|352:224|334:98|383:2,1,252,4|0,1:0|0:0,2:0:0:0:
278,0,75555,2,0,B|219:44|155:-2|155:-2|130:13|136:48,2,168,0|8|0,1:0|2:0|2:0,2:0:0:0:
411,176,76522,6,0,P|370:210|329:184,1,84,2|2,1:2|2:0,0:0:0:0:
270,143,76838,2,0,P|226:169|233:203,1,84,2|0,1:2|2:0,2:0:0:0:
289,268,77154,2,0,P|269:303|259:357,1,84,10|8,2:0|2:3,2:0:0:0:
161,382,77470,6,0,P|170:331|136:284,1,84,4|0,2:3|2:0,2:0:0:0:
75,204,77786,2,0,B|92:211|110:228|110:228|174:184|247:197,1,168,4|2,1:0|2:0,2:0:0:0:
375,374,78430,6,0,P|373:324|386:285,1,84,8|0,2:0|0:0,2:0:0:0:
300,275,78752,2,0,P|288:328|291:378,1,84,2|0,2:0|3:0,2:0:0:0:
190,329,79074,5,2,1:2:0:0:
244,124,79396,1,10,2:0:0:0:
91,268,79718,5,2,1:2:0:0:
333,142,80040,2,0,B|382:184|433:117|394:36|292:25|246:113|246:113|208:203|69:187|2:94|34:-1|159:-22|163:67|163:67|174:39|207:24,1,734.999999999999,6|0,1:2|0:0,2:0:0:0:
280,208,82926,5,0,1:0:0:0:
256,192,83005,12,0,90630,2:0:0:0:
