osu file format v14

[General]
AudioFilename: audio.mp3
AudioLeadIn: 0
PreviewTime: 41637
Countdown: 0
SampleSet: Soft
StackLeniency: 0.7
Mode: 0
LetterboxInBreaks: 0
WidescreenStoryboard: 1

[Editor]
Bookmarks: 22364,32693,41559,51870,62164,72442,82724
DistanceSpacing: 0.8
BeatDivisor: 8
GridSize: 16
TimelineZoom: 1.9

[Metadata]
Title:Duvet (TV Size)
TitleUnicode:Duvet (TV Size)
Artist:boa
ArtistUnicode:bôa
Creator:VenerableNyanta
Version:Falling
Source:serial experiments lain
Tags:シリアルエクスペリメンツレイン rock english anime alternative Nyanta she luv lando Kloster Sonnyc Le Mirai Cacturne storyboard opening sirmirai
BeatmapID:3144373
BeatmapSetID:1537881

[Difficulty]
HPDrainRate:6
CircleSize:5
OverallDifficulty:8.7
ApproachRate:9.2
SliderMultiplier:3
SliderTickRate:1

[Events]
//Background and Video events
0,0,"48578_serial_experiments_lain.jpg",0,0
//Break Periods
//Storyboard Layer 0 (Background)
Sprite,Background,Centre,"sb\f\_036.png",320,190 S,0,82912,,0.2 R,0,82912,,-0.02 R,0,82912,,0.01 F,0,82912,85465,1 R,0,83071,,-0.08 R,0,83230,,-0.02 R,0,83390,,-0.08 R,0,83549,,-0.06 R,0,83709,,0 R,0,83868,,0.07 R,0,84027,,-0.04 R,0,84187,,-0.08 R,0,84346,,0.06 R,0,84506,,-0.04 R,0,84665,,0.08 R,0,84824,,-0.03 R,0,84984,,0.03 R,0,85143,,0 R,0,85303,,0.08
Sprite,Background,Centre,"sb\f\_037.png",320,240 S,0,82912,,0.5 R,0,82912,,0.08 R,0,82912,,0.03 F,0,82912,85465,1 R,0,83071,,-0.02 R,0,83230,,0.06 R,0,83390,,-0.09 R,0,83549,,-0.03 R,0,83709,,-0.03 R,0,83868,,-0.05 R,0,84027,,0.08 R,0,84187,,0.05 R,0,84346,,-0.05 R,0,84506,,0.01 R,0,84665,,-0.07 R,0,84824,,0.08 R,0,84984,,0.03 R,0,85143,,0.02 R,0,85303,,0.01
Sprite,Background,Centre,"sb\f\_038.png",320,190 S,0,85465,,0.2 R,0,85465,,-0.05 R,0,85465,,0.07 F,0,85465,88018,1 R,0,85624,,-0.05 R,0,85783,,-0.03 R,0,85943,,0.01 R,0,86102,,0.01 R,0,86262,,0.04 R,0,86421,,0 R,0,86580,,0.08 R,0,86740,,-0.08 R,0,86899,,-0.01 R,0,87059,,-0.01 R,0,87218,,-0.02 R,0,87377,,0.06 R,0,87537,,-0.06 R,0,87696,,0.04 R,0,87856,,-0.07
Sprite,Background,Centre,"sb\f\_039.png",320,240 S,0,85465,,0.5 R,0,85465,,-0.01 R,0,85465,,-0.03 F,0,85465,88018,1 R,0,85624,,0.05 R,0,85783,,0.02 R,0,85943,,-0.03 R,0,86102,,-0.05 R,0,86262,,0.04 R,0,86421,,-0.07 R,0,86580,,-0.08 R,0,86740,,-0.02 R,0,86899,,-0.04 R,0,87059,,-0.04 R,0,87218,,-0.06 R,0,87377,,-0.08 R,0,87537,,-0.06 R,0,87696,,0.02 R,0,87856,,-0.03
Sprite,Background,Centre,"sb\f\_043.png",320,190 S,0,88018,,0.2 R,0,88018,,-0.07 R,0,88018,,0.04 F,0,88018,90571,1 R,0,88177,,-0.05 R,0,88336,,0.02 R,0,88496,,-0.03 R,0,88655,,-0.07 R,0,88815,,0.03 R,0,88974,,-0.03 R,0,89133,,-0.09 R,0,89293,,-0.04 R,0,89452,,0.07 R,0,89612,,0.05 R,0,89771,,0 R,0,89930,,0.07 R,0,90090,,-0.08 R,0,90249,,0.06 R,0,90409,,0.08
Sprite,Background,Centre,"sb\f\_044.png",320,240 S,0,88018,,0.5 R,0,88018,,-0.01 R,0,88018,,-0.04 F,0,88018,90571,1 R,0,88177,,0.06 R,0,88336,,0.08 R,0,88496,,0.06 R,0,88655,,0.02 R,0,88815,,0 R,0,88974,,-0.05 R,0,89133,,-0.01 R,0,89293,,-0.06 R,0,89452,,-0.02 R,0,89612,,-0.06 R,0,89771,,0.05 R,0,89930,,0.08 R,0,90090,,-0.04 R,0,90249,,0.05 R,0,90409,,-0.09
//Storyboard Layer 1 (Fail)
//Storyboard Layer 2 (Pass)
//Storyboard Layer 3 (Foreground)
Sprite,Foreground,Centre,"sb\px.png",252,395 R,0,71368,,0.03 C,0,71368,,219,169,61 P,0,71368,,A V,30,71368,71568,0,650,1,650
Sprite,Foreground,Centre,"sb\px.png",259,325 R,0,71476,,-0.01 C,0,71476,,219,169,61 P,0,71476,,A V,30,71476,71676,0,650,1,650
Sprite,Foreground,Centre,"sb\px.png",308,278 R,0,71583,,-0.01 C,0,71583,,219,169,61 P,0,71583,,A V,30,71583,71783,0,650,1,650
Sprite,Foreground,Centre,"sb\px.png",376,271 R,0,71690,,0.06 C,0,71690,,219,169,61 P,0,71690,,A V,30,71690,71890,0,650,1,650
Sprite,Foreground,Centre,"sb\px.png",436,308 R,0,71798,,0.01 C,0,71798,,219,169,61 P,0,71798,,A V,30,71798,71998,0,650,1,650
Sprite,Foreground,Centre,"sb\px.png",458,372 R,0,71905,,0.05 C,0,71905,,219,169,61 P,0,71905,,A V,30,71905,72105,0,650,1,650
Sprite,Foreground,Centre,"sb\px.png",420,427 R,0,72012,,-0.03 C,0,72012,,219,169,61 P,0,72012,,A V,30,72012,72212,0,650,1,650
Sprite,Foreground,Centre,"sb\px.png",409,389 R,0,72120,,0.02 C,0,72120,,219,169,61 P,0,72120,,A V,30,72120,72320,0,650,2,650
Sprite,Foreground,Centre,"sb\px.png",414,350 R,0,72227,,0.02 C,0,72227,,219,169,61 P,0,72227,,A V,30,72227,72427,0,650,1,650
Sprite,Foreground,Centre,"sb\px.png",434,316 R,0,72334,,0.06 C,0,72334,,219,169,61 P,0,72334,,A V,30,72334,72534,0,650,1,650
Sprite,Foreground,Centre,"sb\px.png",462,287 R,0,72442,,-0.08 C,0,72442,,219,169,61 P,0,72442,,A V,30,72442,72642,0,650,1,650
Sprite,Foreground,Centre,"sb\px.png",478,251 R,0,72549,,-0.05 C,0,72549,,219,169,61 P,0,72549,,A V,30,72549,72749,0,650,2,650
Sprite,Foreground,Centre,"sb\px.png",442,260 R,0,79074,,-0.03 C,0,79074,,219,169,61 P,0,79074,,A V,30,79074,79274,0,650,2,650
Sprite,Foreground,Centre,"sb\px.png",360,259 R,0,79396,,0.01 C,0,79396,,219,169,61 P,0,79396,,A V,30,79396,79596,0,650,2,650
Sprite,Foreground,Centre,"sb\px.png",289,302 R,0,79718,,-0.05 C,0,79718,,219,169,61 P,0,79718,,A V,30,79718,79918,0,650,2,650
//Storyboard Layer 4 (Overlay)
//Storyboard Sound Samples

[TimingPoints]
323,621.761658031088,4,2,1,50,1,0
1910,637.619553666313,4,2,1,50,1,0
1910,-62.5,4,2,1,50,0,0
2547,-83.3333333333333,4,2,1,50,0,0
3344,-142.857142857143,4,2,1,50,0,0
3822,-66.6666666666667,4,2,1,50,0,0
4456,648.648648648649,4,2,1,50,1,0
4456,-90.9090909090909,4,2,1,50,0,0
6401,-66.6666666666667,4,2,1,50,0,0
6726,-111.111111111111,4,2,1,50,0,0
7042,645.50833781603,4,2,1,50,1,0
7042,-62.5,4,2,1,50,0,0
7687,-76.9230769230769,4,2,1,50,0,0
8171,-71.4285714285714,4,2,1,50,0,0
9618,645.161290322581,4,2,1,50,1,0
9618,-111.111111111111,4,2,1,50,0,0
10263,-66.6666666666667,4,2,1,50,0,0
10585,-142.857142857143,4,2,1,50,0,0
10747,-90.9090909090909,4,2,1,50,0,0
11553,-66.6666666666667,4,2,1,50,0,0
11876,-90.9090909090909,4,2,1,50,0,0
12188,642.054574638844,4,2,1,50,1,0
12188,-66.6666666666667,4,2,1,50,0,0
14756,-83.3333333333333,4,2,1,50,0,0
15398,-71.4285714285714,4,2,1,50,0,0
16682,-66.6666666666667,4,2,1,50,0,0
17003,-111.111111111111,4,2,1,50,0,0
17352,643.776824034335,4,2,1,50,1,0
17352,-62.5,4,2,1,50,0,0
18478,-76.9230769230769,4,2,1,50,0,0
19927,639.318060735216,4,2,1,50,1,0
19927,-90.9090909090909,4,2,1,50,0,0
20246,-142.857142857143,4,2,1,50,0,0
21045,-83.3333333333333,4,2,1,50,0,0
21365,-111.111111111111,4,2,1,50,0,0
21844,-249.999999999999,4,2,1,50,0,0
22500,643.949557284679,4,2,1,50,1,0
22500,-62.5,4,2,1,50,0,0
23143,-83.3333333333333,4,2,1,50,0,0
24431,-166.666666666667,4,2,1,50,0,0
24753,-83.3333333333333,4,2,1,50,0,0
25075,-71.4285714285714,4,2,1,50,0,0
25397,-83.3333333333333,4,2,1,50,0,0
25719,634.920634920635,4,2,1,50,1,0
25719,-71.4285714285714,4,2,1,50,0,0
26036,-58.8235294117647,4,2,1,50,0,0
26353,-62.5,4,2,1,50,0,0
26671,-66.6666666666667,4,2,1,50,0,0
26988,-76.9230769230769,4,2,1,50,0,0
27306,-90.9090909090909,4,2,1,50,0,0
27642,650.406504065041,4,2,1,50,1,0
27642,-71.4285714285714,4,2,1,50,0,0
28292,-55.5555555555556,4,2,1,50,0,0
28780,-83.3333333333333,4,2,1,50,0,0
30243,644.19153961778,4,2,1,50,1,0
30243,-83.3333333333333,4,2,1,50,0,0
30887,-62.5,4,2,1,50,0,0
31209,-55.5555555555556,4,2,1,50,0,0
32170,644.19153961778,4,2,1,50,1,0
32170,-166.666666666667,4,2,1,50,0,0
32492,-250.000000000001,4,2,1,50,0,0
32797,644.19153961778,4,2,1,50,1,0
32797,-55.5555555555556,4,2,1,50,0,0
33441,-83.3333333333333,4,2,1,50,0,0
34085,-55.5555555555556,4,2,1,50,0,0
35051,-52.6315789473684,4,2,1,50,0,0
35695,-76.9230769230769,4,2,1,50,0,0
36017,-90.9090909090909,4,2,1,50,0,0
36662,-66.6666666666667,4,2,1,50,0,0
37628,-76.9230769230769,4,2,1,50,0,0
37950,-52.6315789473684,4,2,1,50,0,0
38272,-76.9230769230769,4,2,1,50,0,0
38594,-62.5,4,2,1,50,0,0
38916,-125,4,2,1,50,0,0
39238,-76.9230769230769,4,2,1,50,0,0
39561,-90.9090909090909,4,2,1,50,0,0
40205,-500,4,2,1,50,0,0
41096,618.556701030928,4,2,1,50,1,0
41096,-166.666666666667,4,2,1,50,0,0
41712,652.173913043478,4,2,1,50,1,0
41712,-50,4,2,1,50,0,0
42038,-71.4285714285714,4,2,1,50,0,0
42382,640.34151547492,4,2,1,50,1,0
42382,-71.4285714285714,4,2,1,50,0,0
43022,-90.9090909090909,4,2,1,50,0,0
43662,-76.9230769230769,4,2,1,50,0,0
43982,-125,4,2,1,50,0,0
44303,-90.9090909090909,4,2,1,50,0,0
44623,-142.857142857143,4,2,1,50,0,0
44959,647.249190938511,4,2,1,50,1,0
44959,-83.3333333333333,4,2,1,50,0,0
45282,-100,4,2,1,50,0,0
45606,-55.5555555555556,4,2,1,50,0,0
45848,-100,4,2,1,5,0,0
45929,-71.4285714285714,4,2,1,50,0,0
46253,-66.6666666666667,4,2,1,50,0,0
46577,-142.857142857143,4,2,1,50,0,0
46900,642.914545941602,4,2,1,50,1,0
46900,-200,4,2,1,50,0,0
47542,-76.9230769230769,4,2,1,50,0,0
48185,640,4,2,1,50,1,0
48825,-76.9230769230769,4,2,1,50,0,0
49465,641.368252271513,4,2,1,50,1,0
49465,-76.9230769230769,4,2,1,50,0,0
49785,-142.857142857143,4,2,1,50,0,0
50106,-90.9090909090909,4,2,1,50,0,0
50427,-55.5555555555556,4,2,1,50,0,0
50747,-62.5,4,2,1,50,0,0
51068,-71.4285714285714,4,2,1,50,0,0
51389,-83.3333333333333,4,2,1,50,0,0
52042,642.398286937902,4,2,1,50,1,0
52042,-83.3333333333333,4,2,1,50,0,0
52684,-55.5555555555556,4,2,1,50,0,0
54611,648.648648648649,4,2,1,50,1,0
54611,-55.5555555555556,4,2,1,50,0,0
54935,-50,4,2,1,50,0,0
56232,-125,4,2,1,50,0,0
56556,-71.4285714285714,4,2,1,50,0,0
56881,-62.5,4,2,1,50,0,0
57205,641.711229946524,4,2,1,50,1,0
57525,-166.666666666667,4,2,1,50,0,0
57846,-83.3333333333333,4,2,1,50,0,0
58167,-71.4285714285714,4,2,1,50,0,0
58488,-111.111111111111,4,2,1,50,0,0
58809,-83.3333333333333,4,2,1,50,0,0
59130,-76.9230769230769,4,2,1,50,0,0
59771,638.297872340426,4,2,1,50,1,0
59771,-142.857142857143,4,2,1,50,0,0
60090,-62.5,4,2,1,50,0,0
60409,-166.666666666667,4,2,1,50,0,0
60728,-62.5,4,2,1,50,0,0
61047,-166.666666666667,4,2,1,50,0,0
61366,-62.5,4,2,1,50,0,0
61685,-166.666666666667,4,2,1,50,0,0
62350,644.19153961778,4,2,1,50,1,0
62350,-50,4,2,1,50,0,0
62672,-83.3333333333333,4,2,1,50,0,0
63638,-66.6666666666667,4,2,1,50,0,0
65248,-142.857142857143,4,2,1,50,0,0
66215,-66.6666666666667,4,2,1,50,0,0
66537,-90.9090909090909,4,2,1,50,0,0
66859,-76.9230769230769,4,2,1,50,0,0
67181,-142.857142857143,4,2,1,50,0,0
67503,-47.6190476190476,4,2,1,50,0,0
67825,-83.3333333333333,4,2,1,50,0,0
68147,-62.5,4,2,1,50,0,0
68469,-100,4,2,1,50,0,0
68791,-62.5,4,2,1,50,0,0
69114,-83.3333333333333,4,2,1,50,0,0
69758,-58.8235294117647,4,2,1,50,0,0
70402,-142.857142857143,4,2,1,50,0,0
71046,-83.3333333333334,4,2,1,50,0,0
72657,-50,4,2,1,50,0,0
72979,-125,4,2,1,50,0,0
73945,-83.3333333333333,4,2,1,50,0,0
74911,-66.6666666666667,4,2,1,50,0,0
75555,-111.111111111111,4,2,1,50,0,0
76522,632.244467860906,4,2,1,50,1,0
76838,-111.111111111111,4,2,1,50,0,0
77154,-76.9230769230769,4,2,1,50,0,0
77786,644.19153961778,4,2,1,50,1,0
77786,-50,4,2,1,50,0,0
78108,-83.3333333333333,4,2,1,50,0,0
78430,-62.5,4,2,1,50,0,0
78752,-125,4,2,1,50,0,0
79074,-83.3333333333333,4,2,1,50,0,0
79396,-166.666666666667,4,2,1,50,0,0
79718,-83.3333333333333,4,2,1,50,0,0
80040,-1000,4,2,1,50,0,0
82926,638.297872340426,4,2,1,50,1,0
85498,639.318060735216,4,2,1,50,1,0
88055,643.776824034335,4,2,1,50,1,0
93205,647.249190938511,4,2,1,50,1,0

[Colours]
Combo1 : 157,4,9
Combo2 : 255,217,183

[HitObjects]
26,204,323,5,2,2:0:0:0:
77,262,633,1,2,2:0:0:0:
40,316,944,1,2,2:0:0:0:
54,333,1255,1,2,2:0:0:0:
50,343,1566,1,2,2:0:0:0:
344,367,1910,6,0,B|380:388|421:335|383:270|310:272|284:320|284:320|289:347|265:367,1,240,4|0,1:2|1:0,2:0:0:0:
200,318,2388,5,2,1:2:0:0:
267,165,2547,2,0,P|271:200|227:230,1,90,8|0,2:0|2:0,2:0:0:0:
69,136,2866,5,2,2:0:0:0:
138,237,3025,2,0,B|152:255|149:276|149:276|103:304|110:370,1,135,0|0,1:2|2:0,2:0:0:0:
132,351,3344,6,0,P|127:322|88:323,1,52.4999999999999,0|0,1:2|2:0,2:0:0:0:
0,260,3663,5,0,1:0:0:0:
185,180,3822,2,0,B|186:169|190:156|190:156|165:104|108:129,1,112.5,8|0,2:0|2:0,2:0:0:0:
17,276,4141,6,0,P|61:242|37:176,1,112.5,0|0,2:0|2:0,2:0:0:0:
0,62,4380,5,2,2:0:0:0:
6,77,4456,2,0,P|42:93|77:52,1,82.5,2|0,1:2|2:0,2:0:0:0:
179,177,4780,5,2,2:0:0:0:
280,39,4942,1,2,1:2:0:0:
142,104,5104,2,0,P|175:85|221:103,1,82.5,8|0,2:0|2:0,2:0:0:0:
374,237,5428,5,2,2:0:0:0:
307,167,5591,1,0,1:2:0:0:
289,256,5753,1,2,2:0:0:0:
422,144,5915,6,0,P|413:116|358:80,1,82.5,0|0,1:2|2:0,2:0:0:0:
273,35,6239,5,0,1:2:0:0:
412,162,6401,2,0,P|385:101|287:125,1,168.75,10|0,2:0|2:0,2:0:0:0:
304,119,6726,6,0,P|272:148|244:132,1,67.5000000000001,2|0,2:0|2:0,2:0:0:0:
179,32,6969,5,2,2:0:0:0:
190,27,7042,2,0,B|217:83|175:162|92:168|92:168|79:144|56:134,1,240,2|0,1:2|1:0,2:0:0:0:
0,69,7526,5,2,1:2:0:0:
24,271,7687,2,0,P|-2:223|48:202,1,97.5,8|0,2:0|2:0,2:0:0:0:
152,316,8010,5,2,2:0:0:0:
104,141,8171,6,0,B|108:122|99:104|99:104|106:95|106:95|120:123|115:159,1,105,2|0,1:2|2:0,2:0:0:0:
111,131,8494,6,0,B|115:112|106:94|106:94|113:85|113:85|127:113|122:149,1,105,2|0,1:2|2:0,2:0:0:0:
242,202,8817,5,0,1:0:0:0:
235,15,8978,5,8,2:0:0:0:
224,110,9139,1,2,2:0:0:0:
214,205,9301,1,2,2:0:0:0:
333,100,9462,5,0,2:0:0:0:
339,90,9543,1,0,2:0:0:0:
346,81,9618,2,0,P|395:94|403:120,1,67.5000000000001,0|0,1:0|2:0,2:0:0:0:
340,265,9940,5,2,2:0:0:0:
279,145,10101,1,2,1:2:0:0:
451,184,10263,2,0,P|361:191|339:300,1,168.75,8|0,2:0|2:0,2:0:0:0:
340,265,10585,6,0,P|321:260|299:261,1,26.25,2|0,2:0|2:0,2:0:0:0:
231,361,10747,6,0,P|245:307|230:294,1,82.5,2|2,1:2|2:0,2:0:0:0:
96,192,11069,2,0,B|77:180|57:181|57:181|82:172|105:184,1,82.5,0|2,1:2|2:0,2:0:0:0:
218,159,11392,5,0,1:2:0:0:
142,363,11553,2,0,P|165:279|153:248,1,112.5,10|0,2:0|2:0,2:0:0:0:
59,258,11795,5,2,2:0:0:0:
52,256,11876,2,0,P|62:295|72:283,1,82.5,2|0,2:0|2:0,2:0:0:0:
66,141,12118,5,2,2:0:0:0:
47,159,12188,2,0,B|92:206|155:165|152:158|143:150|190:92|261:136,1,225,2|0,1:2|1:0,2:0:0:0:
314,318,12669,5,2,1:2:0:0:
371,196,12830,2,0,P|327:177|292:224,1,112.5,8|0,2:0|2:0,2:0:0:0:
316,97,13151,5,2,2:0:0:0:
191,338,13311,6,0,B|212:345|231:324|231:324|208:257|216:192,1,168.75,0|0,1:0|2:0,2:0:0:0:
209,190,13632,5,0,1:2:0:0:
129,167,13793,1,2,2:0:0:0:
62,219,13953,1,0,1:2:0:0:
145,71,14114,5,10,2:0:0:0:
146,263,14274,1,2,2:0:0:0:
63,91,14435,1,2,2:0:0:0:
252,147,14595,5,2,2:0:0:0:
258,153,14675,1,2,2:0:0:0:
264,159,14756,2,0,B|325:182|353:131|353:131|343:113|342:83,1,135,0|0,1:2|2:0,2:0:0:0:
345,78,15077,6,0,B|375:47|407:67|407:67|411:82|401:107,1,90,2|0,2:0|1:0,2:0:0:0:
210,83,15398,2,0,P|257:71|246:7,1,105,8|0,2:0|2:0,2:0:0:0:
148,18,15719,5,2,2:0:0:0:
182,186,15879,1,0,1:2:0:0:
204,172,16200,5,0,1:2:0:0:
200,203,16361,1,2,2:0:0:0:
194,238,16521,1,0,1:2:0:0:
38,341,16682,6,0,B|28:324|7:317|7:317|38:262|108:248|142:277,1,168.75,10|0,2:0|2:0,2:0:0:0:
127,273,17003,6,0,P|129:313|170:322,1,67.5000000000001,2|0,1:2|2:0,2:0:0:0:
262,325,17244,5,2,2:0:0:0:
293,319,17352,2,0,P|336:255|227:263,1,240,2|0,1:2|2:0,2:0:0:0:
78,364,17834,5,2,1:2:0:0:
126,144,17995,2,0,B|171:136|185:181|185:181|170:196|163:225,1,120,8|0,2:0|2:0,2:0:0:0:
174,294,18317,5,2,2:0:0:0:
352,211,18478,2,0,B|328:272|262:265|262:265|250:244|234:235,1,146.25,0|0,1:0|2:0,2:0:0:0:
248,217,18800,5,0,1:2:0:0:
254,153,18961,1,2,2:0:0:0:
261,89,19122,1,0,1:2:0:0:
86,163,19283,5,10,2:0:0:0:
245,148,19444,1,2,2:0:0:0:
404,130,19605,1,2,2:0:0:0:
315,257,19766,5,0,2:0:0:0:
305,265,19846,1,0,2:0:0:0:
297,273,19927,2,0,P|292:322|356:318,1,123.75,0|0,1:0|2:0,2:0:0:0:
364,332,20246,6,0,P|341:328|314:353,1,52.5,2|0,2:0|1:0,2:0:0:0:
19,333,20566,5,8,2:0:0:0:
113,253,20726,5,2,2:0:0:0:
110,237,20806,1,0,2:0:0:0:
108,221,20885,1,2,2:0:0:0:
106,205,20965,1,0,2:0:0:0:
95,133,21045,6,0,B|130:127|147:94|147:94|139:129|168:165,1,135,2|0,1:3|2:0,2:0:0:0:
276,184,21365,6,0,B|248:176|236:153|236:153|241:178|221:203,1,101.25,2|0,1:3|2:0,2:0:0:0:
209,207,21685,5,2,1:2:0:0:
392,142,21844,2,0,P|376:165|370:184,1,45.0000000000002,8|0,2:0|2:0,2:0:0:0:
372,191,22164,1,0,1:0:0:0:
345,51,22324,5,0,3:0:0:0:
340,60,22404,1,0,3:0:0:0:
335,70,22500,2,0,B|314:132|364:169|364:169|428:214|383:293,1,240,4|0,1:0|2:0,2:0:0:0:
402,106,22982,5,0,1:0:0:0:
315,280,23143,2,0,P|283:252|299:213,1,90.0000000000001,8|0,2:0|2:0,2:0:0:0:
98,173,23465,5,2,2:0:0:0:
178,125,23626,1,2,1:2:0:0:
196,215,23787,1,2,2:0:0:0:
132,61,23948,5,2,1:2:0:0:
123,245,24109,1,2,2:0:0:0:
256,105,24270,1,2,1:2:0:0:
126,248,24431,6,0,P|110:264|105:285,1,44.9999999999999,8|0,2:0|2:0,2:0:0:0:
232,345,24753,6,0,P|213:304|167:307,1,90.0000000000001,2|0,2:0|2:0,2:0:0:0:
10,296,24995,5,2,2:0:0:0:
0,307,25075,2,0,B|65:336|94:283|94:283|109:251|134:246,1,157.5,0|0,1:0|2:0,2:0:0:0:
146,239,25397,6,0,B|152:216|146:191|146:191|161:203|162:248,1,90.0000000000001,2|0,2:0|1:0,2:0:0:0:
330,209,25719,6,0,P|279:243|209:226,1,105,8|0,2:0|2:0,2:0:0:0:
51,43,26036,6,0,P|37:10|70:44,1,127.5,2|0,2:0|1:0,2:0:0:0:
199,141,26353,6,0,P|207:102|170:141,1,120,0|0,1:0|1:0,2:0:0:0:
74,233,26671,6,0,P|66:195|99:233,1,112.5,2|0,2:0|1:0,2:0:0:0:
170,301,26988,6,0,P|176:272|149:300,1,97.5,10|0,2:0|2:0,2:0:0:0:
102,358,27306,6,0,P|92:323|115:351,1,82.5,2|0,2:0|2:0,2:0:0:0:
101,113,27642,6,0,P|124:189|136:325,1,210,0|0,1:0|2:0,2:0:0:0:
196,146,28129,5,0,1:0:0:0:
119,349,28292,2,0,P|129:277|152:201,1,135,8|0,2:0|2:0,2:0:0:0:
195,132,28617,5,2,2:0:0:0:
322,259,28780,6,0,B|388:278|399:211|399:211|375:204|360:186,1,135,0|0,1:0|2:0,2:0:0:0:
365,182,29105,6,0,B|355:162|360:129|360:129|363:160|378:180,1,90,2|0,1:2|2:0,2:0:0:0:
242,227,29430,5,0,1:0:0:0:
237,27,29593,5,8,2:0:0:0:
247,122,29755,1,2,2:0:0:0:
257,217,29918,1,0,1:0:0:0:
83,189,30081,5,2,2:0:0:0:
77,182,30162,1,2,2:0:0:0:
70,175,30243,2,0,P|81:122|98:77,1,90,0|0,1:0|2:0,2:0:0:0:
44,10,30565,2,0,P|6:4|21:46,1,90,2|0,2:0|1:0,2:0:0:0:
153,236,30887,6,0,B|198:258|232:198|232:198|258:150|305:166,1,180,8|0,2:0|2:0,2:0:0:0:
315,170,31209,6,0,B|330:146|360:143|360:143|365:168|336:191|302:179,1,135,2|0,2:0|1:0,2:0:0:0:
193,76,31531,2,0,B|178:54|148:49|148:49|146:84|175:106|211:85,1,135,2|0,2:0|1:0,2:0:0:0:
273,27,31853,5,2,2:0:0:0:
215,245,32014,1,0,3:0:0:0:
220,253,32095,1,0,3:0:0:0:
228,264,32170,2,0,L|240:318,1,44.9999999999999,12|0,2:0|2:0,2:0:0:0:
259,293,32492,6,0,L|251:331,1,29.9999999999999,0|0,2:0|2:0,2:0:0:0:
98,47,32797,6,0,B|143:99|128:149|75:197|75:197|22:240|15:315|62:346|62:346|55:313|70:279,1,405,4|0,1:0|2:0,2:0:0:0:
150,159,33441,6,0,P|135:102|100:94,1,90,10|0,2:0|2:0,2:0:0:0:
69,159,33763,2,0,P|84:216|119:224,1,90,2|0,2:0|3:0,2:0:0:0:
200,51,34004,5,0,3:0:0:0:
214,40,34085,2,0,P|296:59|333:122,1,135,2|0,1:2|2:0,2:0:0:0:
234,262,34407,2,0,P|208:207|267:189,1,135,2|0,1:2|1:0,2:0:0:0:
386,214,34729,6,0,B|413:200|422:152|422:152|409:187|370:206,1,135,10|0,2:0|2:0,2:0:0:0:
283,384,35051,6,0,B|348:396|362:335|362:335|267:192|284:10,1,427.5,4|0,1:0|2:0,2:0:0:0:
165,211,35695,6,0,P|194:167|203:208,1,97.5,2|0,1:2|2:0,2:0:0:0:
290,40,36017,6,0,P|284:86|244:84,1,82.5,10|0,2:0|2:0,2:0:0:0:
175,212,36340,6,0,P|181:174|204:191,1,82.5,2|0,2:0|3:0,2:0:0:0:
257,351,36581,5,0,3:0:0:0:
253,331,36662,2,0,P|273:267|295:203,1,112.5,2|0,1:2|2:0,2:0:0:0:
388,180,36984,2,0,P|377:125|361:71,1,112.5,2|0,1:2|1:0,2:0:0:0:
286,131,37306,6,0,B|267:122|242:140|242:140|255:107|297:109|305:158,1,112.5,10|0,2:0|2:0,2:0:0:0:
393,318,37628,2,0,P|376:321|396:275,1,97.5,2|0,1:2|2:0,2:0:0:0:
252,86,37950,6,0,P|273:153|287:223,1,142.5,4|0,1:0|2:0,2:0:0:0:
108,170,38272,6,0,P|121:212|167:185,1,97.5,2|0,2:0|2:0,2:0:0:0:
284,5,38594,6,0,B|202:-9|169:64|169:64|182:92|168:129,1,180,10|0,2:0|2:0,2:0:0:0:
188,117,38916,6,0,P|159:118|137:100,1,60,2|0,2:0|3:0,2:0:0:0:
339,94,39158,5,0,3:0:0:0:
322,84,39238,2,0,P|282:132|291:223,1,146.25,2|0,1:3|2:0,2:0:0:0:
305,223,39561,6,0,B|312:230|327:216|327:216|307:206|284:209|279:246,1,82.5,8|0,2:0|2:0,2:0:0:0:
261,312,39883,1,0,1:0:0:0:
0,0,40205,6,0,L|11:62,1,60,4|0,1:2|2:0,2:0:0:0:
71,333,41096,6,0,P|96:352|131:284,1,135,2|0,2:3|3:0,2:0:0:0:
31,218,41637,5,0,3:0:0:0:
37,238,41712,2,0,B|110:292|174:203|174:203|204:167|245:167,1,225,4|0,1:0|2:0,2:0:0:0:
200,170,42038,2,0,P|295:168|322:198,1,105,0|0,1:0|2:0,2:0:0:0:
270,353,42382,6,0,P|269:281|249:251,1,105,8|0,2:0|2:0,2:0:0:0:
344,243,42702,2,0,B|363:234|379:205|379:205|364:237|368:260,1,105,2|0,2:0|3:0,2:0:0:0:
229,147,42942,5,0,3:0:0:0:
223,135,43022,2,0,P|225:86|261:64,1,82.5,0|0,1:0|3:0,2:0:0:0:
315,94,43342,2,0,P|313:143|277:165,1,82.5,0|0,1:0|1:0,2:0:0:0:
81,228,43662,6,0,P|68:153|42:124,1,97.5,8|0,2:0|2:0,2:0:0:0:
133,91,43982,2,0,B|131:76|137:61|137:61|129:68|107:71,1,60,2|0,2:0|3:0,2:0:0:0:
164,195,44222,5,0,3:0:0:0:
175,215,44303,2,0,P|212:236|267:222,1,82.5,0|0,1:0|3:0,2:0:0:0:
252,155,44623,2,0,P|220:138|200:144,1,52.4999999999999,0|0,1:0|2:0,2:0:0:0:
339,233,44959,6,0,P|334:186|321:140,1,90,10|0,2:0|2:0,2:0:0:0:
402,142,45282,2,0,P|405:184|413:216,1,75,2|0,2:0|3:0,2:0:0:0:
254,332,45525,5,0,3:0:0:0:
236,349,45606,2,0,P|202:298|44:320,1,202.5,2|0,1:2|2:0,2:0:0:0:
64,318,45929,2,0,P|119:307|88:274,1,105,0|0,1:0|1:0,2:0:0:0:
26,146,46253,6,0,B|30:118|17:91|17:91|32:117|64:127,1,112.5,8|0,2:0|2:0,2:0:0:0:
98,200,46577,2,0,P|58:228|57:236,1,52.5,2|0,2:0|3:0,2:0:0:0:
147,84,46819,5,0,3:0:0:0:
157,78,46900,2,0,P|147:36|94:62,1,112.5,0|0,1:0|2:0,2:0:0:0:
244,218,47542,6,0,P|246:165|219:119,1,97.5,8|0,2:0|2:0,2:0:0:0:
270,35,47864,2,0,B|251:33|237:5|237:5|248:36|238:55,1,97.5,2|0,2:0|3:0,2:0:0:0:
331,122,48105,5,0,3:0:0:0:
341,126,48185,1,0,1:0:0:0:
385,192,48345,1,0,3:0:0:0:
417,70,48505,1,0,1:0:0:0:
417,70,48665,1,0,1:0:0:0:
295,211,48825,6,0,P|277:264|295:320,1,97.5,8|0,2:0|2:0,2:0:0:0:
354,376,49145,2,0,B|369:362|396:353|396:353|368:362|345:360,1,97.5,2|0,2:0|3:0,2:0:0:0:
202,284,49385,5,0,3:0:0:0:
191,281,49465,2,0,P|139:291|112:331,1,97.5,0|0,1:0|3:0,2:0:0:0:
207,352,49785,2,0,P|193:367|158:375,1,52.4999999999999,0|0,1:0|1:0,2:0:0:0:
16,296,50106,6,0,P|42:352|38:395,1,82.5,8|0,2:0|2:0,2:0:0:0:
74,115,50427,6,0,B|58:114|35:65|35:65|50:118|41:133,1,135,2|0,2:0|3:0,2:0:0:0:
165,67,50747,6,0,B|160:53|188:13|188:13|153:49|138:49,1,120,2|0,1:2|3:0,2:0:0:0:
258,106,51068,6,0,B|266:96|310:100|310:100|266:89|259:77,1,105,2|0,1:2|1:0,2:0:0:0:
273,194,51389,6,0,B|283:196|298:229|298:229|288:193|294:183,1,90,10|0,2:0|2:0,2:0:0:0:
164,183,51709,5,2,1:2:0:0:
165,198,51816,5,2,2:0:0:0:
167,214,51923,5,2,2:0:0:0:
169,230,52042,6,0,P|134:276|101:262,1,90,4|0,1:0|2:0,2:0:0:0:
337,369,52363,2,0,P|377:324|408:347,1,90,0|0,1:0|2:0,2:0:0:0:
246,376,52684,6,0,P|259:249|288:164,1,202.5,10|0,2:0|2:0,2:0:0:0:
358,140,53005,6,0,B|368:114|394:116|394:116|387:141|353:144,1,67.4999999999999,2|0,2:0|2:0,2:0:0:0:
296,181,53166,6,0,B|259:215|205:188|194:132|194:132|181:88|136:85,1,202.5,2|0,3:2|2:0,2:0:0:0:
67,36,53487,6,0,B|56:24|43:16|43:16|63:19|79:41,1,67.4999999999999,2|0,3:2|2:0,2:0:0:0:
146,99,53647,6,0,B|208:111|229:47|229:47|267:0|325:38,1,202.5,2|0,1:2|2:0,2:0:0:0:
425,34,53969,6,0,B|433:21|445:7|445:7|433:16|413:26,1,67.4999999999999,10|0,2:0|2:0,2:0:0:0:
326,30,54129,6,0,P|371:148|366:232,1,202.5,2|0,2:0|2:0,2:0:0:0:
345,308,54450,6,0,B|351:327|364:340|378:335|378:335|364:330|356:318,1,67.4999999999999,2|0,3:2|3:0,2:0:0:0:
383,218,54611,6,0,B|332:184|277:201|253:258|253:258|260:288|240:299,1,202.5,2|0,1:2|2:0,2:0:0:0:
205,384,54935,6,0,B|178:394|178:394|222:364,1,75,2|0,1:2|2:0,2:0:0:0:
214,291,55097,6,0,B|194:287|170:296|170:296|117:288|83:222|88:131|165:85|235:106|235:106|172:113|167:178|174:182|185:187|183:236|131:240|131:240|79:243|63:284,1,600,2|0,2:0|3:0,2:0:0:0:
47,324,55827,5,0,3:0:0:0:
50,330,55908,1,0,1:0:0:0:
51,338,56232,6,0,P|65:337|97:369,1,60,0|0,1:0|1:0,2:0:0:0:
150,211,56556,6,0,P|92:230|110:267,1,105,8|0,2:0|2:0,2:0:0:0:
338,331,56881,6,0,B|410:317|386:199|280:217|262:307|262:307|247:381|150:386|147:293|197:287,1,417.78,2|0,2:0|2:0,2:0:0:0:
226,218,57525,6,0,P|221:193|209:173,1,44.9999999999999,0|0,1:0|2:0,2:0:0:0:
292,0,57846,2,0,P|268:30|264:94,1,90,8|0,2:0|2:0,2:0:0:0:
294,165,58167,6,0,B|318:161|347:165|347:165|314:158|290:143,1,105,2|0,2:0|3:0,2:0:0:0:
187,110,58408,5,0,3:0:0:0:
184,97,58488,2,0,P|146:82|122:97,1,67.5000000000001,0|0,1:0|3:0,2:0:0:0:
68,164,58809,2,0,B|78:189|73:208|73:208|80:186|105:171,1,90,0|0,1:0|1:0,2:0:0:0:
0,4,59130,6,0,P|41:41|37:106,1,97.5,8|0,2:0|2:0,2:0:0:0:
6,151,59450,1,0,1:0:0:0:
154,221,59611,5,0,3:0:0:0:
148,227,59691,1,0,3:0:0:0:
142,234,59771,2,0,L|129:299,1,52.5,0|0,1:0|3:0,2:0:0:0:
385,310,60090,6,0,B|373:342|373:342|318:333|271:374|271:374|244:348,1,180,0|0,1:0|2:0,2:0:0:0:
281,282,60409,2,0,P|307:269|328:270,1,44.9999999999999,10|0,2:0|2:0,2:0:0:0:
182,232,60728,6,0,B|157:256|157:256|112:221|52:235|52:235|40:199,1,180,0|0,1:0|3:0,2:0:0:0:
100,156,61047,2,0,P|124:157|144:166,1,44.9999999999999,2|0,1:2|3:0,2:0:0:0:
393,73,61366,6,0,B|394:107|394:107|337:117|308:171|308:171|273:156,1,180,0|0,1:0|2:0,2:0:0:0:
281,83,61685,2,0,P|297:65|317:56,1,44.9999999999999,10|0,2:0|2:0,2:0:0:0:
102,20,62005,5,2,1:2:0:0:
156,278,62164,5,0,3:0:0:0:
158,287,62244,1,0,3:0:0:0:
165,307,62350,6,0,B|207:344|260:285|224:199|100:200|85:325,1,225,4|0,1:0|2:0,2:0:0:0:
73,339,62672,2,0,P|115:373|121:335,1,90,0|0,2:0|2:0,2:0:0:0:
118,137,62994,5,8,2:0:0:0:
19,209,63155,1,2,2:0:0:0:
28,83,63316,1,2,2:0:0:0:
205,195,63477,5,0,3:0:0:0:
211,203,63557,1,0,3:0:0:0:
218,210,63638,2,0,P|282:207|289:169,1,112.5,2|0,1:2|2:0,2:0:0:0:
437,41,63960,2,0,P|402:-12|365:0,1,112.5,2|0,1:2|1:0,2:0:0:0:
402,185,64282,6,0,B|422:198|433:181|433:181|384:161|351:114,1,112.5,10|0,2:0|2:0,2:0:0:0:
164,24,64604,2,0,B|156:63|105:55|105:55|115:-24|210:-68|306:6|290:125|193:138,1,393.75,6|0,1:2|2:0,2:0:0:0:
41,261,65248,6,0,P|62:293|59:340,1,78.7499999999999,0|0,1:0|2:0,2:0:0:0:
127,240,65570,2,0,P|124:202|150:167,1,78.7499999999999,8|0,2:0|2:0,2:0:0:0:
217,238,65893,2,0,P|238:270|233:304,1,52.4999999999999,0|0,2:0|3:0,2:0:0:0:
383,196,66134,5,0,3:0:0:0:
361,187,66215,2,0,B|236:144|236:144|229:121|201:100,1,168.75,2|0,1:2|2:0,2:0:0:0:
158,33,66537,2,0,P|175:-5|209:18,1,82.5,2|0,1:2|2:0,2:0:0:0:
98,263,66859,6,0,P|108:202|143:167,1,97.5,8|8,2:0|2:3,2:0:0:0:
27,118,67181,2,0,P|31:155|41:171,1,52.4999983978272,4|2,2:3|2:3,2:0:0:0:
103,346,67503,6,0,P|102:215|29:101,1,236.25,4|0,1:0|2:0,2:0:0:0:
27,118,67825,2,0,P|21:171|51:140,1,90,2|0,2:0|2:0,2:0:0:0:
240,63,68147,6,0,B|254:48|262:45|262:45|243:37|221:56|219:98|256:115,1,120,8|0,2:0|2:0,2:0:0:0:
395,166,68469,2,0,P|363:128|333:137,1,75,2|0,2:0|3:0,2:0:0:0:
317,333,68711,5,0,3:0:0:0:
336,347,68791,2,0,L|278:149,1,180,2|0,1:2|2:0,2:0:0:0:
165,191,69114,2,0,P|197:234|222:214,1,90,2|0,1:2|1:0,2:0:0:0:
254,34,69436,6,0,B|237:72|237:72|238:78|238:78|215:133,1,90,10|0,2:0|2:0,2:0:0:0:
214,370,69758,6,0,B|248:339|245:247|173:206|173:206|104:171|83:100|116:45,1,382.5,4|0,1:0|2:0,2:0:0:0:
133,306,70402,6,0,P|91:312|73:275,1,78.7499999999999,0|0,1:0|2:0,2:0:0:0:
0,249,70724,2,0,P|5:217|50:202,1,78.7499999999999,8|0,2:0|2:0,2:0:0:0:
144,97,71046,2,0,P|147:128|111:230,1,135,0|0,1:0|3:0,2:0:0:0:
188,339,71368,5,8,2:3:0:0:
195,269,71476,5,8,2:3:0:0:
244,222,71583,5,8,2:3:0:0:
312,215,71690,5,8,2:3:0:0:
372,252,71798,5,8,2:3:0:0:
394,316,71905,5,8,2:3:0:0:
356,371,72012,5,8,2:3:0:0:
345,333,72120,5,4,2:3:0:0:
350,294,72227,5,4,2:3:0:0:
370,260,72334,5,4,2:3:0:0:
398,231,72442,5,4,2:3:0:0:
414,195,72549,5,4,2:3:0:0:
409,156,72657,6,0,B|379:111|403:48|403:48|368:105|313:106,1,225,4|0,1:0|2:0,2:0:0:0:
285,201,72979,2,0,P|322:201|324:173,1,60,2|0,2:0|2:0,2:0:0:0:
219,23,73301,5,10,2:0:0:0:
189,172,73462,1,2,2:0:0:0:
233,20,73623,2,0,P|244:46|235:81,1,60,2|0,2:0|3:0,2:0:0:0:
79,142,73864,5,0,3:0:0:0:
64,153,73945,2,0,P|96:214|106:212,1,90,2|0,1:2|2:0,2:0:0:0:
262,365,74267,2,0,P|250:312|214:315,1,90,2|0,1:2|1:0,2:0:0:0:
73,333,74589,6,0,B|48:335|36:343|36:343|50:328|86:318,1,90,10|0,2:0|2:0,2:0:0:0:
290,192,74911,2,0,B|350:170|409:214|409:214|373:139|287:131|228:178|228:178|228:212|193:230,1,393.75,4|0,1:0|2:0,2:0:0:0:
77,193,75555,6,0,P|79:177|150:190,1,101.25,0|0,1:0|2:0,2:0:0:0:
218,29,75878,2,0,P|194:99|168:91,1,101.25,8|0,2:0|2:0,2:0:0:0:
75,22,76200,2,0,P|90:41|112:80,1,67.5000000000001,0|0,2:0|3:0,2:0:0:0:
276,155,76441,5,0,3:0:0:0:
273,166,76522,1,2,1:2:0:0:
180,252,76680,1,2,2:0:0:0:
246,378,76838,2,0,P|246:326|259:294,1,67.5000000000001,2|0,1:2|2:0,2:0:0:0:
189,99,77154,2,0,B|192:66|170:44|170:44|182:67|180:84,1,97.5,10|8,2:0|2:3,2:0:0:0:
139,323,77470,6,0,P|91:330|97:295,1,97.5,4|0,2:3|2:0,2:0:0:0:
296,192,77786,2,0,B|322:186|325:220|325:220|212:197|117:273,1,225,4|0,1:0|2:0,2:0:0:0:
83,220,78108,2,0,B|82:192|65:178|65:178|84:191|116:183,1,90,2|0,2:0|2:0,2:0:0:0:
203,88,78430,6,0,B|204:60|245:36|245:36|196:47|165:95|186:136,1,180,8|0,2:0|2:0,2:0:0:0:
103,105,78752,2,0,P|82:62|73:47,1,60,2|0,2:0|3:0,2:0:0:0:
378,204,79074,6,0,P|351:279|341:356,1,135,2|0,1:2|2:0,2:0:0:0:
296,203,79396,6,0,P|311:162|328:132,1,67.4999999999999,10|0,2:0|2:0,2:0:0:0:
225,246,79718,6,0,P|247:293|270:380,1,135,2|0,1:2|2:0,2:0:0:0:
296,203,80040,6,0,B|274:155|241:114|241:114|245:106|250:89,1,131.25,6|0,1:2|2:0,2:0:0:0:
319,100,82926,5,0,1:0:0:0:
256,192,83005,12,0,90630,2:0:0:0:
