osu file format v14

[General]
AudioFilename: audio.mp3
AudioLeadIn: 0
PreviewTime: 41637
Countdown: 0
SampleSet: Soft
StackLeniency: 0.7
Mode: 0
LetterboxInBreaks: 0
WidescreenStoryboard: 1

[Editor]
Bookmarks: 22404,32653,41559,51870,62164,72415,82697
DistanceSpacing: 1
BeatDivisor: 4
GridSize: 8
TimelineZoom: 1.4

[Metadata]
Title:Duvet (TV Size)
TitleUnicode:Duvet (TV Size)
Artist:boa
ArtistUnicode:bôa
Creator:VenerableNyanta
Version:Advanced by Sonnyc
Source:serial experiments lain
Tags:シリアルエクスペリメンツレイン rock english anime alternative Nyanta she luv lando Kloster Sonnyc Le Mirai Cacturne storyboard opening sirmirai
BeatmapID:3208619
BeatmapSetID:1537881

[Difficulty]
HPDrainRate:3
CircleSize:3
OverallDifficulty:4.5
ApproachRate:6
SliderMultiplier:2.4
SliderTickRate:1

[Events]
//Background and Video events
0,0,"48578_serial_experiments_lain.jpg",0,0
//Break Periods
//Storyboard Layer 0 (Background)
Sprite,Background,Centre,"sb\f\_03d.png",320,190 S,0,82912,,0.2 R,0,82912,,0.01 R,0,82912,,-0.02 F,0,82912,85465,1 R,0,83071,,-0.08 R,0,83230,,-0.02 R,0,83390,,-0.08 R,0,83549,,-0.06 R,0,83709,,0 R,0,83868,,0.07 R,0,84027,,-0.04 R,0,84187,,-0.08 R,0,84346,,0.06 R,0,84506,,-0.04 R,0,84665,,0.08 R,0,84824,,-0.03 R,0,84984,,0.03 R,0,85143,,0 R,0,85303,,0.08
Sprite,Background,Centre,"sb\f\_041.png",320,240 S,0,82912,,0.5 R,0,82912,,0.03 R,0,82912,,0.08 F,0,82912,85465,1 R,0,83071,,-0.02 R,0,83230,,0.06 R,0,83390,,-0.09 R,0,83549,,-0.03 R,0,83709,,-0.03 R,0,83868,,-0.05 R,0,84027,,0.08 R,0,84187,,0.05 R,0,84346,,-0.05 R,0,84506,,0.01 R,0,84665,,-0.07 R,0,84824,,0.08 R,0,84984,,0.03 R,0,85143,,0.02 R,0,85303,,0.01
Sprite,Background,Centre,"sb\f\_038.png",320,190 S,0,85465,,0.2 R,0,85465,,0.07 R,0,85465,,-0.05 F,0,85465,88018,1 R,0,85624,,-0.05 R,0,85783,,-0.03 R,0,85943,,0.01 R,0,86102,,0.01 R,0,86262,,0.04 R,0,86421,,0 R,0,86580,,0.08 R,0,86740,,-0.08 R,0,86899,,-0.01 R,0,87059,,-0.01 R,0,87218,,-0.02 R,0,87377,,0.06 R,0,87537,,-0.06 R,0,87696,,0.04 R,0,87856,,-0.07
Sprite,Background,Centre,"sb\f\_039.png",320,240 S,0,85465,,0.5 R,0,85465,,-0.03 R,0,85465,,-0.01 F,0,85465,88018,1 R,0,85624,,0.05 R,0,85783,,0.02 R,0,85943,,-0.03 R,0,86102,,-0.05 R,0,86262,,0.04 R,0,86421,,-0.07 R,0,86580,,-0.08 R,0,86740,,-0.02 R,0,86899,,-0.04 R,0,87059,,-0.04 R,0,87218,,-0.06 R,0,87377,,-0.08 R,0,87537,,-0.06 R,0,87696,,0.02 R,0,87856,,-0.03
Sprite,Background,Centre,"sb\f\_043.png",320,190 S,0,88018,,0.2 R,0,88018,,0.04 R,0,88018,,-0.07 F,0,88018,90571,1 R,0,88177,,-0.05 R,0,88336,,0.02 R,0,88496,,-0.03 R,0,88655,,-0.07 R,0,88815,,0.03 R,0,88974,,-0.03 R,0,89133,,-0.09 R,0,89293,,-0.04 R,0,89452,,0.07 R,0,89612,,0.05 R,0,89771,,0 R,0,89930,,0.07 R,0,90090,,-0.08 R,0,90249,,0.06 R,0,90409,,0.08
Sprite,Background,Centre,"sb\f\_044.png",320,240 S,0,88018,,0.5 R,0,88018,,-0.04 R,0,88018,,-0.01 F,0,88018,90571,1 R,0,88177,,0.06 R,0,88336,,0.08 R,0,88496,,0.06 R,0,88655,,0.02 R,0,88815,,0 R,0,88974,,-0.05 R,0,89133,,-0.01 R,0,89293,,-0.06 R,0,89452,,-0.02 R,0,89612,,-0.06 R,0,89771,,0.05 R,0,89930,,0.08 R,0,90090,,-0.04 R,0,90249,,0.05 R,0,90409,,-0.09
//Storyboard Layer 1 (Fail)
//Storyboard Layer 2 (Pass)
//Storyboard Layer 3 (Foreground)
Sprite,Foreground,Centre,"sb\px.png",204,309 R,0,72012,,0.03 C,0,72012,,219,169,61 P,0,72012,,A V,30,72012,72212,0,650,1,650
Sprite,Foreground,Centre,"sb\px.png",192,257 R,0,79074,,-0.01 C,0,79074,,219,169,61 P,0,79074,,A V,30,79074,79274,0,650,1,650
Sprite,Foreground,Centre,"sb\px.png",76,232 R,0,79396,,-0.01 C,0,79396,,219,169,61 P,0,79396,,A V,30,79396,79596,0,650,1,650
Sprite,Foreground,Centre,"sb\px.png",155,142 R,0,79718,,0.06 C,0,79718,,219,169,61 P,0,79718,,A V,30,79718,79918,0,650,1,650
//Storyboard Layer 4 (Overlay)
//Storyboard Sound Samples

[TimingPoints]
323,621.761658031088,4,2,1,50,1,0
1910,637.619553666313,4,2,1,50,1,0
4456,648.648648648649,4,2,1,50,1,0
7042,645.50833781603,4,2,1,50,1,0
9618,645.161290322581,4,2,1,50,1,0
12188,642.054574638844,4,2,1,50,1,0
17352,643.776824034335,4,2,1,50,1,0
19927,639.318060735216,4,2,1,50,1,0
22500,643.949557284679,4,2,1,50,1,0
25719,634.920634920635,4,2,1,50,1,0
27642,650.406504065041,4,2,1,50,1,0
30243,644.19153961778,4,2,1,50,1,0
32170,644.19153961778,4,2,1,50,1,0
32797,644.19153961778,4,2,1,50,1,0
41096,618.556701030928,4,2,1,50,1,0
41712,652.173913043478,4,2,1,50,1,0
42382,640.34151547492,4,2,1,50,1,0
44959,647.249190938511,4,2,1,50,1,0
45848,-100,4,2,1,5,0,0
45929,-100,4,2,1,50,0,0
46900,642.914545941602,4,2,1,50,1,0
48185,640,4,2,1,50,1,0
49465,641.368252271513,4,2,1,50,1,0
52042,642.398286937902,4,2,1,50,1,0
54611,648.648648648649,4,2,1,50,1,0
57205,641.711229946524,4,2,1,50,1,0
59771,638.297872340426,4,2,1,50,1,0
62350,644.19153961778,4,2,1,50,1,0
76522,632.244467860906,4,2,1,50,1,0
77786,644.19153961778,4,2,1,50,1,0
82926,638.297872340426,4,2,1,50,1,0
85498,639.318060735216,4,2,1,50,1,0
87855,-100,4,2,1,50,0,0
88055,643.776824034335,4,2,1,5,1,0
93205,647.249190938511,4,2,1,50,1,0

[Colours]
Combo1 : 89,238,101
Combo2 : 255,217,183

[HitObjects]
36,98,1910,6,0,P|74:35|187:51,1,180,4|2,1:2|1:2,2:0:0:0:
207,85,2547,2,0,L|199:217,1,120,8|2,2:0|2:0,2:0:0:0:
157,246,3025,1,0,1:2:0:0:
256,313,3344,1,0,1:2:0:0:
256,313,3504,2,0,L|376:306,2,120,0|8|0,2:0|2:0|2:0,0:0:0:0:
143,355,4456,2,0,B|94:319|94:319|117:133,1,240,2|8,1:2|2:0,2:0:0:0:
218,77,5428,6,0,L|283:86,1,60,2|0,2:0|1:2,0:0:0:0:
335,70,5753,2,0,L|344:135,1,60,2|0,2:0|1:2,0:0:0:0:
308,178,6077,2,0,L|326:308,2,120,0|10|2,2:0|2:0|2:0,0:0:0:0:
209,245,7042,2,0,P|171:308|58:292,1,180,2|2,1:2|1:2,2:0:0:0:
22,273,7687,1,8,2:0:0:0:
72,164,8010,1,2,2:0:0:0:
72,164,8171,2,0,L|60:31,1,120,2|2,1:2|1:2,2:0:0:0:
180,59,8817,1,0,1:0:0:0:
180,59,8978,2,0,L|192:192,1,120,8|2,2:0|2:0,0:0:0:0:
107,264,9618,2,0,B|173:289|161:358|161:358|173:289|244:288,1,240,0|8,1:0|2:0,2:0:0:0:
351,234,10585,5,2,2:0:0:0:
270,145,10908,2,0,L|279:80,1,60,2|0,2:0|1:2,0:0:0:0:
245,35,11230,2,0,L|365:29,2,120,2|10|2,2:0|2:0|2:0,0:0:0:0:
131,74,12188,2,0,P|101:112|104:186,1,120,2|0,1:2|1:0,2:0:0:0:
146,220,12669,2,0,L|205:213,1,60,2|8,1:2|2:0,0:0:0:0:
299,138,13151,1,2,2:0:0:0:
299,138,13311,2,0,P|369:155|373:228,2,120,0|0|0,1:0|1:2|1:2,2:0:0:0:
245,111,14114,1,10,2:0:0:0:
133,155,14435,1,2,2:0:0:0:
41,77,14756,2,0,B|-8:113|-8:113|15:299,1,240,0|8,1:2|2:0,2:0:0:0:
115,355,15719,6,0,L|186:350,1,60,2|0,2:0|1:2,0:0:0:0:
230,373,16040,2,0,L|235:302,1,60,0|0,0:0|1:2,0:0:0:0:
264,261,16361,2,0,L|193:256,1,60,2|0,2:0|1:2,0:0:0:0:
154,222,16682,2,0,L|149:151,1,60,10|0,2:0|0:0,2:0:0:0:
189,117,17003,1,2,1:2:0:0:
116,22,17352,2,0,P|30:13|-19:85,1,180,2|2,1:2|1:2,2:0:0:0:
21,126,17995,1,8,2:0:0:0:
0,245,18317,1,2,2:0:0:0:
0,245,18478,2,0,L|125:233,1,120,0|0,1:0|1:2,2:0:0:0:
91,350,19122,1,0,1:2:0:0:
91,350,19283,2,0,L|216:338,1,120,10|2,2:0|2:0,0:0:0:0:
266,226,19927,2,0,B|335:232|347:301|347:301|335:232|400:206,1,240,0|8,1:0|2:0,2:0:0:0:
366,158,20726,6,0,L|372:81,1,60,2|2,2:0|2:0,0:0:0:0:
406,49,21045,1,2,1:3:0:0:
286,62,21365,1,2,1:3:0:0:
166,75,21685,1,2,1:2:0:0:
166,75,21844,2,0,B|147:88|147:88|140:199,1,120,8|0,2:0|1:0,2:0:0:0:
106,234,22324,1,0,3:0:0:0:
106,234,22500,2,0,B|201:225|201:225|228:255|228:255|347:244,1,240,4|8,0:0|2:0,0:0:0:0:
293,131,23465,6,0,L|297:71,2,60,2|2|2,2:0|1:2|2:0,0:0:0:0:
346,157,23948,2,0,L|405:152,1,60,2|2,1:2|2:0,0:0:0:0:
387,208,24270,2,0,B|368:221|368:221|361:332,1,120,2|0,1:2|2:0,0:0:0:0:
330,369,24753,1,2,2:0:0:0:
233,297,25075,2,0,B|138:288|138:288|111:318|111:318|-8:307,1,240.3727,0|8,1:0|2:0,2:0:0:0:
70,205,26036,5,2,2:0:0:0:
23,94,26353,2,0,L|82:89,1,60,0|0,1:0|1:0,2:0:0:0:
130,52,26671,2,0,P|168:82|242:79,2,120,2|10|2,2:0|2:0|2:0,2:0:0:0:
28,116,27642,2,0,L|39:306,1,180,0|0,1:0|1:0,0:0:0:0:
86,332,28292,1,8,2:0:0:0:
190,273,28617,1,2,2:0:0:0:
190,273,28780,2,0,P|228:303|302:300,1,120,0|2,1:0|1:2,2:0:0:0:
390,226,29430,1,0,1:0:0:0:
390,226,29593,2,0,L|376:79,1,120,8|0,2:0|1:0,0:0:0:0:
273,48,30243,2,0,B|237:97|237:97|52:72,1,240,0|8,1:0|2:0,2:0:0:0:
90,190,31209,6,0,P|59:257|170:224,1,240,2|2,2:0|2:0,2:0:0:0:
267,322,32170,2,0,L|386:308,1,120,12|0,2:0|2:0,2:0:0:0:
325,204,32797,2,0,B|391:210|437:148|406:56|285:22|184:130,1,360,4|2,1:0|2:0,2:0:0:0:
77,88,34085,5,2,1:2:0:0:
20,193,34407,2,0,L|32:273,1,60,2|0,1:2|1:0,2:0:0:0:
72,293,34729,1,10,2:0:0:0:
175,231,35051,2,0,B|109:225|63:287|94:379|215:413|316:305,1,360,4|10,1:0|2:0,2:0:0:0:
386,224,36340,1,2,2:0:0:0:
287,155,36662,5,2,1:2:0:0:
317,38,36984,2,0,L|257:29,1,60,2|0,1:2|1:0,2:0:0:0:
207,61,37306,1,10,2:0:0:0:
93,22,37628,2,0,P|34:66|32:239,1,240,2|2,1:3|2:0,2:0:0:0:
127,276,38594,2,0,L|263:260,1,120,10|2,2:0|2:0,2:0:0:0:
298,232,39077,2,0,L|178:246,1,120,0|0,3:0|0:0,0:0:0:0:
140,200,39561,1,8,2:0:0:0:
220,110,39883,1,0,1:0:0:0:
103,86,40205,1,4,1:2:0:0:
103,86,41096,1,2,2:3:0:0:
329,180,41712,6,0,B|259:147|244:78|307:-52|430:-24|534:42|563:161|553:244|516:303|433:370|313:369|236:354|194:272|255:232|198:158|103:111|18:131|-97:233|-90:386|40:425|94:436|152:361|127:305,1,1195,4|8,1:0|0:0,2:0:0:0:
186,122,45606,6,0,L|174:-4,2,120,2|0|8,1:2|1:0|2:0,2:0:0:0:
248,224,46577,2,0,P|165:141|45:173,1,238.8876,2|0,2:0|0:0,2:0:0:0:
0,270,47542,1,8,2:0:0:0:
221,373,48185,5,0,1:0:0:0:
303,284,48505,2,0,L|293:206,1,60,0|0,1:0|1:0,0:0:0:0:
243,194,48825,1,8,2:0:0:0:
378,75,49305,1,0,3:0:0:0:
378,75,49465,2,0,L|385:134,1,60,0|0,1:0|3:0,2:0:0:0:
419,184,49785,2,0,L|299:168,1,120,0|8,1:0|2:0,2:0:0:0:
133,99,50587,1,0,3:0:0:0:
133,99,50747,2,0,L|140:158,1,60,2|0,1:2|3:0,2:0:0:0:
174,208,51068,2,0,L|54:192,2,120,2|10|2,1:2|2:0|1:2,2:0:0:0:
91,295,52030,2,0,L|210:310,1,124.8646,4|0,1:0|1:0,2:0:0:0:
320,357,52684,6,0,P|352:294|342:246,1,120,10|2,2:0|2:0,2:0:0:0:
374,197,53166,2,0,P|323:147|275:141,1,120,2|2,3:2|3:2,2:0:0:0:
238,96,53647,2,0,P|175:128|154:172,1,120,2|10,1:2|2:0,2:0:0:0:
101,195,54129,2,0,P|112:264|148:297,1,120,2|2,2:0|3:2,2:0:0:0:
151,356,54611,2,0,P|220:366|263:342,1,120,2|2,1:2|1:2,2:0:0:0:
320,357,55097,2,0,L|340:41,1,300,2|0,2:0|1:0,2:0:0:0:
220,77,56232,2,0,L|202:323,1,240,0|2,1:0|2:0,2:0:0:0:
124,102,57525,1,0,0:0:0:0:
121,9,57846,2,0,B|-7:-4|-33:203|59:178|151:153|126:362|-2:348,1,480,8|8,2:0|2:0,2:0:0:0:
223,279,59771,6,0,P|267:312|356:295,1,120,0|0,1:0|1:0,2:0:0:0:
308,192,60409,2,0,P|264:159|175:176,1,120,10|0,0:0|1:0,2:0:0:0:
128,54,61047,5,2,1:2:0:0:
247,65,61366,2,0,L|366:79,2,120,0|10|2,1:0|2:0|1:2,2:0:0:0:
303,171,62350,2,0,B|369:165|415:227|384:319|261:358|165:241,1,360,4|2,1:0|2:0,2:0:0:0:
60,301,63638,5,2,1:2:0:0:
3,196,63960,2,0,L|15:116,1,60,2|0,1:2|1:0,2:0:0:0:
55,96,64282,1,10,2:0:0:0:
159,154,64604,2,0,B|93:160|47:98|78:6|199:-28|300:80,1,360,6|8,1:2|2:0,2:0:0:0:
370,161,65893,1,0,2:0:0:0:
277,237,66215,6,0,L|285:366,2,120,2|2|8,1:2|1:2|2:0,2:0:0:0:
163,275,67181,2,0,B|169:341|107:387|15:356|-19:235|89:134,1,360,6|8,2:3|2:0,2:0:0:0:
174,69,68469,1,2,2:0:0:0:
261,152,68791,5,2,1:2:0:0:
378,127,69114,1,2,1:2:0:0:
342,241,69436,1,10,2:0:0:0:
261,152,69758,2,0,B|217:104|154:120|127:172|127:172|133:216|103:247,1,240,4|0,1:0|1:0,2:0:0:0:
0,302,70724,1,8,2:0:0:0:
100,366,71046,6,0,L|223:355,2,120,0|8|8,1:0|2:3|2:3,2:0:0:0:
140,253,72012,2,0,L|145:193,3,40,8|0|0|8,2:3|1:0|1:0|0:3,0:0:0:0:
92,104,72657,2,0,B|119:232|320:250|369:129,1,360,4|2,1:0|2:0,2:0:0:0:
309,25,73945,5,2,1:2:0:0:
425,59,74267,2,0,P|455:97|452:171,1,120,2|10,1:2|2:0,2:0:0:0:
377,258,74911,2,0,L|131:240,1,240,4|0,1:0|1:0,2:0:0:0:
71,341,75878,2,0,P|109:371|183:368,1,120,8|0,2:0|2:0,2:0:0:0:
233,261,76522,5,2,1:2:0:0:
148,175,76838,2,0,L|241:166,1,60,2|0,1:2|2:0,2:0:0:0:
251,127,77154,1,10,2:0:0:0:
366,159,77470,1,4,2:3:0:0:
341,274,77786,2,0,B|314:402|113:420|64:297,1,360,4|2,1:0|2:0,2:0:0:0:
128,201,79074,5,2,1:2:0:0:
12,176,79396,1,10,2:0:0:0:
91,86,79718,1,2,1:2:0:0:
207,111,80040,2,0,B|306:202|344:482|-21:543|-218:348|-95:60|114:69|200:205|150:262|115:261,1,840,6|0,1:2|0:0,2:0:0:0:
30,37,82926,5,0,1:0:0:0:
256,192,83085,12,0,88055,0:0:0:0:
