osu file format v14

[General]
AudioFilename: audio.mp3
AudioLeadIn: 0
PreviewTime: 323
Countdown: 0
SampleSet: Soft
StackLeniency: 0.7
Mode: 0
LetterboxInBreaks: 0
WidescreenStoryboard: 1

[Editor]
DistanceSpacing: 1
BeatDivisor: 4
GridSize: 4
TimelineZoom: 1

[Metadata]
Title:Duvet (TV Size)
TitleUnicode:Duvet (TV Size)
Artist:boa
ArtistUnicode:bôa
Creator:Mirash
Version:normal
Source:serial experiments lain
Tags:hinamommy alternative rock pop anime english opening op シリアルエクスペリメンツレイン
BeatmapID:4463336
BeatmapSetID:1526349

[Difficulty]
HPDrainRate:4
CircleSize:3
OverallDifficulty:5
ApproachRate:5
SliderMultiplier:2
SliderTickRate:1

[Events]
//Background and Video events
0,0,"a thing of beauty.jpg",0,0
//Break Periods
//Storyboard Layer 0 (Background)
//Storyboard Layer 1 (Fail)
//Storyboard Layer 2 (Pass)
//Storyboard Layer 3 (Foreground)
//Storyboard Layer 4 (Overlay)
//Storyboard Sound Samples

[TimingPoints]
323,621.761658031088,4,2,1,45,1,0
1910,637.619553666313,4,2,1,45,1,0
4141,-100,4,2,2,45,0,0
4221,-100,4,2,1,45,0,0
4456,648.648648648649,4,2,1,45,1,0
7042,645.50833781603,4,2,1,45,1,0
9301,-100,4,2,2,45,0,0
9381,-100,4,2,1,45,0,0
9618,645.161290322581,4,2,1,45,1,0
12188,642.054574638844,4,2,1,45,1,0
14756,648.999459167117,4,2,1,45,1,0
17352,643.776824034335,4,2,1,45,1,0
19605,-100,4,2,2,45,0,0
19685,-100,4,2,1,45,0,0
19927,642.742367434387,4,2,1,45,1,0
22500,643.949557284679,4,2,1,45,1,0
24753,-100,4,2,2,45,0,0
24834,-100,4,2,1,45,0,0
25719,634.920634920635,4,2,1,45,1,0
27306,-100,4,2,2,45,0,0
27385,-100,4,2,1,45,0,0
27642,650.406504065041,4,2,1,45,1,0
30243,644.19153961778,4,2,1,45,1,0
32170,644.19153961778,4,2,1,45,1,0
32250,-100,4,2,2,49,0,0
32797,651.18298241806,4,2,1,45,1,0
33448,644.19153961778,4,2,1,55,1,0
33763,-100,4,2,2,55,0,0
33843,-100,4,2,1,55,0,0
35380,644.19153961778,4,2,1,55,1,0
40285,-100,4,2,2,5,0,0
41096,618.556701030928,4,2,1,90,1,0
41173,-100,4,2,2,55,0,0
41712,670.391061452514,4,2,1,55,1,0
42382,640.34151547492,4,2,1,55,1,0
44303,640.34151547492,4,2,1,55,1,0
44959,647.249190938511,4,2,1,55,1,0
46900,642.914545941602,4,2,1,55,1,0
48185,640,4,2,1,55,1,0
49465,644.122383252818,4,2,1,55,1,0
51709,-100,4,2,2,55,0,0
51789,-100,4,2,1,55,0,0
52042,642.398286937902,4,2,1,55,1,0
54611,648.648648648649,4,2,1,55,1,0
57205,641.711229946524,4,2,1,55,1,0
59771,638.297872340426,4,2,1,20,1,0
60090,-100,4,2,1,30,0,0
60409,-100,4,2,1,40,0,0
60728,-100,4,2,1,60,0,0
62324,696.540515439981,4,2,1,70,1,0
62672,644.19153961778,4,2,1,70,1,0
64926,644.19153961778,4,2,1,70,1,0
71690,-100,4,2,1,50,0,0
72657,-100,4,2,1,70,0,0
76522,632.244467860906,4,2,1,70,1,1
77786,644.19153961778,4,2,1,70,1,1
82926,638.297872340426,4,2,1,50,1,0
85498,639.318060735216,4,2,1,70,1,0
88055,643.776824034335,4,2,1,70,1,0
93205,647.249190938511,4,2,1,70,1,0

[Colours]
Combo1 : 89,172,255
Combo2 : 136,216,247
Combo3 : 187,187,255
Combo4 : 128,255,255

[HitObjects]
86,51,323,5,0,0:0:0:0:
141,133,633,2,0,P|184:132|247:133,1,100,0|0,0:0|0:0,0:0:0:0:
335,100,1255,1,0,0:0:0:0:
402,173,1566,1,0,0:0:0:0:
369,267,1910,6,0,P|294:267|219:263,1,150,4|2,1:0|0:0,0:0:0:0:
182,230,2547,1,8,0:0:0:0:
84,253,2866,1,2,0:0:0:0:
7,188,3185,2,0,P|16:117|21:79,1,100,0|0,0:0|0:0,0:0:0:0:
67,72,3663,1,0,1:0:0:0:
68,22,3822,1,8,0:0:0:0:
162,54,4141,1,2,0:0:0:0:
249,9,4456,6,0,P|301:20|361:27,1,100,4|0,1:0|0:0,0:0:0:0:
391,115,5104,1,8,0:0:0:0:
483,78,5428,1,2,0:0:0:0:
506,122,5591,1,0,1:0:0:0:
489,169,5753,2,0,P|472:233|468:281,1,100,2|0,0:0|0:0,0:0:0:0:
420,353,6401,1,8,0:0:0:0:
340,291,6726,5,2,0:0:0:0:
293,309,6888,1,0,0:0:0:0:
253,282,7042,2,0,P|158:283|91:285,1,150,4|0,1:0|0:0,0:0:0:0:
69,321,7687,1,8,0:0:0:0:
14,227,8010,2,0,P|17:165|18:113,2,100,2|2|2,0:0|0:0|0:0,0:0:0:0:
62,240,8817,1,0,1:0:0:0:
102,210,8978,1,8,0:0:0:0:
142,109,9301,1,2,0:0:0:0:
217,171,9618,6,0,P|282:182|349:186,1,100,4|2,1:0|0:0,0:0:0:0:
399,129,10263,1,8,0:0:0:0:
360,36,10585,1,2,0:0:0:0:
310,41,10747,1,2,1:2:0:0:
262,26,10908,2,0,P|201:30|146:36,1,100,2|2,0:0|0:0,0:0:0:0:
62,23,11553,1,8,0:0:0:0:
24,115,11876,1,4,0:0:0:0:
118,139,12188,6,0,P|141:202|164:261,1,100,4|2,1:0|0:0,0:0:0:0:
115,266,12669,1,0,1:0:0:0:
139,309,12830,1,8,0:0:0:0:
222,364,13151,1,2,0:0:0:0:
287,288,13472,2,0,P|275:228|266:124,1,150,0|2,0:0|0:0,0:0:0:0:
301,104,14114,1,8,0:0:0:0:
232,37,14435,1,0,1:0:0:0:
192,67,14595,1,0,0:0:0:0:
142,67,14756,6,0,P|152:132|159:202,1,100,4|2,1:0|0:0,0:0:0:0:
105,252,15404,1,8,0:0:0:0:
29,185,15729,2,0,P|32:122|31:76,2,100,2|2|6,0:0|0:0|0:0,0:0:0:0:
25,285,16702,1,8,0:0:0:0:
113,332,17027,5,0,1:0:0:0:
148,297,17189,1,0,0:0:0:0:
188,327,17352,2,0,P|251:319|353:297,1,150,4|2,1:0|0:0,0:0:0:0:
347,252,17995,1,8,0:0:0:0:
439,289,18317,1,2,0:0:0:0:
502,206,18639,2,0,P|494:143|485:80,1,100,0|2,0:0|0:0,0:0:0:0:
409,46,19283,1,8,0:0:0:0:
329,106,19605,5,2,0:0:0:0:
304,149,19766,1,2,0:0:0:0:
253,147,19927,1,4,1:0:0:0:
160,109,20248,1,2,0:0:0:0:
109,109,20409,1,0,1:0:0:0:
86,153,20569,2,0,L|99:232,2,50,8|2|2,0:0|0:0|0:0,0:0:0:0:
37,165,21051,1,4,0:0:0:0:
19,263,21373,1,4,0:0:0:0:
112,298,21694,1,4,0:0:0:0:
160,284,21855,2,0,P|208:294|267:303,1,100,8|0,0:0|1:0,0:0:0:0:
297,333,22337,1,0,1:0:0:0:
342,310,22500,5,4,1:0:0:0:
315,214,22821,1,0,0:0:0:0:
394,152,23143,1,8,0:0:0:0:
476,208,23465,2,0,L|456:268,1,50,2|0,0:0|1:0,0:0:0:0:
426,293,23787,2,0,P|377:273|362:214,1,100,2|2,0:0|0:0,0:0:0:0:
334,188,24270,1,0,1:0:0:0:
358,144,24431,1,8,0:0:0:0:
455,119,24753,1,2,0:0:0:0:
496,27,25075,6,0,P|428:25|370:19,1,100,4|2,1:0|0:0,0:0:0:0:
300,57,25719,1,8,0:0:0:0:
210,9,26036,1,2,0:0:0:0:
135,75,26353,2,0,P|138:124|139:174,1,100,2|2,0:0|0:0,0:0:0:0:
221,232,26988,1,8,0:0:0:0:
145,298,27306,1,2,0:0:0:0:
53,249,27642,6,0,P|63:189|191:146,1,200,4|8,1:0|0:0,0:0:0:0:
231,55,28617,1,2,0:0:0:0:
267,88,28780,2,0,P|318:97|378:107,1,100,0|4,1:0|1:2,0:0:0:0:
402,139,29268,2,0,P|399:192|403:255,2,100,2|8|0,0:0|0:0|1:0,0:0:0:0:
414,38,30243,5,0,1:0:0:0:
319,69,30565,1,2,0:0:0:0:
288,29,30726,1,0,1:0:0:0:
240,45,30887,1,8,0:0:0:0:
140,52,31209,1,2,0:0:0:0:
84,135,31531,2,0,P|95:185|100:250,1,100,4|6,0:0|0:0,0:0:0:0:
174,297,32170,1,4,1:0:0:0:
265,127,32797,6,0,P|356:146|401:150,1,100,8|4,1:0|0:2,0:0:0:0:
404,238,33448,1,8,1:2:0:0:
500,211,33770,1,2,0:0:0:0:
476,166,33931,1,2,0:0:0:0:
484,116,34092,2,0,P|486:56|486:6,2,100,4|4|0,1:2|1:2|1:0,0:0:0:0:
384,112,35058,6,0,P|334:104|286:92,1,100,12|0,1:0|0:0,0:0:0:0:
200,39,35702,1,0,1:0:0:0:
112,88,36024,1,8,0:0:0:0:
142,128,36185,1,0,0:0:0:0:
104,160,36346,1,4,0:0:0:0:
55,247,36668,2,0,P|46:321|50:372,2,100,0|4|8,1:0|1:2|0:0,0:0:0:0:
100,267,37473,1,2,0:0:0:0:
145,246,37634,2,0,L|207:253,1,50,4|2,1:2|0:0,0:0:0:0:
240,231,37956,6,0,P|310:211|323:151,2,100,12|4|8,1:0|0:0|0:0,0:0:0:0:
176,153,38923,1,2,0:0:0:0:
128,136,39084,2,0,P|143:80|153:26,1,100,0|0,1:0|0:0,0:0:0:0:
113,5,39567,1,8,0:0:0:0:
29,59,39889,1,0,1:0:0:0:
55,173,40211,5,4,0:1:0:0:
342,195,41096,6,0,P|337:138|331:60,1,100,4|0,0:0|0:0,0:0:0:0:
265,33,41712,2,0,P|206:47|178:179,1,200,12|8,1:0|1:2,0:0:0:0:
245,235,42702,1,4,0:3:0:0:
242,284,42862,1,0,0:0:0:0:
192,293,43022,2,0,P|137:306|87:315,2,100,0|4|8,1:0|1:3|1:2,0:0:0:0:
271,353,43982,1,4,3:0:0:0:
369,335,44303,2,0,P|409:299|424:246,1,100,4|8,1:0|0:1,0:0:0:0:
377,163,44959,6,0,P|372:100|368:29,1,100,8|4,1:2|0:3,0:0:0:0:
341,21,45444,1,0,0:0:0:0:
299,49,45606,1,0,1:0:0:0:
201,68,45929,1,4,1:3:0:0:
110,24,46253,1,8,0:0:0:0:
29,84,46577,5,4,3:0:0:0:
48,129,46738,1,2,0:0:0:0:
21,171,46900,2,0,P|14:238|8:308,1,100,12|0,1:0|1:0,0:0:0:0:
83,338,47542,1,8,0:0:0:0:
144,259,47864,1,6,0:0:0:0:
239,289,48185,6,0,P|304:304|350:313,2,100,0|0|8,1:0|1:0|0:0,0:0:0:0:
241,188,49145,1,4,0:0:0:0:
289,179,49305,1,0,1:0:0:0:
303,131,49465,1,0,1:0:0:0:
225,67,49787,1,4,1:2:0:0:
306,9,50109,1,8,0:0:0:0:
383,71,50431,2,0,P|446:89|489:93,2,100,4|0|0,0:0|1:0|1:0,0:0:0:0:
303,131,51397,1,8,0:0:0:0:
204,115,51719,5,2,0:0:0:0:
172,76,51880,1,2,0:0:0:0:
124,90,52041,1,4,1:0:0:0:
34,44,52363,1,4,0:1:0:0:
17,142,52684,2,0,P|34:225|40:263,1,100,8|4,1:2|0:3,0:0:0:0:
75,271,53166,2,0,P|83:221|94:172,1,100,4|4,1:0|0:0,0:0:0:0:
140,153,53647,2,0,P|157:236|163:274,1,100,4|4,1:3|1:0,0:0:0:0:
207,265,54129,2,0,P|215:215|226:166,1,100,4|4,1:0|0:3,0:0:0:0:
272,148,54611,2,0,P|289:231|295:269,1,100,4|4,1:0|1:3,0:0:0:0:
337,264,55097,6,0,P|397:232|387:44,1,250,2|8,0:0|1:0,0:0:0:0:
311,88,56232,1,4,0:3:0:0:
222,42,56556,1,8,0:0:0:0:
132,87,56881,1,0,1:0:0:0:
91,57,57043,1,0,1:0:0:0:
113,11,57205,1,4,1:0:0:0:
59,203,57846,2,0,P|76:258|223:294,1,200,8|0,0:0|1:0,0:0:0:0:
268,231,58809,1,4,1:2:0:0:
317,233,58969,1,0,1:0:0:0:
338,278,59130,2,0,P|425:290|461:295,1,100,8|4,0:0|1:2,0:0:0:0:
507,220,59771,5,2,1:2:0:0:
474,182,59930,1,0,1:0:0:0:
440,144,60090,2,0,P|441:78|440:60,1,50,2|0,1:0|1:0,0:0:0:0:
400,64,60409,1,8,0:0:0:0:
308,114,60728,1,2,1:0:0:0:
219,68,61047,1,0,1:0:0:0:
133,119,61366,2,0,P|51:146|37:152,1,100,0|8,1:0|0:0,0:0:0:0:
13,195,61845,1,2,0:0:0:0:
50,228,62005,1,0,1:0:0:0:
144,279,62324,6,0,P|214:275|281:274,1,100,12|2,1:0|0:3,0:0:0:0:
318,208,62994,1,8,0:0:0:0:
389,277,63316,1,2,0:3:0:0:
437,286,63477,1,0,0:0:0:0:
474,252,63638,2,0,P|456:192|450:169,1,50,0|0,1:0|0:0,0:0:0:0:
489,164,63960,1,2,0:3:0:0:
436,89,64282,1,8,1:2:0:0:
486,2,64604,6,0,P|414:7|269:10,1,200,12|2,1:0|0:3,0:0:0:0:
243,36,65409,1,0,0:0:0:0:
193,27,65570,1,8,0:0:0:0:
113,87,65893,1,2,0:3:0:0:
26,36,66215,2,0,P|21:108|9:175,1,100,0|2,1:0|0:3,0:0:0:0:
83,209,66859,1,8,0:0:0:0:
61,254,67020,1,0,1:0:0:0:
84,298,67181,1,4,1:2:0:0:
183,297,67503,6,0,P|293:321|379:339,1,200,12|8,1:0|0:0,0:0:0:0:
426,325,68308,1,2,0:0:0:0:
459,361,68469,1,2,0:3:0:0:
494,267,68791,2,0,P|474:212|457:160,1,100,0|2,1:0|1:3,0:0:0:0:
408,87,69436,1,0,1:0:0:0:
353,170,69758,6,0,P|261:174|131:188,1,200,12|2,1:0|0:3,0:0:0:0:
82,114,70724,1,8,0:0:0:0:
171,68,71046,1,2,1:3:0:0:
92,6,71368,1,4,3:0:0:0:
36,89,71690,2,0,L|47:156,1,66.6666666666667,4|8,3:0|3:0,0:0:0:0:
64,183,72012,2,0,L|49:254,2,66.6666666666667,4|4|8,3:0|3:0|3:0,0:0:0:0:
131,182,72657,5,12,1:0:0:0:
225,148,72979,2,0,P|293:164|362:179,1,100,2|8,0:3|0:0,0:0:0:0:
360,263,73623,1,2,0:3:0:0:
451,222,73945,2,0,P|444:143|439:90,2,100,0|2|8,1:0|1:3|0:0,0:0:0:0:
485,257,74750,1,0,0:0:0:0:
468,304,74911,1,12,1:1:0:0:
260,195,75555,6,0,P|261:123|268:73,2,100,2|8|2,0:3|0:0|0:3,0:0:0:0:
215,219,76361,1,0,0:0:0:0:
174,188,76522,1,0,1:0:0:0:
82,229,76838,1,4,0:2:0:0:
118,321,77154,1,8,1:2:0:0:
142,364,77312,1,0,1:0:0:0:
191,360,77470,1,8,0:3:0:0:
263,294,77786,6,0,P|255:214|251:160,1,100,12|0,1:0|0:0,0:0:0:0:
174,133,78430,1,8,0:0:0:0:
230,50,78752,1,2,0:3:0:0:
312,106,79074,2,0,P|393:127|434:137,2,100,0|8|0,1:2|0:0|1:0,0:0:0:0:
253,194,80040,1,4,0:1:0:0:
256,192,80362,12,4,82926,1:0:0:0:
