osu file format v14

[General]
AudioFilename: audio.mp3
AudioLeadIn: 0
PreviewTime: 323
Countdown: 0
SampleSet: Soft
StackLeniency: 0.7
Mode: 0
LetterboxInBreaks: 0
WidescreenStoryboard: 1

[Editor]
DistanceSpacing: 0.5
BeatDivisor: 6
GridSize: 4
TimelineZoom: 1

[Metadata]
Title:Duvet (TV Size)
TitleUnicode:Duvet (TV Size)
Artist:boa
ArtistUnicode:bôa
Creator:Mirash
Version:intermediate
Source:serial experiments lain
Tags:hinamommy alternative rock pop anime english opening op シリアルエクスペリメンツレイン
BeatmapID:4469797
BeatmapSetID:1526349

[Difficulty]
HPDrainRate:4
CircleSize:3.5
OverallDifficulty:6
ApproachRate:7
SliderMultiplier:2.2
SliderTickRate:1

[Events]
//Background and Video events
0,0,"a thing of beauty.jpg",0,0
//Break Periods
//Storyboard Layer 0 (Background)
//Storyboard Layer 1 (Fail)
//Storyboard Layer 2 (Pass)
//Storyboard Layer 3 (Foreground)
//Storyboard Layer 4 (Overlay)
//Storyboard Sound Samples

[TimingPoints]
323,621.761658031088,4,2,1,45,1,0
633,-133.333333333333,4,2,1,45,0,0
1910,637.619553666313,4,2,1,45,1,0
4141,-100,4,2,2,45,0,0
4221,-100,4,2,1,45,0,0
4456,648.648648648649,4,2,1,45,1,0
7042,645.50833781603,4,2,1,45,1,0
9301,-100,4,2,2,45,0,0
9381,-100,4,2,1,45,0,0
9618,645.161290322581,4,2,1,45,1,0
12188,642.054574638844,4,2,1,45,1,0
14756,648.999459167117,4,2,1,45,1,0
17352,643.776824034335,4,2,1,45,1,0
19605,-100,4,2,2,45,0,0
19685,-100,4,2,1,45,0,0
19927,642.742367434387,4,2,1,45,1,0
22500,643.949557284679,4,2,1,45,1,0
24753,-100,4,2,2,45,0,0
24834,-100,4,2,1,45,0,0
25719,634.920634920635,4,2,1,45,1,0
27306,-100,4,2,2,45,0,0
27385,-100,4,2,1,45,0,0
27642,650.406504065041,4,2,1,45,1,0
30243,644.19153961778,4,2,1,45,1,0
32170,644.19153961778,4,2,1,90,1,0
32250,-100,4,2,2,49,0,0
32797,651.18298241806,4,2,1,55,1,0
33448,644.19153961778,4,2,1,55,1,0
33763,-100,4,2,2,55,0,0
33843,-100,4,2,1,55,0,0
34092,-100,4,2,1,55,0,0
35380,644.19153961778,4,2,1,55,1,0
36990,-100,4,2,1,55,0,0
40285,-100,4,2,2,5,0,0
41096,618.556701030928,4,2,1,90,1,0
41173,-100,4,2,2,55,0,0
41712,670.391061452514,4,2,1,55,1,0
41712,-83.3333333333333,4,2,1,55,0,0
42382,640.34151547492,4,2,1,55,1,0
43022,-83.3333333333333,4,2,1,55,0,0
44303,640.34151547492,4,2,1,55,1,0
44303,-83.3333333333333,4,2,1,55,0,0
44959,647.249190938511,4,2,1,55,1,0
46900,642.914545941602,4,2,1,55,1,0
48185,640,4,2,1,55,1,0
49465,644.122383252818,4,2,1,55,1,0
51709,-100,4,2,2,55,0,0
51789,-100,4,2,1,55,0,0
52042,642.398286937902,4,2,1,55,1,0
52684,-100,4,2,1,55,0,0
54611,648.648648648649,4,2,1,55,1,0
57205,641.711229946524,4,2,1,55,1,0
59771,638.297872340426,4,2,1,20,1,0
60090,-100,4,2,1,30,0,0
60409,-100,4,2,1,40,0,0
60728,-100,4,2,1,60,0,0
62324,696.540515439981,4,2,1,70,1,0
62672,644.19153961778,4,2,1,70,1,0
62994,-100,4,2,1,70,0,0
64926,644.19153961778,4,2,1,70,1,0
65248,-100,4,2,1,70,0,0
71690,-100,4,2,1,50,0,0
72657,-100,4,2,1,70,0,0
76522,632.244467860906,4,2,1,70,1,1
77786,644.19153961778,4,2,1,70,1,1
82926,638.297872340426,4,2,1,50,1,0
85498,639.318060735216,4,2,1,70,1,0
88055,643.776824034335,4,2,1,70,1,0
93205,647.249190938511,4,2,1,70,1,0

[Colours]
Combo1 : 89,172,255
Combo2 : 136,216,247
Combo3 : 187,187,255
Combo4 : 128,255,255

[HitObjects]
55,136,323,5,0,0:0:0:0:
127,82,633,2,0,P|181:88|230:94,1,82.5000031471254,0|0,0:0|0:0,0:0:0:0:
295,94,1255,1,0,0:0:0:0:
295,94,1566,1,0,0:0:0:0:
405,137,1910,6,0,P|410:210|415:259,1,110,4|2,1:0|0:0,0:0:0:0:
377,288,2388,1,2,0:0:0:0:
402,336,2547,1,8,0:0:0:0:
297,371,2866,1,2,0:0:0:0:
242,369,3025,1,0,1:0:0:0:
229,315,3185,2,0,P|237:273|240:243,1,55,0|2,0:0|1:2,0:0:0:0:
205,216,3504,2,0,P|213:174|216:144,1,55,0|0,0:0|1:0,0:0:0:0:
257,128,3822,1,8,0:0:0:0:
218,24,4141,1,2,0:0:0:0:
126,81,4456,1,4,1:0:0:0:
21,48,4780,5,0,0:0:0:0:
43,98,4942,1,0,1:0:0:0:
12,143,5104,1,8,0:0:0:0:
58,242,5428,1,2,0:0:0:0:
168,245,5753,2,0,P|240:232|283:221,1,110,2|0,0:0|0:0,0:0:0:0:
304,176,6239,1,0,1:0:0:0:
356,192,6401,1,8,0:0:0:0:
349,302,6726,1,2,0:0:0:0:
436,365,7042,6,0,P|453:332|463:217,2,110,4|0|8,1:0|0:0|0:0,0:0:0:0:
382,354,7848,1,2,0:0:0:0:
327,359,8010,1,2,0:0:0:0:
272,359,8171,1,0,1:0:0:0:
163,338,8494,1,4,1:2:0:0:
53,351,8817,1,0,1:0:0:0:
24,303,8978,1,8,0:0:0:0:
66,268,9139,2,0,P|54:207|50:183,1,55,2|2,0:0|0:0,0:0:0:0:
55,160,9462,1,0,0:0:0:0:
42,108,9618,5,4,1:0:0:0:
132,45,9940,1,2,0:0:0:0:
152,95,10101,1,0,1:0:0:0:
207,99,10263,2,0,P|276:127|328:151,1,110,8|2,0:0|0:0,0:0:0:0:
338,187,10747,1,2,1:2:0:0:
392,196,10908,1,2,0:0:0:0:
418,243,11069,1,4,1:2:0:0:
471,257,11230,2,0,P|507:296|516:311,2,55,2|0|8,0:0|1:0|0:0,0:0:0:0:
491,148,11876,1,4,0:0:0:0:
389,113,12188,6,0,P|312:124|196:144,1,165,4|0,1:0|1:0,0:0:0:0:
172,126,12830,1,8,0:0:0:0:
112,218,13151,1,2,0:0:0:0:
164,234,13311,1,0,1:0:0:0:
167,289,13472,1,0,0:0:0:0:
120,317,13632,1,4,1:2:0:0:
74,285,13793,2,0,P|69:224|64:198,2,55,2|0|8,0:0|1:0|0:0,0:0:0:0:
164,347,14435,1,0,1:0:0:0:
259,295,14756,5,4,1:0:0:0:
279,243,14918,1,2,0:0:0:0:
333,234,15080,1,2,0:0:0:0:
381,260,15242,1,0,1:0:0:0:
380,314,15404,1,8,0:0:0:0:
480,358,15729,1,2,0:0:0:0:
506,251,16053,2,0,P|497:179|491:124,1,110,2|6,0:0|0:0,0:0:0:0:
384,119,16702,1,8,0:0:0:0:
444,27,17027,1,0,1:0:0:0:
333,18,17352,6,0,P|264:29|218:39,1,110,4|2,1:0|0:0,0:0:0:0:
169,40,17834,1,0,1:0:0:0:
124,72,17995,1,8,0:0:0:0:
81,173,18317,1,2,0:0:0:0:
130,196,18478,1,0,1:0:0:0:
158,243,18639,1,0,0:0:0:0:
191,199,18800,1,4,1:2:0:0:
240,174,18961,2,0,P|281:187|299:193,1,55,2|2,0:0|1:0,0:0:0:0:
345,205,19283,1,8,0:0:0:0:
449,239,19605,1,2,0:0:0:0:
441,348,19927,5,4,1:0:0:0:
339,305,20248,1,2,0:0:0:0:
355,252,20409,1,0,1:0:0:0:
342,198,20569,2,0,P|335:155|335:138,1,55,8|2,0:0|0:0,0:0:0:0:
351,90,20891,1,2,0:0:0:0:
303,63,21051,1,4,0:0:0:0:
227,143,21373,1,4,0:0:0:0:
137,79,21694,1,4,0:0:0:0:
137,79,21855,2,0,P|145:32|146:8,2,55,8|0|0,0:0|1:0|1:0,0:0:0:0:
86,101,22337,1,0,1:0:0:0:
97,155,22500,5,4,1:0:0:0:
166,239,22821,1,0,0:0:0:0:
232,150,23143,1,8,0:0:0:0:
277,180,23304,1,0,0:0:0:0:
325,153,23465,2,0,P|356:161|385:168,1,55,2|0,0:0|1:0,0:0:0:0:
433,174,23787,1,2,0:0:0:0:
471,213,23948,1,4,1:2:0:0:
439,258,24109,1,2,0:0:0:0:
385,243,24270,2,0,P|397:300|405:357,1,110,0|2,1:0|0:0,0:0:0:0:
455,372,24753,1,2,0:0:0:0:
322,344,25075,5,4,1:0:0:0:
248,261,25397,1,2,0:0:0:0:
196,241,25558,1,0,1:0:0:0:
164,287,25719,2,0,P|99:298|32:305,1,110,8|2,0:0|0:0,0:0:0:0:
25,197,26353,1,2,0:0:0:0:
120,142,26671,1,2,0:0:0:0:
41,64,26988,1,8,0:0:0:0:
145,30,27306,1,2,0:0:0:0:
197,59,27465,1,2,0:0:0:0:
251,34,27642,6,0,P|309:49|367:66,1,110,4|2,1:0|0:0,0:0:0:0:
382,111,28129,1,0,1:0:0:0:
436,114,28292,1,8,0:0:0:0:
370,202,28617,1,2,0:0:0:0:
449,277,28942,1,0,0:0:0:0:
413,319,29105,1,4,1:2:0:0:
359,304,29268,1,2,0:0:0:0:
306,287,29430,1,0,1:0:0:0:
271,329,29593,1,8,0:0:0:0:
163,308,29918,1,0,1:0:0:0:
111,288,30081,1,2,0:0:0:0:
129,235,30243,5,0,1:0:0:0:
207,157,30565,1,2,0:0:0:0:
261,165,30726,1,0,1:0:0:0:
283,114,30887,1,8,0:0:0:0:
221,22,31209,1,2,0:0:0:0:
174,51,31370,1,0,1:0:0:0:
122,31,31531,2,0,P|61:60|42:62,1,55,4|0,0:0|1:0,0:0:0:0:
49,106,31853,2,0,P|104:144|115:159,1,55,6|4,0:0|0:0,0:0:0:0:
147,123,32170,6,0,P|143:200|144:300,1,165,4|0,1:0|0:0,0:0:0:0:
131,334,32797,6,0,P|216:346|264:224,1,220,8|8,1:0|1:2,0:0:0:0:
243,191,33609,1,0,0:0:0:0:
282,153,33770,1,2,0:0:0:0:
256,104,33931,1,2,0:0:0:0:
252,49,34092,2,0,L|305:75,1,55,4|0,1:2|0:0,0:0:0:0:
350,49,34414,2,0,L|403:75,1,55,4|0,1:2|0:0,0:0:0:0:
451,55,34736,2,0,L|504:81,1,55,0|0,1:0|0:0,0:0:0:0:
509,133,35058,6,0,P|466:172|458:235,1,110,12|0,1:0|0:0,0:0:0:0:
401,231,35541,1,2,0:0:0:0:
432,275,35702,1,0,1:0:0:0:
409,325,35863,1,2,0:0:0:0:
354,332,36024,2,0,P|319:323|300:294,1,55,8|0,0:0|0:0,0:0:0:0:
271,267,36346,2,0,P|242:298|214:304,1,55,4|2,0:0|0:0,0:0:0:0:
180,280,36668,1,0,1:0:0:0:
134,249,36829,1,0,0:0:0:0:
84,271,36990,1,4,1:2:0:0:
73,325,37151,1,0,1:0:0:0:
106,368,37312,6,0,P|161:357|220:355,2,110,8|4|12,0:0|1:2|1:0,0:0:0:0:
30,288,38278,1,4,0:0:0:0:
108,210,38600,1,8,0:0:0:0:
42,121,38923,1,2,0:0:0:0:
42,121,39084,1,0,1:0:0:0:
113,37,39406,1,0,0:0:0:0:
113,37,39567,1,8,0:0:0:0:
7,6,39889,1,0,1:0:0:0:
42,121,40211,1,4,0:1:0:0:
254,12,41096,5,4,0:0:0:0:
261,214,41712,6,0,L|273:354,2,131.99999597168,12|8|8,1:0|0:1|1:2,0:0:0:0:
212,239,42542,1,0,0:0:0:0:
162,263,42702,1,4,0:3:0:0:
114,290,42862,1,0,0:0:0:0:
64,313,43022,2,0,L|51:176,2,131.99999597168,0|4|8,1:0|1:3|1:2,0:0:0:0:
114,290,43822,1,0,0:0:0:0:
162,263,43982,1,4,3:0:0:0:
212,239,44142,1,0,0:0:0:0:
261,214,44303,2,0,L|273:354,1,131.99999597168,4|8,1:0|0:1,0:0:0:0:
349,261,44959,5,8,1:2:0:0:
398,237,45120,1,0,0:0:0:0:
447,213,45282,1,4,0:3:0:0:
497,190,45444,1,0,0:0:0:0:
446,168,45606,1,0,1:0:0:0:
395,146,45768,1,2,0:0:0:0:
344,125,45929,1,4,1:3:0:0:
252,187,46253,1,8,0:0:0:0:
143,165,46577,1,4,3:0:0:0:
34,144,46900,1,12,1:0:0:0:
258,189,49145,5,4,0:0:0:0:
151,165,49465,2,0,P|155:107|157:85,1,55,0|2,1:0|0:0,0:0:0:0:
195,73,49787,1,4,1:2:0:0:
157,32,49948,1,2,0:0:0:0:
203,3,50109,1,8,0:0:0:0:
295,62,50431,1,4,0:0:0:0:
399,28,50753,1,0,1:0:0:0:
433,70,50914,1,0,0:0:0:0:
393,108,51075,1,0,1:0:0:0:
427,150,51236,1,2,0:0:0:0:
395,195,51397,2,0,P|403:287|401:342,1,110,8|2,0:0|0:0,0:0:0:0:
436,348,51880,1,2,0:0:0:0:
389,377,52041,5,4,1:0:0:0:
305,304,52363,1,4,0:1:0:0:
199,334,52684,2,0,P|142:308|141:258,1,110,8|4,1:2|0:3,0:0:0:0:
90,238,53166,2,0,P|98:177|167:158,1,110,4|4,1:0|0:0,0:0:0:0:
137,99,53647,2,0,P|159:73|244:88,1,110,4|4,1:3|1:0,0:0:0:0:
281,53,54129,2,0,P|334:89|320:161,1,110,4|4,1:0|0:3,0:0:0:0:
390,146,54611,2,0,P|369:224|319:230,1,110,4|4,1:0|1:3,0:0:0:0:
373,280,55097,1,2,0:0:0:0:
361,333,55259,2,0,P|286:349|244:278,1,165,8|4,1:0|0:3,0:0:0:0:
218,233,55908,1,8,1:0:0:0:
297,150,56232,5,4,0:3:0:0:
258,110,56394,1,0,1:0:0:0:
203,112,56556,1,8,0:0:0:0:
163,151,56719,1,2,0:0:0:0:
171,205,56881,2,0,P|225:243|234:267,1,55,0|0,1:0|1:0,0:0:0:0:
268,210,57205,6,0,P|319:261|290:345,1,165,4|0,1:0|0:0,0:0:0:0:
240,329,57846,1,8,0:0:0:0:
188,348,58007,1,0,0:0:0:0:
133,339,58167,1,4,0:0:0:0:
81,358,58327,1,0,0:0:0:0:
27,370,58488,1,0,1:0:0:0:
65,266,58809,1,4,1:2:0:0:
10,170,59130,1,8,0:0:0:0:
23,61,59450,1,4,1:2:0:0:
74,81,59611,1,2,0:0:0:0:
119,50,59771,6,0,L|176:62,1,55,2|0,1:2|1:0,0:0:0:0:
199,109,60090,1,2,1:0:0:0:
252,99,60249,1,0,1:0:0:0:
289,139,60409,2,0,L|346:151,1,55,8|0,0:0|0:0,0:0:0:0:
395,135,60728,1,2,1:0:0:0:
434,173,60888,1,2,0:0:0:0:
468,215,61047,2,0,L|411:227,1,55,0|2,1:0|0:0,0:0:0:0:
359,217,61366,1,0,1:0:0:0:
319,255,61526,1,0,1:0:0:0:
264,249,61685,1,8,0:0:0:0:
221,284,61845,1,2,0:0:0:0:
165,286,62005,1,0,1:0:0:0:
127,325,62164,1,2,0:0:0:0:
79,343,62324,6,0,P|94:246|104:193,1,110,12|2,1:0|0:3,0:0:0:0:
123,128,62994,1,8,0:0:0:0:
165,93,63155,1,2,0:0:0:0:
161,38,63316,1,2,0:3:0:0:
52,55,63638,2,0,P|63:122|71:170,1,110,0|2,1:0|0:3,0:0:0:0:
164,220,64282,1,8,1:2:0:0:
252,154,64604,6,0,P|337:172|397:182,1,110,12|0,1:0|0:0,0:0:0:0:
408,202,65087,1,0,0:0:0:0:
462,193,65248,1,2,0:3:0:0:
445,84,65570,1,8,0:0:0:0:
390,80,65731,1,2,0:0:0:0:
352,39,65892,1,2,0:3:0:0:
246,68,66214,1,0,1:0:0:0:
194,87,66375,1,0,1:0:0:0:
141,104,66536,1,2,0:3:0:0:
89,122,66697,1,0,3:0:0:0:
39,145,66858,2,0,P|56:202|61:222,1,55,8|0,0:0|1:0,0:0:0:0:
108,230,67180,2,0,P|106:272|102:302,1,55,4|2,1:2|0:0,0:0:0:0:
141,325,67502,6,0,P|200:306|230:225,2,110,12|2|8,1:0|0:3|0:0,0:0:0:0:
95,355,68308,1,2,0:0:0:0:
40,355,68469,1,2,0:3:0:0:
14,306,68630,1,0,1:0:0:0:
34,254,68791,2,0,P|46:197|50:168,1,55,0|0,1:0|0:0,0:0:0:0:
66,149,69113,2,0,P|60:99|57:73,1,55,2|0,1:3|0:0,0:0:0:0:
97,54,69435,1,0,1:0:0:0:
185,118,69757,6,0,P|284:150|336:164,1,110,12|0,1:0|0:0,0:0:0:0:
341,132,70240,1,2,0:0:0:0:
386,162,70401,1,2,0:3:0:0:
468,89,70723,1,8,0:0:0:0:
376,28,71045,1,2,1:3:0:0:
325,49,71206,1,0,1:0:0:0:
275,25,71367,1,4,3:0:0:0:
182,85,71690,1,4,3:0:0:0:
77,49,72012,1,4,3:0:0:0:
75,158,72334,1,4,3:0:0:0:
11,248,72656,5,12,1:0:0:0:
103,307,72978,1,2,0:3:0:0:
161,213,73300,1,8,0:0:0:0:
204,179,73461,1,2,0:0:0:0:
249,209,73622,1,2,0:3:0:0:
251,263,73783,1,2,0:0:0:0:
202,288,73944,2,0,P|214:333|222:361,1,55,0|0,1:0|0:0,0:0:0:0:
264,368,74266,2,0,P|284:340|305:320,1,55,2|0,1:3|1:0,0:0:0:0:
349,304,74588,1,8,0:0:0:0:
456,328,74910,6,0,P|446:262|433:177,1,110,12|0,1:1|0:0,0:0:0:0:
431,164,75394,1,0,0:0:0:0:
420,110,75555,1,2,0:3:0:0:
310,120,75877,1,8,0:0:0:0:
283,71,76038,1,2,0:0:0:0:
305,20,76199,1,2,0:3:0:0:
200,60,76522,6,0,P|133:86|73:100,2,110,0|4|8,1:0|0:2|1:2,0:0:0:0:
218,111,77312,1,0,1:0:0:0:
185,155,77470,1,8,0:3:0:0:
197,208,77628,1,2,0:0:0:0:
183,260,77786,1,12,1:0:0:0:
247,348,78108,1,0,0:0:0:0:
137,343,78430,2,0,L|72:360,2,55,8|2|2,0:0|0:0|0:3,0:0:0:0:
191,353,78913,1,0,0:0:0:0:
228,312,79074,1,0,1:2:0:0:
334,340,79396,1,8,0:0:0:0:
416,266,79718,1,0,1:0:0:0:
504,330,80040,1,4,0:1:0:0:
256,192,80362,12,4,82926,1:0:0:0:
