osu file format v14

[General]
AudioFilename: audio.mp3
AudioLeadIn: 0
PreviewTime: 323
Countdown: 0
SampleSet: Soft
StackLeniency: 0.7
Mode: 0
LetterboxInBreaks: 0
WidescreenStoryboard: 1

[Editor]
DistanceSpacing: 0.5
BeatDivisor: 6
GridSize: 4
TimelineZoom: 1

[Metadata]
Title:Duvet (TV Size)
TitleUnicode:Duvet (TV Size)
Artist:boa
ArtistUnicode:bôa
Creator:Mirash
Version:insane
Source:serial experiments lain
Tags:hinamommy alternative rock pop anime english opening op シリアルエクスペリメンツレイン
BeatmapID:4461829
BeatmapSetID:1526349

[Difficulty]
HPDrainRate:6
CircleSize:4
OverallDifficulty:7.5
ApproachRate:8
SliderMultiplier:2.2
SliderTickRate:1

[Events]
//Background and Video events
0,0,"a thing of beauty.jpg",0,0
//Break Periods
//Storyboard Layer 0 (Background)
//Storyboard Layer 1 (Fail)
//Storyboard Layer 2 (Pass)
//Storyboard Layer 3 (Foreground)
//Storyboard Layer 4 (Overlay)
//Storyboard Sound Samples

[TimingPoints]
323,621.761658031088,4,2,1,45,1,0
323,-133.333333333333,4,2,1,45,0,0
1910,637.619553666313,4,2,1,45,1,0
4141,-100,4,2,2,45,0,0
4221,-100,4,2,1,45,0,0
4456,648.648648648649,4,2,1,45,1,0
7042,645.50833781603,4,2,1,45,1,0
9301,-100,4,2,2,45,0,0
9381,-100,4,2,1,45,0,0
9618,645.161290322581,4,2,1,45,1,0
12188,642.054574638844,4,2,1,45,1,0
14756,648.999459167117,4,2,1,45,1,0
17352,643.776824034335,4,2,1,45,1,0
19605,-100,4,2,2,45,0,0
19685,-100,4,2,1,45,0,0
19927,642.742367434387,4,2,1,45,1,0
22500,643.949557284679,4,2,1,45,1,0
24753,-100,4,2,2,45,0,0
24834,-100,4,2,1,45,0,0
25719,634.920634920635,4,2,1,45,1,0
27306,-100,4,2,2,45,0,0
27385,-100,4,2,1,45,0,0
27642,650.406504065041,4,2,1,45,1,0
30243,644.19153961778,4,2,1,45,1,0
32170,644.19153961778,4,2,1,45,1,0
32170,-200,4,2,1,90,0,0
32250,-333.333333333333,4,2,2,49,0,0
32797,651.18298241806,4,2,1,45,1,0
32797,-66.6666666666667,4,2,1,55,0,0
33448,644.19153961778,4,2,1,55,1,0
33448,-66.6666666666667,4,2,1,55,0,0
35380,644.19153961778,4,2,1,55,1,0
35380,-66.6666666666667,4,2,1,55,0,0
36984,-66.6666666666667,4,2,1,55,0,0
40205,-1000,4,2,1,55,0,0
40285,-1000,4,2,2,5,0,0
41096,618.556701030928,4,2,1,90,1,0
41096,-133.333333333333,4,2,2,90,0,0
41173,-133.333333333333,4,2,2,55,0,0
41712,670.391061452514,4,2,1,55,1,0
41712,-66.6666666666667,4,2,1,55,0,0
42382,640.34151547492,4,2,1,55,1,0
42382,-66.6666666666667,4,2,1,55,0,0
44303,640.34151547492,4,2,1,55,1,0
44303,-66.6666666666667,4,2,1,55,0,0
44959,647.249190938511,4,2,1,55,1,0
44959,-66.6666666666667,4,2,1,55,0,0
46900,642.914545941602,4,2,1,55,1,0
46900,-66.6666666666667,4,2,1,55,0,0
48185,640,4,2,1,55,1,0
48185,-66.6666666666667,4,2,1,55,0,0
49465,644.122383252818,4,2,1,55,1,0
50106,-66.6666666666667,4,2,1,55,0,0
51709,-66.6666666666667,4,2,2,55,0,0
52042,642.398286937902,4,2,1,55,1,0
52042,-66.6666666666667,4,2,1,55,0,0
54611,648.648648648649,4,2,1,55,1,0
54611,-66.6666666666667,4,2,1,55,0,0
57205,641.711229946524,4,2,1,55,1,0
59771,638.297872340426,4,2,1,20,1,0
60090,-100,4,2,1,30,0,0
60409,-100,4,2,1,40,0,0
60728,-100,4,2,1,60,0,0
62324,696.540515439981,4,2,1,70,1,0
62324,-66.6666666666667,4,2,1,70,0,0
62672,644.19153961778,4,2,1,70,1,0
62833,-66.6666666666667,4,2,1,70,0,0
64926,644.19153961778,4,2,1,70,1,0
64926,-66.6666666666667,4,2,1,70,0,0
71690,-66.6666666666667,4,2,1,50,0,0
72657,-66.6666666666667,4,2,1,70,0,0
76522,632.244467860906,4,2,1,70,1,1
77154,-66.6666666666667,4,2,1,70,0,1
77786,644.19153961778,4,2,1,70,1,1
77786,-66.6666666666667,4,2,1,70,0,1
80040,-133.333333333333,4,2,1,70,0,1
82926,638.297872340426,4,2,1,50,1,0
85498,639.318060735216,4,2,1,70,1,0
88055,643.776824034335,4,2,1,70,1,0
93205,647.249190938511,4,2,1,70,1,0

[Colours]
Combo1 : 89,172,255
Combo2 : 136,216,247
Combo3 : 187,187,255
Combo4 : 128,255,255

[HitObjects]
88,120,323,5,0,0:0:0:0:
88,120,633,2,0,P|75:185|70:234,1,82.5000031471253,0|0,0:0|0:0,0:0:0:0:
125,262,1255,1,0,0:0:0:0:
86,330,1566,1,0,0:0:0:0:
170,167,1910,6,0,P|229:182|315:200,1,110,4|2,1:0|0:0,0:0:0:0:
335,283,2388,1,2,0:0:0:0:
423,223,2547,2,0,P|416:184|416:160,1,55,8|0,0:0|0:0,0:0:0:0:
334,85,2866,1,2,0:0:0:0:
435,17,3025,1,0,1:0:0:0:
409,84,3185,1,0,0:0:0:0:
262,41,3344,2,0,P|222:47|202:53,1,55,2|0,1:2|0:0,0:0:0:0:
154,122,3663,1,0,1:0:0:0:
47,51,3822,1,8,0:0:0:0:
130,10,3982,1,2,0:0:0:0:
59,139,4141,1,2,0:0:0:0:
206,189,4301,5,2,0:0:0:0:
206,189,4380,1,2,0:0:0:0:
206,189,4456,2,0,P|249:180|272:174,1,55,4|0,1:0|0:0,0:0:0:0:
321,126,4780,1,0,0:0:0:0:
407,179,4942,1,0,1:0:0:0:
512,121,5104,2,0,P|469:112|446:106,1,55,8|2,0:0|0:0,0:0:0:0:
427,37,5428,1,2,0:0:0:0:
387,99,5591,1,0,1:0:0:0:
467,235,5753,2,0,P|483:273|491:297,2,55,2|4|0,0:0|1:2|0:0,0:0:0:0:
357,232,6239,1,0,1:0:0:0:
259,166,6401,2,0,P|268:140|279:115,2,55,8|2|2,0:0|0:0|0:0,0:0:0:0:
156,213,6888,5,0,0:0:0:0:
156,213,6969,1,0,0:0:0:0:
156,213,7042,2,0,P|173:234|189:256,1,55,4|0,1:0|0:0,0:0:0:0:
159,102,7364,2,0,P|131:106|104:109,1,55,0|0,0:0|1:0,0:0:0:0:
259,166,7687,2,0,P|268:140|279:115,1,55,8|2,0:0|0:0,0:0:0:0:
189,176,8010,5,2,0:0:0:0:
311,227,8171,1,0,1:0:0:0:
358,111,8333,1,2,0:0:0:0:
237,60,8494,1,4,1:2:0:0:
279,137,8655,1,2,0:0:0:0:
326,18,8817,1,0,1:0:0:0:
433,99,8978,2,0,P|435:139|436:166,1,55,8|2,0:0|0:0,0:0:0:0:
362,233,9301,1,2,0:0:0:0:
459,336,9462,5,0,0:0:0:0:
459,336,9543,1,2,0:0:0:0:
459,336,9618,2,0,P|457:308|456:281,1,55,4|0,1:0|0:0,0:0:0:0:
291,232,9940,2,0,P|289:259|288:286,1,55,2|0,0:0|1:0,0:0:0:0:
364,186,10263,2,0,P|345:165|326:145,1,55,8|0,0:0|0:0,0:0:0:0:
168,214,10585,2,0,P|184:235|201:257,1,55,2|2,0:0|1:2,0:0:0:0:
206,120,10908,5,2,0:0:0:0:
102,78,11069,1,4,1:2:0:0:
104,171,11230,1,2,0:0:0:0:
192,45,11392,1,0,1:0:0:0:
24,55,11553,1,8,0:0:0:0:
89,158,11714,1,0,1:0:0:0:
114,73,11876,2,0,P|106:34|101:-1,1,55,4|0,0:0|0:0,0:0:0:0:
132,22,12118,1,0,0:0:0:0:
164,28,12188,1,4,1:0:0:0:
463,284,12509,5,2,0:0:0:0:
376,219,12669,1,0,1:0:0:0:
386,301,12830,2,0,P|396:351|400:379,1,55,8|0,0:0|0:0,0:0:0:0:
455,199,13151,2,0,P|459:171|465:145,1,55,2|0,0:0|1:0,0:0:0:0:
303,226,13472,1,0,0:0:0:0:
269,156,13632,1,4,1:2:0:0:
344,152,13793,1,2,0:0:0:0:
376,90,13953,1,0,1:0:0:0:
206,119,14114,1,8,0:0:0:0:
278,229,14274,1,2,0:0:0:0:
285,154,14435,1,0,1:0:0:0:
177,210,14595,5,0,0:0:0:0:
177,210,14675,1,0,0:0:0:0:
177,210,14756,2,0,B|139:218|105:225,1,55,4|2,1:0|0:0,0:0:0:0:
35,162,15080,1,2,0:0:0:0:
122,126,15242,1,0,1:0:0:0:
33,291,15404,2,0,B|45:254|56:221,1,55,8|2,0:0|0:0,0:0:0:0:
51,82,15729,2,0,B|38:45|27:12,1,55,2|0,0:0|1:0,0:0:0:0:
141,69,16053,5,2,0:0:0:0:
228,10,16216,1,0,1:0:0:0:
110,1,16378,1,6,0:0:0:0:
220,84,16540,1,0,1:0:0:0:
345,26,16702,2,0,P|393:36|410:41,1,55,8|4,0:0|0:0,0:0:0:0:
432,103,17027,1,0,1:0:0:0:
500,6,17189,5,0,0:0:0:0:
500,6,17270,1,0,0:0:0:0:
500,6,17352,2,0,P|511:78|514:188,1,165,4|0,1:0|0:0,0:0:0:0:
462,231,17995,1,8,0:0:0:0:
508,296,18156,1,0,0:0:0:0:
491,372,18317,1,2,0:0:0:0:
354,345,18478,1,0,1:0:0:0:
373,224,18639,2,0,P|381:258|384:281,1,55,0|4,0:0|1:2,0:0:0:0:
224,336,18961,2,0,P|228:308|234:282,1,55,2|2,0:0|1:0,0:0:0:0:
180,139,19283,1,8,0:0:0:0:
278,167,19444,1,2,0:0:0:0:
214,211,19605,1,2,0:0:0:0:
280,76,19766,5,2,0:0:0:0:
280,76,19846,1,2,0:0:0:0:
280,76,19927,2,0,P|319:87|450:118,1,165,4|0,1:0|1:0,0:0:0:0:
502,76,20569,1,8,0:0:0:0:
407,18,20730,1,2,0:0:0:0:
407,18,20810,1,2,0:0:0:0:
407,18,20891,1,2,0:0:0:0:
368,155,21051,6,0,L|381:190,1,27.5,4|0,0:0|0:0,0:0:0:0:
207,264,21373,6,0,L|216:238,1,27.5,4|0,0:0|0:0,0:0:0:0:
142,87,21694,6,0,L|155:122,1,27.5,4|0,0:0|0:0,0:0:0:0:
106,179,21855,1,8,0:0:0:0:
31,155,22015,1,0,1:0:0:0:
31,155,22096,1,0,0:0:0:0:
31,155,22176,1,0,1:0:0:0:
43,66,22337,1,0,1:0:0:0:
226,96,22500,6,0,P|267:87|338:67,1,110,4|0,1:0|0:0,0:0:0:0:
414,132,22982,1,0,1:0:0:0:
471,14,23143,1,8,0:0:0:0:
405,55,23304,5,0,0:0:0:0:
487,91,23465,1,2,0:0:0:0:
346,0,23626,1,0,1:0:0:0:
328,145,23787,2,0,P|341:175|349:205,2,55,2|4|2,0:0|1:2|0:0,0:0:0:0:
231,218,24270,1,0,1:0:0:0:
157,104,24431,2,0,P|165:78|177:53,1,55,8|2,0:0|0:0,0:0:0:0:
55,24,24753,1,2,0:0:0:0:
80,166,24914,5,2,0:0:0:0:
80,166,24995,1,2,0:0:0:0:
80,166,25075,2,0,P|88:224|86:290,1,110,4|2,1:0|0:0,0:0:0:0:
172,355,25558,1,0,1:0:0:0:
12,373,25719,2,0,P|22:315|24:303,1,55,8|0,0:0|0:0,0:0:0:0:
177,266,26036,1,2,0:0:0:0:
148,183,26195,1,0,1:0:0:0:
262,308,26353,2,0,P|252:250|250:238,1,55,2|4,0:0|1:2,0:0:0:0:
316,180,26671,1,2,0:0:0:0:
361,265,26830,1,0,1:0:0:0:
485,161,26988,2,0,P|480:188|475:215,1,55,8|6,0:0|0:0,0:0:0:0:
497,299,27306,1,2,0:0:0:0:
401,155,27465,5,2,0:0:0:0:
401,155,27544,1,2,0:0:0:0:
401,155,27642,2,0,P|405:108|408:44,1,110,4|2,1:0|0:0,0:0:0:0:
298,105,28129,1,0,1:0:0:0:
194,28,28292,2,0,P|197:72|200:102,1,55,8|2,0:0|0:0,0:0:0:0:
142,178,28617,1,2,0:0:0:0:
56,93,28780,1,0,1:0:0:0:
224,160,28942,2,0,P|221:204|217:234,1,55,0|4,0:0|1:2,0:0:0:0:
164,278,29268,1,2,0:0:0:0:
16,162,29430,1,0,1:0:0:0:
63,228,29593,2,0,P|66:272|69:302,1,55,8|0,0:0|0:0,0:0:0:0:
327,264,29918,6,0,P|329:236|331:209,1,55,0|2,1:0|0:0,0:0:0:0:
353,184,30162,1,0,0:0:0:0:
376,160,30243,1,0,1:0:0:0:
415,236,30404,1,2,0:0:0:0:
301,336,30565,2,0,P|241:323|225:322,1,55
168,159,30887,1,8,0:0:0:0:
240,197,31048,1,2,0:0:0:0:
256,115,31209,2,0,P|283:122|324:131,1,55,2|0,0:0|1:0,0:0:0:0:
206,16,31531,2,0,P|179:23|138:32,1,55,4|0,0:0|1:0,0:0:0:0:
26,17,31853,5,6,0:0:0:0:
58,175,32014,1,4,0:0:0:0:
89,184,32095,1,0,0:0:0:0:
103,212,32170,2,0,P|89:258|83:294,1,82.5,4|0,1:0|0:0,0:0:0:0:
148,364,32797,6,0,P|199:338|205:228,1,165.000006294251,8|4,1:0|0:2,0:0:0:0:
313,176,33285,1,2,1:2:0:0:
231,75,33448,2,0,P|233:119|230:164,1,82.5000031471253,8|0,1:2|0:0,0:0:0:0:
398,211,33770,2,0,P|395:169|398:109,1,82.5000031471253,2|2,0:0|0:0,0:0:0:0:
435,114,34011,1,2,0:0:0:0:
416,76,34092,1,4,1:2:0:0:
212,17,34414,1,4,1:2:0:0:
252,234,34736,1,0,1:0:0:0:
471,350,35058,6,0,P|471:296|468:179,1,165.000006294251,12|0,1:0|0:0,0:0:0:0:
393,232,35541,1,2,0:0:0:0:
339,162,35702,2,0,P|346:99|347:70,1,82.5000031471254,0|2,1:0|0:0,0:0:0:0:
397,10,36024,1,8,0:0:0:0:
439,87,36185,1,0,0:0:0:0:
243,9,36346,2,0,P|245:50|250:91,1,82.5000031471254,4|2,0:0|0:0,0:0:0:0:
224,112,36587,1,0,0:0:0:0:
236,142,36668,1,0,1:0:0:0:
322,182,36829,1,0,0:0:0:0:
248,295,36990,2,0,P|248:249|250:203,1,82.5000031471254,4|0,1:2|1:0,0:0:0:0:
161,178,37312,1,8,0:0:0:0:
93,254,37473,1,2,0:0:0:0:
27,176,37634,1,4,1:2:0:0:
155,21,37795,5,2,0:0:0:0:
155,21,37876,1,0,0:0:0:0:
155,21,37956,2,0,P|152:77|158:201,1,165.000006294251,12|4,1:0|0:0,0:0:0:0:
120,293,38439,1,0,0:0:0:0:
234,329,38600,2,0,P|238:246|235:164,1,165.000006294251,8|2,0:0|0:0,0:0:0:0:
281,57,39084,1,0,1:0:0:0:
300,29,39164,1,0,0:0:0:0:
324,50,39245,2,0,P|323:104|321:146,1,82.5000031471254,0|0,1:0|0:0,0:0:0:0:
397,279,39567,2,0,P|395:237|394:196,1,82.5000031471254,8|0,0:0|0:0,0:0:0:0:
466,146,39889,1,0,1:0:0:0:
508,356,40211,5,4,0:1:0:0:
52,290,41096,6,0,P|85:289|159:289,1,82.5000031471254,4|0,0:0|0:0,0:0:0:0:
216,318,41559,1,2,0:0:0:0:
216,318,41637,1,0,0:0:0:0:
216,318,41712,2,0,P|211:262|209:218,1,82.5000031471254,12|0,1:0|0:0,0:0:0:0:
391,175,42047,2,0,P|388:216|384:257,1,82.5000031471254,8|0,0:1|0:0,0:0:0:0:
288,375,42382,6,0,P|297:281|302:190,1,165.000006294251,8|4,1:2|0:3,0:0:0:0:
223,146,42862,1,0,0:0:0:0:
342,94,43022,1,0,1:0:0:0:
373,163,43182,1,2,0:0:0:0:
267,82,43342,2,0,P|272:33|273:-7,1,82.5000031471254,4|4,1:3|0:3,0:0:0:0:
117,0,43662,6,0,P|122:82|130:164,1,165.000006294251,8|4,1:2|3:0,0:0:0:0:
57,266,44142,1,0,0:0:0:0:
57,266,44222,1,0,0:0:0:0:
57,266,44303,1,4,1:0:0:0:
216,352,44623,1,8,0:1:0:0:
334,215,44959,5,8,1:2:0:0:
243,243,45120,1,0,0:0:0:0:
309,300,45282,1,4,0:3:0:0:
418,221,45444,1,0,0:0:0:0:
418,221,45525,1,0,0:0:0:0:
418,221,45606,2,0,P|413:173|409:127,1,82.5000031471254,0|2,1:0|0:0,0:0:0:0:
306,74,45929,1,4,1:3:0:0:
281,155,46091,1,4,0:3:0:0:
153,21,46253,2,0,P|148:105|140:196,1,165.000006294251,8|4,0:0|3:0,0:0:0:0:
138,215,46658,1,2,0:0:0:0:
135,242,46738,1,2,0:0:0:0:
53,303,46900,6,0,P|33:265|10:227,1,82.5000031471254,12|0,1:0|0:0,0:0:0:0:
210,297,47221,2,0,P|175:322|141:351,1,82.5000031471254,0|2,1:0|0:0,0:0:0:0:
239,174,47542,2,0,P|281:224|349:299,2,165.000006294251,8|6|0,0:0|0:0|1:0,0:0:0:0:
361,150,48345,5,0,0:0:0:0:
307,45,48505,1,0,1:0:0:0:
186,67,48665,1,0,1:0:0:0:
239,174,48825,2,0,P|197:224|129:299,2,165.000006294251,8|4|0,0:0|0:0|1:0,0:0:0:0:
193,116,49626,5,2,0:0:0:0:
256,5,49787,1,4,1:2:0:0:
322,136,49948,1,2,0:0:0:0:
398,146,50109,2,0,P|392:205|391:240,1,82.5000031471254,8|0,0:0|0:0,0:0:0:0:
486,334,50431,2,0,P|478:284|473:245,1,82.5000031471254,4|2,0:0|0:0,0:0:0:0:
488,227,50672,1,0,0:0:0:0:
485,198,50753,1,0,1:0:0:0:
505,101,50914,1,0,0:0:0:0:
432,0,51075,2,0,P|433:43|434:105,1,82.5000031471254,0|2,1:0|0:0,0:0:0:0:
345,162,51397,5,8,0:0:0:0:
223,91,51558,1,0,0:1:0:0:
177,225,51719,1,2,1:1:0:0:
312,291,51880,1,0,0:0:0:0:
312,291,51960,1,2,0:0:0:0:
312,291,52042,2,0,P|311:211|308:117,1,165.000006294251,4|4,1:0|0:1,0:0:0:0:
17,38,52684,6,0,P|78:50|86:149,1,165.000006294251,8|4,1:2|0:3,0:0:0:0:
143,291,53166,2,0,P|158:213|238:187,1,165.000006294251,4|4,1:0|0:0,0:0:0:0:
349,40,53647,2,0,P|397:99|341:169,1,165.000006294251,4|4,1:3|1:0,0:0:0:0:
463,313,54129,2,0,P|390:330|346:253,1,165.000006294251,4|4,1:0|0:3,0:0:0:0:
278,117,54611,6,0,P|249:61|136:86,1,165.000006294251,4|4,1:0|1:3,0:0:0:0:
125,142,55097,1,2,0:0:0:0:
21,127,55259,1,8,1:0:0:0:
21,127,55340,1,0,0:0:0:0:
21,127,55421,1,0,0:0:0:0:
21,127,55502,1,0,1:0:0:0:
21,127,55583,2,0,P|26:152|29:178,1,41.2500015735627,4|0,0:3|0:0,0:0:0:0:
85,214,55746,1,4,0:3:0:0:
19,352,55908,2,0,P|16:301|9:249,1,82.5,8|0,1:0|0:0,0:0:0:0:
161,207,56232,5,4,0:3:0:0:
240,283,56394,1,0,1:0:0:0:
165,281,56556,2,0,P|169:226|171:189,1,82.5000031471254,8|2,0:0|0:0,0:0:0:0:
286,71,56881,2,0,P|288:112|302:244,1,165.000006294251,0|4,1:0|1:0,0:0:0:0:
381,308,57365,1,0,0:0:0:0:
287,352,57525,2,0,P|231:345|211:343,1,55,0|0,1:0|0:0,0:0:0:0:
394,223,57846,6,0,P|421:226|448:229,1,55,8|0,0:0|0:0,0:0:0:0:
364,137,58167,2,0,P|308:130|288:128,1,55,4|0,0:0|0:0,0:0:0:0:
417,62,58488,2,0,P|444:65|471:68,1,55,0|0,1:0|1:0,0:0:0:0:
355,8,58809,1,4,1:2:0:0:
281,60,58969,1,0,1:0:0:0:
208,10,59130,2,0,P|148:17|76:27,1,110,8|4,0:0|1:2,0:0:0:0:
45,197,59611,5,2,0:0:0:0:
45,197,59691,1,0,0:0:0:0:
45,197,59771,2,0,P|51:153|52:124,1,55,2|0,1:2|1:0,0:0:0:0:
179,130,60090,2,0,P|181:157|185:184,1,55,2|0,1:0|1:0,0:0:0:0:
170,258,60409,2,0,P|142:255|115:251,1,55,8|0,0:0|0:0,0:0:0:0:
60,61,60728,2,0,P|87:65|114:67,1,55,2|2,1:0|0:0,0:0:0:0:
184,142,61047,5,0,1:0:0:0:
296,98,61207,1,2,0:0:0:0:
230,61,61366,1,0,1:0:0:0:
286,172,61526,1,0,1:0:0:0:
376,87,61685,2,0,P|420:78|449:74,1,55,8|2,0:0|0:0,0:0:0:0:
481,23,62005,1,0,1:0:0:0:
466,168,62164,5,2,0:0:0:0:
466,168,62244,1,0,1:0:0:0:
466,168,62324,2,0,P|468:220|469:341,1,165.000006294251,12|2,1:0|0:3,0:0:0:0:
403,370,62833,1,0,0:0:0:0:
321,267,62994,2,0,P|373:233|399:212,1,82.5000031471254,8|2,0:0|0:0,0:0:0:0:
242,321,63316,2,0,P|300:354|333:380,1,82.5000031471254,2|0,0:3|0:0,0:0:0:0:
312,363,63557,1,0,1:0:0:0:
312,363,63638,1,0,1:0:0:0:
143,229,63960,1,2,0:3:0:0:
293,67,64282,1,8,1:2:0:0:
425,250,64604,6,0,P|365:221|271:169,1,165.000006294251,12|0,1:0|0:0,0:0:0:0:
224,93,65087,1,0,0:0:0:0:
177,211,65248,2,0,P|179:255|180:300,1,82.5000031471254,2|0,0:3|0:0,0:0:0:0:
49,156,65570,2,0,P|111:138|207:99,2,165.000006294251,8|2|0,0:0|0:3|1:0,0:0:0:0:
108,47,66376,1,0,0:0:0:0:
282,52,66537,2,0,P|280:93|279:134,1,82.5000031471254,2|0,0:3|0:0,0:0:0:0:
235,196,66859,1,8,0:0:0:0:
320,295,67020,1,0,1:0:0:0:
407,197,67181,1,4,1:2:0:0:
331,202,67342,5,2,0:0:0:0:
331,202,67423,1,0,0:0:0:0:
331,202,67503,2,0,P|337:255|342:316,1,82.5000031471254,12|2,1:0|0:0,0:0:0:0:
478,244,67825,2,0,P|481:202|486:161,1,82.5000031471254,2|0,0:3|1:0,0:0:0:0:
398,108,68147,1,8,0:0:0:0:
450,24,68308,1,2,0:0:0:0:
384,71,68469,2,0,P|391:133|396:177,1,82.5000031471254,2|0,0:3|1:0,0:0:0:0:
215,30,68791,1,0,1:0:0:0:
25,197,69114,1,2,1:3:0:0:
256,355,69436,1,0,1:0:0:0:
474,192,69758,6,0,P|399:203|291:224,1,165.000006294251,12|0,1:0|0:0,0:0:0:0:
228,153,70241,1,2,0:0:0:0:
310,50,70402,2,0,P|311:109|312:143,1,82.5000031471254,2|0,0:3|1:0,0:0:0:0:
226,231,70724,1,8,0:0:0:0:
158,189,70885,1,0,0:0:0:0:
208,128,71046,1,2,1:3:0:0:
316,241,71207,5,0,1:0:0:0:
316,241,71288,1,0,1:0:0:0:
316,241,71367,2,0,P|322:304|328:362,1,110.000004196167,4|0,3:0|1:0,0:0:0:0:
272,360,71690,1,4,3:0:0:0:
242,316,71797,2,0,P|186:312|153:310,1,55.0000020980836,4|8,3:0|3:0,0:0:0:0:
135,257,72012,1,4,3:0:0:0:
107,209,72120,1,4,3:0:0:0:
54,194,72227,1,8,3:0:0:0:
6,221,72334,5,4,3:0:0:0:
14,247,72442,1,4,3:0:0:0:
23,272,72549,1,4,3:0:0:0:
32,298,72657,1,12,1:0:0:0:
241,163,72979,1,2,0:3:0:0:
37,113,73301,5,8,0:0:0:0:
112,54,73462,1,2,0:0:0:0:
26,11,73623,2,0,P|33:55|36:100,1,82.5000031471254,2|2,0:3|0:0,0:0:0:0:
179,119,73945,2,0,P|182:77|188:37,1,82.5000031471254,0|0,1:0|0:0,0:0:0:0:
309,109,74267,2,0,P|315:175|317:221,1,82.5000031471254,2|0,1:3|1:0,0:0:0:0:
413,237,74589,1,8,0:0:0:0:
220,349,74750,5,0,0:0:0:0:
220,349,74831,1,0,1:0:0:0:
220,349,74911,2,0,P|224:293|238:184,1,165.000006294251,12|0,1:1|0:0,0:0:0:0:
183,129,75394,1,0,0:0:0:0:
280,100,75555,2,0,P|269:46|263:15,1,82.5000031471254,2|0,0:3|0:0,0:0:0:0:
361,55,75878,1,8,0:0:0:0:
345,155,76039,1,2,0:0:0:0:
445,112,76200,2,0,P|437:152|428:192,1,82.5000031471254,2|0,0:3|0:0,0:0:0:0:
324,274,76522,5,0,1:0:0:0:
391,341,76680,1,2,0:0:0:0:
399,271,76838,1,4,0:2:0:0:
313,364,76996,1,0,1:0:0:0:
229,282,77154,2,0,P|233:241|234:196,1,82.5000031471254,8|0,1:2|1:0,0:0:0:0:
161,157,77470,1,8,0:3:0:0:
277,121,77628,1,2,0:0:0:0:
193,4,77786,2,0,P|194:45|198:86,1,82.5000031471254,12|0,1:0|0:0,0:0:0:0:
85,138,78108,5,0,0:0:0:0:
184,235,78269,1,2,1:2:0:0:
101,296,78430,2,0,P|105:254|106:213,1,82.5000031471254,8|2,0:0|0:0,0:0:0:0:
289,219,78752,2,0,P|290:260|294:319,1,82.5000031471254,2|0,0:3|0:0,0:0:0:0:
287,333,78993,1,0,1:0:0:0:
317,346,79074,1,0,1:2:0:0:
453,192,79396,1,8,0:0:0:0:
300,108,79718,1,0,1:0:0:0:
187,240,80040,2,0,P|194:290|198:329,1,82.5000031471254,4|0,0:1|0:0,0:0:0:0:
256,192,80523,12,4,82926,1:0:0:0:
