osu file format v14

[General]
AudioFilename: audio.mp3
AudioLeadIn: 0
PreviewTime: 174706
Countdown: 0
SampleSet: Soft
StackLeniency: 0.7
Mode: 2
LetterboxInBreaks: 0
WidescreenStoryboard: 0

[Editor]
Bookmarks: 49732,159333,159673,159786
DistanceSpacing: 0.9
BeatDivisor: 4
GridSize: 32
TimelineZoom: 4.119998

[Metadata]
Title:my time
TitleUnicode:my time
Artist:bo en
ArtistUnicode:bo en
Creator:Chara
Version:sweet dreams
Source:OMORI
Tags:trailer
BeatmapID:1192424
BeatmapSetID:563953

[Difficulty]
HPDrainRate:6
CircleSize:4.5
OverallDifficulty:9.7
ApproachRate:9.7
SliderMultiplier:1.8
SliderTickRate:2

[Events]
//Background and Video events
0,0,"fe08249a3130825629831c018799d110_original.jpg",0,0
//Break Periods
2,167472,172402
//Storyboard Layer 0 (Background)
//Storyboard Layer 1 (Fail)
//Storyboard Layer 2 (Pass)
//Storyboard Layer 3 (Foreground)
//Storyboard Sound Samples

[TimingPoints]
152,301.401517054303,3,2,1,20,1,0
152,-133.333333333333,3,2,1,20,0,0
29086,-200,3,2,1,20,0,0
29161,-200,3,2,0,5,0,0
29990,-200,3,2,1,20,0,0
30066,-200,3,2,0,5,0,0
30894,-200,3,2,1,20,0,0
30970,-200,3,2,0,5,0,0
31799,-200,3,2,1,20,0,0
31874,-200,3,2,0,5,0,0
32703,-200,3,2,1,20,0,0
32778,-200,3,2,0,5,0,0
33607,-200,3,2,1,20,0,0
33682,-200,3,2,0,5,0,0
34511,-200,3,2,1,20,0,0
34587,-200,3,2,0,5,0,0
35415,-200,3,2,1,20,0,0
35491,-200,3,2,0,5,0,0
36320,-200,3,2,1,20,0,0
36395,-200,3,2,0,5,0,0
37224,-200,3,2,1,20,0,0
37299,-200,3,2,0,5,0,0
38128,-200,3,2,1,20,0,0
38203,-200,3,2,0,5,0,0
39032,-200,3,2,1,20,0,0
39108,-200,3,2,0,5,0,0
39937,-200,3,2,1,20,0,0
40012,-200,3,2,0,5,0,0
40841,-200,3,2,1,20,0,0
40916,-200,3,2,0,5,0,0
41745,-200,3,2,1,20,0,0
41820,-200,3,2,0,5,0,0
42649,-133.333333333333,3,2,1,20,0,0
43553,-133.333333333333,3,2,1,30,0,0
52520,-133.333333333333,3,2,0,5,0,0
52595,-133.333333333333,3,2,1,30,0,0
57116,-100,3,2,1,30,0,0
57568,-80,3,2,1,30,0,0
58021,-86.9565217391304,3,2,1,50,0,1
70227,-76.9230769230769,3,2,1,50,0,1
71132,-74.0740740740741,3,2,1,50,0,1
72036,-71.4285714285714,3,2,1,50,0,1
72940,-68.9655172413793,3,2,1,50,0,1
73392,-117.647058823529,3,2,1,20,0,0
102327,-133.333333333333,3,2,1,20,0,0
102327,-133.333333333333,3,2,1,20,0,0
102402,-133.333333333333,3,2,0,5,0,0
103231,-133.333333333333,3,2,1,20,0,0
103307,-133.333333333333,3,2,0,5,0,0
104135,-133.333333333333,3,2,1,20,0,0
104211,-133.333333333333,3,2,0,5,0,0
105040,-133.333333333333,3,2,1,20,0,0
105115,-133.333333333333,3,2,0,5,0,0
105944,-133.333333333333,3,2,1,20,0,0
106019,-133.333333333333,3,2,0,5,0,0
106848,-133.333333333333,3,2,1,20,0,0
106923,-133.333333333333,3,2,0,5,0,0
107752,-133.333333333333,3,2,1,20,0,0
107828,-133.333333333333,3,2,0,5,0,0
108656,-133.333333333333,3,2,1,20,0,0
108732,-133.333333333333,3,2,0,5,0,0
109561,-133.333333333333,3,2,1,20,0,0
109636,-133.333333333333,3,2,0,5,0,0
110465,-133.333333333333,3,2,1,20,0,0
110540,-133.333333333333,3,2,0,5,0,0
111369,-133.333333333333,3,2,1,20,0,0
111444,-133.333333333333,3,2,0,5,0,0
112273,-133.333333333333,3,2,1,20,0,0
112349,-133.333333333333,3,2,0,5,0,0
113178,-133.333333333333,3,2,1,20,0,0
113253,-133.333333333333,3,2,0,5,0,0
114082,-133.333333333333,3,2,1,20,0,0
114157,-133.333333333333,3,2,0,5,0,0
114986,-133.333333333333,3,2,1,20,0,0
115061,-133.333333333333,3,2,0,5,0,0
115890,-117.647058823529,3,2,1,30,0,0
116794,-117.647058823529,3,2,1,30,0,0
125761,-117.647058823529,3,2,0,5,0,0
125836,-117.647058823529,3,2,1,30,0,0
130357,450.500167811312,3,3,0,40,1,0
131258,226.415094339623,4,2,99,55,1,1
131258,-74.0740740740741,4,2,99,55,0,1
131371,-100,4,2,1,55,0,1
144842,-100,4,2,1,40,0,0
145748,-74.0740740740741,4,2,99,55,0,1
145861,-100,4,2,1,55,0,1
160239,301.401517054303,3,2,1,40,1,0
160314,-100,3,2,1,10,0,0
174706,-133.333333333333,3,2,1,30,0,0
183672,-133.333333333333,3,2,0,5,0,0
183748,-133.333333333333,3,2,1,30,0,0
196407,375,3,2,1,10,1,0
197532,428.571428571429,3,2,1,10,1,0
197960,769.230769230769,3,2,1,10,1,0
198681,-100,3,2,1,10,0,0
198729,365.853658536585,3,2,0,5,1,0
199094,388.349514563107,3,2,1,10,1,0
199288,612.244897959184,3,2,1,10,1,0
199861,-100,3,2,0,5,0,0
199900,600,3,2,1,10,1,0
200350,-100,3,2,0,5,0,0
200500,676.437429537768,3,2,1,10,1,0
201007,-100,3,2,0,5,0,0
201176,461.538461538462,3,2,1,10,1,0
201610,-100,3,2,1,10,0,0
201637,428.571428571429,3,2,0,5,1,0
202038,-100,3,2,0,5,0,0
202065,500,3,2,1,10,1,0
202565,363.636363636364,3,2,1,10,1,0
202655,1052.63157894737,3,2,1,10,1,0

[Colours]
Combo1 : 128,128,255
Combo2 : 255,128,255
Combo3 : 128,255,255
Combo4 : 0,255,128
Combo5 : 255,255,128
Combo6 : 255,0,128
Combo7 : 0,255,0
Combo8 : 255,128,64

[HitObjects]
96,352,152,6,0,P|36:320|20:228,2,135.000005149842
356,192,1056,2,0,P|416:160|432:68,2,135.000005149842
124,124,1960,2,0,L|276:112,2,135.000005149842
332,244,2864,1,0,0:0:0:0:
108,312,3166,2,0,L|144:176,1,135.000005149842
460,168,3768,6,0,P|376:120|316:124,2,135.000005149842
256,222,4673,2,0,L|404:222,2,135.000005149842
52,168,5577,2,0,P|136:120|196:124,2,135.000005149842
256,222,6481,2,0,L|108:222,2,135.000005149842
472,296,7385,5,0,0:0:0:0:
257,224,7687,1,0,0:0:0:0:
275,147,7988,1,0,0:0:0:0:
481,190,8289,1,0,0:0:0:0:
266,118,8591,1,0,0:0:0:0:
284,41,8892,1,0,0:0:0:0:
40,296,9194,5,0,0:0:0:0:
255,224,9496,1,0,0:0:0:0:
237,147,9797,1,0,0:0:0:0:
31,190,10098,1,0,0:0:0:0:
238,247,10399,2,0,L|251:168,1,67.5000025749208
155,169,10701,2,0,L|142:90,1,67.5000025749208
268,56,11002,6,0,P|364:58|419:86,2,135.000005149842
457,146,11906,2,0,P|361:148|306:176,2,135.000005149842
244,56,12810,2,0,P|148:58|93:86,2,135.000005149842
55,146,13714,2,0,P|151:148|206:176,2,135.000005149842
343,292,14619,6,0,L|364:147,1,135.000005149842
182,242,15222,1,0,0:0:0:0:
392,350,15523,2,0,L|413:205,1,135.000005149842
231,300,16126,1,0,0:0:0:0:
441,192,16427,2,0,L|462:337,1,135.000005149842
280,242,17030,1,0,0:0:0:0:
490,350,17331,2,0,L|511:205,1,135.000005149842
466,139,17783,1,0,0:0:0:0:
342,57,17934,2,0,L|416:57,1,67.5000025749208
284,140,18236,6,0,L|124:152,2,135.000005149842
485,266,19140,2,0,L|325:278,2,135.000005149842
228,140,20044,2,0,L|388:152,2,135.000005149842
27,266,20948,2,0,L|187:278,2,135.000005149842
302,328,21852,5,0,0:0:0:0:
72,243,22154,2,0,L|95:81,1,135.000005149842
344,261,22757,1,0,0:0:0:0:
114,176,23059,2,0,L|137:14,1,135.000005149842
386,158,23660,1,0,0:0:0:0:
156,243,23962,2,0,L|179:405,1,135.000005149842
428,261,24564,1,0,0:0:0:0:
198,176,24866,2,0,L|212:85,1,67.5000025749208
306,230,25168,2,0,L|320:139,1,67.5000025749208
189,261,25469,6,0,L|31:286,2,135.000005149842
456,282,26373,2,0,L|323:261,2,135.000005149842
189,176,27278,2,0,L|322:154,2,135.000005149842
410,70,28182,1,0,0:0:0:0:
433,104,28257,1,0,0:0:0:0:
434,146,28332,1,0,0:0:0:0:
412,181,28408,1,0,0:0:0:0:
374,199,28483,1,0,0:0:0:0:
325,202,28558,1,0,0:0:0:0:
286,234,28633,1,0,0:0:0:0:
275,282,28709,1,0,0:0:0:0:
295,328,28785,1,0,0:0:0:0:
358,364,28860,1,0,0:0:0:0:
425,335,28935,1,0,0:0:0:0:
442,263,29011,1,0,0:0:0:0:
135,114,29086,6,0,P|67:165|154:278,1,247.5
140,278,29990,2,0,P|330:255|358:212,1,247.5
352,222,30894,2,0,L|168:55,1,247.5
169,56,31799,2,0,P|116:131|149:281,1,247.5
144,275,32703,2,0,B|256:223|256:223|368:276,1,247.5
367,275,33607,6,0,P|402:160|342:56,1,247.5
342,56,34511,2,0,L|159:222,1,247.5
160,222,35415,2,0,P|254:296|372:277,1,247.5
372,277,36320,2,0,P|277:202|159:221,1,247.5
159,222,37224,6,0,L|342:56,1,247.5
342,56,38128,2,0,P|402:160|367:275,1,247.5
368,276,39032,2,0,B|256:223|256:223|144:275,1,247.5
144,275,39937,2,0,P|109:160|169:56,1,247.5
169,56,40841,6,0,L|352:222,1,247.5
352,222,41745,2,0,P|258:297|140:278,1,247.5
139,277,42649,2,0,L|238:264,1,67.5000025749208
331,61,42951,2,0,L|232:74,1,67.5000025749208
112,326,43252,2,0,L|210:312,1,67.5000025749208
445,239,43553,6,0,P|387:196|318:177,2,135.000005149842
233,341,44458,1,0,0:0:0:0:
411,327,44759,2,0,L|484:299,1,67.5000025749208
354,236,45060,1,0,0:0:0:0:
468,209,45211,1,0,0:0:0:0:
191,236,45362,6,0,P|140:176|180:145,1,135.000005149842
249,138,45814,1,0,0:0:0:0:
127,105,45965,1,0,0:0:0:0:
325,146,46266,2,0,L|480:127,1,135.000005149842
229,300,46718,2,0,L|74:319,1,135.000005149842
354,105,47170,6,0,P|408:162|359:214,1,135.000005149842
324,261,47622,1,0,0:0:0:0:
187,300,47773,2,0,L|198:210,1,67.5000025749208
431,187,48074,2,0,L|350:163,1,67.5000025749208
216,315,48376,2,0,L|297:339,1,67.5000025749208
461,95,48677,2,0,L|380:71,1,67.5000025749208
60,80,48979,5,0,0:0:0:0:
46,100,49029,1,0,3:0:0:0:
35,122,49079,1,0,3:0:0:0:
28,146,49129,1,0,3:0:0:0:
24,170,49179,1,0,3:0:0:0:
24,195,49230,1,0,3:0:0:0:
28,220,49280,1,0,3:0:0:0:
35,243,49330,1,0,3:0:0:0:
45,266,49380,1,0,3:0:0:0:
59,286,49431,1,0,3:0:0:0:
76,304,49481,1,0,3:0:0:0:
95,320,49531,1,0,3:0:0:0:
116,332,49581,1,0,3:0:0:0:
139,342,49632,1,0,3:0:0:0:
163,347,49682,1,0,3:0:0:0:
188,350,49732,1,0,3:0:0:0:
469,347,49883,1,0,0:0:0:0:
253,138,50787,6,0,L|97:160,2,135.000005149842
488,70,51691,1,0,0:0:0:0:
77,113,51993,2,0,P|36:198|135:315,1,236.250009012223
107,307,52595,6,0,L|266:270,1,135.000005149842
291,188,53047,1,0,0:0:0:0:
179,282,53198,2,0,L|208:370,1,67.5000025749208
415,350,53500,2,0,P|435:299|381:245,1,135.000005149842
251,259,53952,2,0,L|397:244,1,135.000005149842
79,214,54404,6,0,P|45:170|97:114,1,135.000005149842
181,135,54856,1,0,0:0:0:0:
284,210,55007,2,0,L|201:208,1,67.5000025749208
440,187,55308,2,0,L|465:344,1,135.000005149842
322,338,55760,2,0,L|180:316,1,135.000005149842
323,121,56212,5,0,0:0:0:0:
445,96,56363,1,0,0:0:0:0:
189,149,56514,1,0,0:0:0:0:
323,121,56665,1,0,0:0:0:0:
42,180,56815,1,0,0:0:0:0:
189,149,56966,1,0,0:0:0:0:
468,269,57116,6,0,P|438:192|332:172,1,180
144,186,57568,2,0,L|387:181,1,225
26,122,58021,6,0,L|161:120,1,103.500001974106,12|0,0:0|0:0,0:0:0:0:
350,300,58322,2,0,L|215:298,1,103.500001974106,0|8,0:1|0:0,0:0:0:0:
22,321,58623,1,10,0:0:0:0:
150,321,58774,1,0,0:0:0:0:
473,290,58925,6,0,L|457:182,1,103.500001974106,8|0,0:0|0:0,0:0:0:0:
247,221,59226,2,0,L|263:113,1,103.500001974106,8|0,0:0|0:0,0:0:0:0:
50,191,59528,2,0,L|35:294,1,103.500001974106,10|0,0:0|0:0,0:0:0:0:
486,122,59829,6,0,L|351:120,1,103.500001974106,8|0,0:0|0:0,0:0:0:0:
162,300,60130,2,0,L|297:298,1,103.500001974106,0|8,0:1|0:0,0:0:0:0:
490,321,60431,1,10,0:0:0:0:
362,321,60582,1,0,0:0:0:0:
39,290,60733,6,0,L|55:182,1,103.500001974106,8|0,0:0|0:0,0:0:0:0:
265,221,61034,2,0,L|249:113,1,103.500001974106,8|0,0:0|0:0,0:0:0:0:
462,191,61336,2,0,L|477:294,1,103.500001974106,10|0,0:0|0:0,0:0:0:0:
104,181,61637,6,0,L|246:180,2,103.500001974106,8|0|0,0:0|0:0|0:0,0:0:0:0:
402,183,62090,1,8,0:0:0:0:
285,219,62240,2,0,L|267:105,1,103.500001974106,10|0,0:0|0:0,0:0:0:0:
505,76,62542,6,0,L|416:16,1,103.500001974106,8|0,0:0|0:0,0:0:0:0:
213,181,62843,2,0,L|302:241,1,103.500001974106,8|0,0:0|0:0,0:0:0:0:
92,18,63144,2,0,L|7:76,1,103.500001974106,10|0,0:0|0:0,0:0:0:0:
408,181,63446,6,0,L|266:180,2,103.500001974106,8|0|0,0:0|0:0|0:0,0:0:0:0:
110,183,63899,1,8,0:0:0:0:
227,219,64049,2,0,L|245:105,1,103.500001974106,10|0,0:0|0:0,0:0:0:0:
7,76,64351,6,0,L|96:16,1,103.500001974106,8|0,0:0|0:0,0:0:0:0:
299,181,64652,2,0,L|210:241,1,103.500001974106,8|0,0:0|0:0,0:0:0:0:
420,18,64953,2,0,L|505:76,1,103.500001974106,10|0,0:0|0:0,0:0:0:0:
109,184,65254,6,0,P|51:195|18:229,2,103.500001974106,8|0|0,0:0|0:0|0:0,0:0:0:0:
381,173,65706,1,8,0:0:0:0:
256,230,65857,1,10,0:0:0:0:
131,173,66008,1,0,0:0:0:0:
450,120,66158,6,0,L|476:244,1,103.500001974106,8|0,0:0|0:0,0:0:0:0:
204,133,66460,2,0,L|344:133,1,103.500001974106,8|0,0:0|0:0,0:0:0:0:
62,120,66761,2,0,L|36:244,1,103.500001974106,10|0,0:0|0:0,0:0:0:0:
403,184,67063,6,0,P|461:195|494:229,2,103.500001974106,8|0|0,0:0|0:0|0:0,0:0:0:0:
131,173,67515,1,8,0:0:0:0:
256,230,67666,1,10,0:0:0:0:
381,173,67817,1,0,0:0:0:0:
62,120,67967,6,0,L|36:244,1,103.500001974106,8|0,0:0|0:0,0:0:0:0:
308,133,68269,2,0,L|168:133,1,103.500001974106,8|0,0:0|0:0,0:0:0:0:
450,120,68570,2,0,L|476:244,1,103.500001974106,10|0,0:0|0:0,0:0:0:0:
158,313,68871,5,8,0:0:0:0:
28,262,69022,2,0,L|55:135,1,103.500001974106
354,71,69323,1,8,0:0:0:0:
484,122,69474,2,0,L|457:249,1,103.500001974106,10|0,0:0|0:0,0:0:0:0:
43,337,69775,5,14,0:0:0:0:
152,304,69926,1,0,0:0:0:0:
22,261,70077,1,0,0:0:0:0:
491,235,70227,2,0,L|276:132,1,233.999989288331
38,343,70679,5,10,0:0:0:0:
147,310,70830,1,0,0:0:0:0:
17,267,70981,1,0,0:0:0:0:
495,224,71132,2,0,L|265:116,1,243.000000926971
32,352,71584,5,10,0:0:0:0:
141,319,71735,1,0,0:0:0:0:
11,276,71886,1,0,0:0:0:0:
497,219,72036,2,0,L|261:107,1,251.999992309571
27,362,72488,5,10,0:0:0:0:
136,329,72639,1,0,0:0:0:0:
6,286,72790,1,0,0:0:0:0:
500,212,72940,2,0,L|259:99,1,261.000007965088
25,142,73392,5,0,0:0:0:0:
18,166,73442,1,0,3:0:0:0:
15,191,73492,1,0,3:0:0:0:
16,217,73542,1,0,3:0:0:0:
20,242,73592,1,0,3:0:0:0:
27,266,73643,1,0,3:0:0:0:
38,289,73693,1,0,0:0:0:0:
52,311,73743,1,0,3:0:0:0:
69,330,73793,1,0,3:0:0:0:
88,346,73844,1,0,3:0:0:0:
110,360,73894,1,0,3:0:0:0:
133,371,73944,1,0,3:0:0:0:
157,378,73994,1,0,0:0:0:0:
183,382,74045,1,0,3:0:0:0:
208,382,74095,1,0,3:0:0:0:
233,378,74145,1,0,3:0:0:0:
478,288,74296,2,0,L|323:268,2,153.000002918243
71,236,75200,5,0,0:0:0:0:
257,238,75502,1,0,0:0:0:0:
441,236,75803,1,0,0:0:0:0:
133,129,76105,1,0,0:0:0:0:
379,129,76406,2,0,L|344:295,1,153.000002918243
20,280,77009,6,0,P|56:204|128:168,2,153.000002918243
330,308,77913,2,0,L|163:291,2,153.000002918243
495,193,78817,5,0,0:0:0:0:
313,234,79119,1,0,0:0:0:0:
290,204,79194,1,0,0:0:0:0:
287,166,79269,1,0,0:0:0:0:
306,133,79345,1,0,0:0:0:0:
339,116,79420,1,0,0:0:0:0:
386,116,79495,1,0,0:0:0:0:
421,147,79570,1,0,0:0:0:0:
426,194,79646,1,0,0:0:0:0:
248,293,79722,1,0,0:0:0:0:
29,250,80023,1,0,0:0:0:0:
273,344,80324,1,0,0:0:0:0:
2,347,80626,5,0,0:0:0:0:
77,350,80726,1,0,0:0:0:0:
141,310,80826,1,0,0:0:0:0:
172,241,80927,1,0,0:0:0:0:
159,167,81027,1,0,0:0:0:0:
107,113,81128,1,0,0:0:0:0:
39,181,81229,2,0,L|30:259,2,51.0000009727478
256,139,81530,2,0,P|315:133|380:61,2,153.000002918243
488,288,82434,6,0,P|429:282|364:210,2,153.000002918243
226,325,83338,1,0,0:0:0:0:
415,312,83640,2,0,L|496:302,1,76.5000014591217
385,246,83941,2,0,L|466:236,1,76.5000014591217
93,113,84243,6,0,P|28:156|40:233,2,153.000002918243
419,113,85147,2,0,P|484:156|472:233,2,153.000002918243
276,173,85900,2,0,L|216:168,1,38.2500007295609
169,212,86051,2,0,P|196:271|276:310,2,153.000002918243
475,269,86955,2,0,P|448:328|368:367,2,153.000002918243
137,338,87709,2,0,L|94:330,1,38.2500007295609
67,207,87859,5,0,0:0:0:0:
294,161,88161,1,0,0:0:0:0:
326,142,88236,1,0,0:0:0:0:
338,107,88311,1,0,0:0:0:0:
324,72,88387,1,0,0:0:0:0:
237,113,88462,2,0,L|193:88,2,38.2500007295609
373,188,88764,1,0,0:0:0:0:
146,142,89066,1,0,0:0:0:0:
114,123,89141,1,0,0:0:0:0:
102,88,89216,1,0,0:0:0:0:
116,53,89292,1,0,0:0:0:0:
203,94,89367,2,0,L|247:69,2,38.2500007295609
67,207,89668,5,0,0:0:0:0:
294,161,89970,1,0,0:0:0:0:
326,142,90045,1,0,0:0:0:0:
338,107,90120,1,0,0:0:0:0:
324,72,90196,1,0,0:0:0:0:
237,113,90271,2,0,L|193:88,2,38.2500007295609
375,163,90572,2,0,P|459:200|474:281,2,153.000002918243
83,202,91476,5,0,0:0:0:0:
261,265,91778,2,0,P|133:293|90:295,1,153.000002918243
429,202,92380,1,0,0:0:0:0:
251,265,92682,2,0,P|379:293|422:295,1,153.000002918243
116,248,93285,2,0,P|63:219|38:132,2,153.000002918243
396,248,94189,2,0,P|449:219|474:132,2,153.000002918243
68,189,95093,5,0,0:0:0:0:
256,292,95394,1,0,0:0:0:0:
444,189,95696,1,0,0:0:0:0:
160,352,95997,1,0,0:0:0:0:
352,352,96299,1,0,0:0:0:0:
130,212,96600,1,0,0:0:0:0:
418,192,96901,5,0,0:0:0:0:
256,257,97203,1,0,0:0:0:0:
94,192,97504,1,0,0:0:0:0:
256,257,97806,2,0,L|273:99,1,153.000002918243
32,154,98408,1,0,0:0:0:0:
488,306,98710,6,0,P|456:257|347:229,2,153.000002918243
255,293,99614,2,0,L|413:274,2,153.000002918243
23,306,100518,2,0,P|69:246|141:225,2,153.000002918243
488,306,101422,2,0,P|442:246|370:225,2,153.000002918243
96,317,102327,6,0,P|32:272|141:53,1,371.250014162064
127,53,103231,2,0,L|440:269,1,371.250014162064
433,264,104135,2,0,P|364:254|445:279,1,371.250014162064
445,280,105039,2,0,P|211:248|205:133,1,371.250014162064
198,157,105943,2,0,B|308:82|308:82|204:82|204:82|314:158,1,371.250014162064
313,157,106848,6,0,P|236:312|66:280,1,371.250014162064
66,280,107752,2,0,P|170:348|78:264,1,371.250014162064
78,264,108656,2,0,L|384:53,1,371.250014162064
384,53,109560,2,0,L|78:264,1,371.250014162064
78,264,110464,6,0,P|170:348|66:280,1,371.250014162064
66,280,111369,2,0,P|236:312|313:157,1,371.250014162064
314,158,112273,2,0,B|204:82|204:82|308:82|308:82|198:157,1,371.250014162064
198,157,113177,2,0,P|275:312|445:280,1,371.250014162064
445,280,114081,6,0,P|341:348|433:264,1,371.250014162064
433,264,114985,2,0,L|127:53,1,371.250014162064
127,53,115890,2,0,L|234:48,1,76.5000014591217
345,171,116191,2,0,L|238:165,1,76.5000014591217
92,267,116492,2,0,L|198:261,1,76.5000014591217
430,327,116794,6,0,P|487:285|505:199,2,153.000002918243
256,318,117698,1,0,0:0:0:0:
39,292,117999,2,0,L|125:270,1,76.5000014591217
18,237,118301,1,0,0:0:0:0:
122,209,118452,1,0,0:0:0:0:
333,137,118602,6,0,L|150:112,1,153.000002918243
294,157,119054,2,0,L|311:75,1,76.5000014591217
65,139,119507,2,0,L|225:105,1,153.000002918243
447,139,119959,2,0,L|287:105,1,153.000002918243
61,191,120411,6,0,P|44:247|129:311,1,153.000002918243
190,315,120863,1,0,0:0:0:0:
298,256,121014,2,0,L|268:153,1,76.5000014591217
56,217,121315,2,0,L|167:235,1,76.5000014591217
281,41,121616,2,0,L|170:23,1,76.5000014591217
12,338,121918,2,0,L|123:356,1,76.5000014591217
446,364,122219,5,0,0:0:0:0:
465,337,122269,1,0,3:0:0:0:
480,307,122319,1,0,3:0:0:0:
490,275,122369,1,0,3:0:0:0:
494,243,122419,1,0,3:0:0:0:
494,210,122470,1,0,3:0:0:0:
488,177,122520,1,0,3:0:0:0:
477,146,122570,1,0,3:0:0:0:
461,117,122620,1,0,3:0:0:0:
440,91,122671,1,0,3:0:0:0:
416,68,122721,1,0,3:0:0:0:
388,50,122771,1,0,3:0:0:0:
358,36,122821,1,0,3:0:0:0:
326,28,122872,1,0,3:0:0:0:
293,25,122922,1,0,3:0:0:0:
260,27,122972,1,0,3:0:0:0:
10,32,123123,1,0,0:0:0:0:
260,27,124028,6,0,L|429:25,2,153.000002918243
453,138,124932,1,0,0:0:0:0:
67,157,125233,2,0,P|19:250|153:323,1,267.750005106926
132,330,125836,2,0,L|285:322,1,153.000002918243
196,253,126288,1,0,0:0:0:0:
314,328,126439,2,0,L|330:228,1,76.5000014591217
62,183,126740,2,0,P|109:112|204:95,1,153.000002918243
387,178,127192,1,0,0:0:0:0:
291,221,127343,2,0,L|267:132,1,76.5000014591217
488,76,127644,6,0,L|327:52,1,153.000002918243
231,86,128096,1,0,0:0:0:0:
97,183,128247,2,0,L|126:286,1,76.5000014591217
348,305,128549,2,0,P|387:262|328:185,1,153.000002918243
19,206,129001,2,0,L|188:167,1,153.000002918243
481,190,129453,1,0,0:0:0:0:
256,192,129528,12,0,130206,0:0:0:0:
324,204,130357,6,2,L|320:178,1,22.5,2|2,3:0|3:0,3:0:0:0:
124,138,130694,2,0,L|134:99,2,22.5,0|0|2,0:0|0:0|0:0,0:0:0:0:
134,196,131258,6,0,L|417:196,1,243.000000926971,14|2,0:0|0:0,0:0:0:0:
134,196,131597,1,12,0:0:0:0:
473,273,131710,2,0,L|458:159,1,90,2|0,0:0|0:0,0:0:0:0:
135,196,131937,2,0,L|150:82,1,90,10|0,0:0|0:0,0:0:0:0:
403,96,132163,5,10,0:0:0:0:
307,101,132276,1,0,0:0:0:0:
211,105,132390,1,2,0:0:0:0:
114,110,132503,1,8,0:0:0:0:
298,220,132616,2,0,L|208:220,1,90,2|0,0:0|0:0,0:0:0:0:
12,267,132842,2,0,L|38:354,1,90,10|0,0:0|0:0,0:0:0:0:
371,293,133069,6,0,L|469:291,2,90,10|0|2,0:0|0:0|0:0,0:0:0:0:
170,187,133408,1,8,0:0:0:0:
260,226,133522,2,0,L|277:327,1,90,2|0,0:0|0:0,0:0:0:0:
36,108,133748,2,0,L|53:209,1,90,10|0,0:0|0:0,0:0:0:0:
260,226,133974,6,0,L|375:190,1,90,10|2,0:0|0:0,0:0:0:0:
253,156,134201,1,2,0:0:0:0:
503,321,134314,2,0,L|389:288,1,90,10|2,0:0|0:0,0:0:0:0:
509,250,134541,1,2,0:0:0:0:
260,226,134654,2,0,L|379:215,1,90,10|2,0:0|0:0,0:0:0:0:
125,99,134880,6,0,L|6:110,1,90,10|0,0:0|0:0,0:0:0:0:
343,165,135107,1,2,0:0:0:0:
256,208,135220,1,8,0:0:0:0:
169,165,135333,2,0,L|182:62,1,90,2|0,0:0|0:0,0:0:0:0:
387,99,135559,2,0,L|374:-4,1,90,10|0,0:0|0:0,0:0:0:0:
109,297,135786,6,0,L|233:297,1,90,10|0,0:0|0:0,0:0:0:0:
301,297,136012,1,2,0:0:0:0:
90,341,136125,1,8,0:0:0:0:
185,356,136239,2,0,L|192:247,1,90,2|0,0:0|0:0,0:0:0:0:
14,124,136465,2,0,L|21:15,1,90,10|0,0:0|0:0,0:0:0:0:
403,297,136691,6,0,L|279:297,1,90,10|0,0:0|0:0,0:0:0:0:
211,297,136917,1,2,0:0:0:0:
422,341,137030,1,8,0:0:0:0:
327,356,137144,2,0,L|320:247,1,90,2|0,0:0|0:0,0:0:0:0:
498,124,137370,2,0,L|491:15,1,90,10|0,0:0|0:0,0:0:0:0:
123,302,137597,5,10,0:0:0:0:
206,247,137710,1,2,0:0:0:0:
106,201,137824,1,2,0:0:0:0:
389,302,137937,1,10,0:0:0:0:
306,247,138050,1,2,0:0:0:0:
406,201,138164,1,2,0:0:0:0:
206,247,138276,1,10,0:0:0:0:
306,247,138390,1,2,0:0:0:0:
41,241,138503,6,0,L|27:126,1,90,10|0,0:0|0:0,0:0:0:0:
115,82,138729,1,2,0:0:0:0:
464,76,138842,1,12,0:0:0:0:
256,188,138956,2,0,L|269:310,1,90,2|0,0:0|0:0,0:0:0:0:
464,76,139182,2,0,L|451:198,1,90,10|0,0:0|0:0,0:0:0:0:
157,195,139408,5,10,0:0:0:0:
256,186,139522,1,0,0:0:0:0:
355,195,139635,1,2,0:0:0:0:
256,186,139749,1,8,0:0:0:0:
34,310,139861,2,0,L|154:319,1,90,2|0,0:0|0:0,0:0:0:0:
388,316,140088,2,10,L|478:310,1,90,10|0,0:0|0:0,0:0:0:0:
121,141,140314,6,0,L|29:168,2,90,10|0|2,0:0|0:0|0:0,0:0:0:0:
391,141,140654,2,0,L|483:168,2,90,8|2|0,0:0|0:0|0:0,0:0:0:0:
210,197,140993,2,0,L|300:197,1,90,10|0,0:0|0:0,0:0:0:0:
20,258,141220,6,0,L|135:222,1,90,10|2,0:0|0:0,0:0:0:0:
13,188,141447,1,2,0:0:0:0:
263,353,141560,2,0,L|149:320,1,90,10|2,0:0|0:0,0:0:0:0:
269,282,141787,1,2,0:0:0:0:
20,258,141900,2,0,L|139:247,1,90,10|2,0:0|0:0,0:0:0:0:
388,129,142125,6,0,L|269:118,1,90,10|0,0:0|0:0,0:0:0:0:
197,141,142352,1,2,0:0:0:0:
390,321,142465,1,0,0:0:0:0:
301,321,142578,2,0,L|407:322,1,90,2|0,0:0|0:0,0:0:0:0:
211,321,142805,2,0,L|105:322,1,90,10|0,0:0|0:0,0:0:0:0:
480,266,143031,6,0,L|447:151,1,90,10|0,0:0|0:0,0:0:0:0:
256,95,143258,1,2,0:0:0:0:
56,179,143371,2,0,L|32:266,1,90,8|2,0:0|0:0,0:0:0:0:
256,95,143597,1,0,0:0:0:0:
480,266,143710,2,0,L|447:151,1,90,10|0,0:0|0:0,0:0:0:0:
165,183,143937,5,10,0:0:0:0:
263,239,144050,2,0,L|272:189,2,45,0|0|2,0:0|0:0|0:0,0:0:0:0:
149,295,144276,1,8,0:0:0:0:
404,293,144390,1,2,0:0:0:0:
420,277,144418,1,0,0:0:0:0:
427,256,144446,1,0,0:0:0:0:
424,234,144474,1,0,0:0:0:0:
411,216,144503,1,0,0:0:0:0:
155,358,144616,1,10,0:0:0:0:
357,358,144729,1,0,0:0:0:0:
41,338,144842,6,0,L|34:313,2,22.5
189,219,145182,2,0,L|202:190,4,22.5
44,259,145522,2,0,L|39:233,1,22.5
377,95,145748,6,0,L|134:95,1,243.000000926971,14|0,0:0|0:0,0:0:0:0:
428,197,146088,1,12,0:0:0:0:
171,319,146201,2,0,L|155:212,1,90,2|0,0:0|0:0,0:0:0:0:
354,229,146427,2,0,L|341:319,1,90,10|0,0:0|0:0,0:0:0:0:
66,222,146654,5,10,0:0:0:0:
157,229,146767,1,0,0:0:0:0:
66,222,146880,1,2,0:0:0:0:
157,229,146993,1,8,0:0:0:0:
373,191,147107,2,0,L|258:177,1,90,2|0,0:0|0:0,0:0:0:0:
497,85,147333,2,0,L|382:71,1,90,10|0,0:0|0:0,0:0:0:0:
157,229,147559,5,0,0:0:0:0:
49,217,147673,2,0,L|64:98,1,90,0|2,0:0|0:0,0:0:0:0:
347,226,147899,1,8,0:0:0:0:
266,293,148012,2,0,L|148:283,1,90,2|0,0:0|0:0,0:0:0:0:
401,346,148239,2,0,L|519:336,1,90,10|0,0:0|0:0,0:0:0:0:
46,294,148465,6,0,L|103:202,1,90,10|0,0:0|0:0,0:0:0:0:
303,179,148691,1,2,0:0:0:0:
209,179,148805,1,8,0:0:0:0:
466,294,148918,2,0,L|409:202,1,90,2|0,0:0|0:0,0:0:0:0:
209,179,149144,1,10,0:0:0:0:
303,179,149258,1,0,0:0:0:0:
118,123,149371,6,0,L|14:110,1,90,10|0,0:0|0:0,0:0:0:0:
242,259,149597,2,0,L|346:272,1,90,2|8,0:0|0:0,0:0:0:0:
85,332,149824,1,0,0:0:0:0:
173,340,149937,1,0,0:0:0:0:
262,295,150050,2,0,L|247:173,1,90,10|0,0:0|0:0,0:0:0:0:
36,173,150276,6,0,L|167:156,1,90,10|0,0:0|0:0,0:0:0:0:
365,259,150503,2,0,L|496:242,1,90,2|8,0:0|0:0,0:0:0:0:
172,258,150729,1,2,0:0:0:0:
83,231,150842,1,0,0:0:0:0:
186,232,150956,1,10,0:0:0:0:
97,205,151069,1,0,0:0:0:0:
392,158,151182,6,0,L|447:44,1,90,10|0,0:0|0:0,0:0:0:0:
209,77,151408,2,0,L|325:42,1,90,0|8,0:0|0:0,0:0:0:0:
120,158,151635,2,0,L|65:44,1,90,2|0,0:0|0:0,0:0:0:0:
303,77,151861,2,0,L|187:42,1,90,8|0,0:0|0:0,0:0:0:0:
450,186,152088,5,10,0:0:0:0:
461,166,152116,1,0,0:0:0:0:
465,144,152144,1,0,0:0:0:0:
459,123,152172,1,0,0:0:0:0:
447,104,152201,1,0,0:0:0:0:
340,262,152314,1,0,0:0:0:0:
468,215,152427,1,8,0:0:0:0:
479,195,152455,1,0,0:0:0:0:
483,173,152483,1,0,0:0:0:0:
477,152,152511,1,0,0:0:0:0:
465,133,152540,1,2,0:0:0:0:
340,262,152653,1,0,0:0:0:0:
114,340,152767,2,0,L|12:317,1,90,10|0,0:0|0:0,0:0:0:0:
366,144,152993,6,0,L|462:96,1,90,10|0,0:0|0:0,0:0:0:0:
65,103,153220,2,0,L|146:144,1,90,2|8,0:0|0:0,0:0:0:0:
355,304,153446,1,2,0:0:0:0:
256,280,153559,1,0,0:0:0:0:
157,304,153673,2,0,L|76:360,1,90,10|0,0:0|0:0,0:0:0:0:
403,329,153899,6,0,L|423:198,1,90,10|0,0:0|0:0,0:0:0:0:
165,164,154125,2,0,L|185:33,1,90,2|8,0:0|0:0,0:0:0:0:
406,45,154352,2,0,L|330:107,2,90,2|0|10,0:0|0:0|0:0,0:0:0:0:
485,53,154691,1,0,0:0:0:0:
190,292,154805,6,0,L|204:189,1,90,10|0,0:0|0:0,0:0:0:0:
288,136,155031,1,2,0:0:0:0:
23,93,155144,1,12,0:0:0:0:
288,136,155258,2,0,L|370:66,1,90,2|0,0:0|0:0,0:0:0:0:
28,280,155484,2,0,L|110:210,1,90,10|0,0:0|0:0,0:0:0:0:
395,244,155710,5,10,0:0:0:0:
301,224,155824,1,0,0:0:0:0:
207,204,155937,1,2,0:0:0:0:
113,184,156050,1,8,0:0:0:0:
451,173,156163,6,0,L|323:140,1,90,2|0,0:0|0:0,0:0:0:0:
148,150,156390,2,0,L|61:173,1,90,10|0,0:0|0:0,0:0:0:0:
322,292,156616,6,0,L|308:189,1,90,10|0,0:0|0:0,0:0:0:0:
224,136,156842,1,2,0:0:0:0:
489,93,156955,1,12,0:0:0:0:
224,136,157069,2,0,L|142:66,1,90,2|0,0:0|0:0,0:0:0:0:
484,280,157295,2,0,L|402:210,1,90,10|0,0:0|0:0,0:0:0:0:
117,244,157521,5,10,0:0:0:0:
211,224,157635,1,0,0:0:0:0:
305,204,157748,1,2,0:0:0:0:
399,184,157861,1,8,0:0:0:0:
61,173,157974,2,0,L|189:140,1,90,2|0,0:0|0:0,0:0:0:0:
363,150,158201,2,0,L|451:173,1,90,10|0,0:0|0:0,0:0:0:0:
84,330,158427,5,10,0:0:0:0:
292,159,158541,2,0,L|192:219,1,90,0|2,0:0|0:0,0:0:0:0:
428,330,158767,1,12,0:0:0:0:
220,159,158880,2,0,L|320:219,1,90,0|2,0:0|0:0,0:0:0:0:
99,289,159107,2,0,L|-14:286,1,90,10|0,0:0|0:0,0:0:0:0:
404,267,159333,6,0,L|421:196,1,45,10|0,0:0|0:0,0:0:0:0:
244,139,159446,2,0,L|254:182,1,45
420,256,159559,2,0,L|409:299,1,45
266,194,159673,2,0,L|255:150,1,45,4|0,0:0|0:0,0:0:0:0:
409,95,159786,6,0,L|498:86,1,90
129,269,160012,1,10,0:0:0:0:
383,269,160125,1,0,0:0:0:0:
103,95,160239,1,4,0:1:0:0:
256,192,160389,12,0,163855,0:0:0:0:
287,256,172897,5,0,0:0:0:0:
256,192,172973,12,0,174555,0:0:0:0:
381,176,174706,6,0,P|450:147|491:68,2,135.000005149842
151,286,175610,1,0,0:0:0:0:
367,332,175911,2,0,L|280:303,1,67.5000025749208
411,282,176213,1,0,0:0:0:0:
314,241,176363,1,0,0:0:0:0:
91,182,176514,6,0,P|39:146|80:94,1,135.000005149842
171,128,176966,2,0,L|195:202,1,67.5000025749208
36,243,177418,2,0,L|169:287,1,135.000005149842
412,176,177870,2,0,L|279:220,1,135.000005149842
51,145,178323,6,0,P|35:100|113:40,1,135.000005149842
179,79,178775,1,0,0:0:0:0:
248,147,178925,2,0,L|223:238,1,67.5000025749208
101,294,179227,2,0,L|188:315,1,67.5000025749208
324,44,179528,2,0,L|237:23,1,67.5000025749208
76,348,179830,2,0,L|163:369,1,67.5000025749208
434,358,180131,5,0,0:0:0:0:
449,339,180181,1,0,3:0:0:0:
462,317,180231,1,0,3:0:0:0:
471,294,180281,1,0,3:0:0:0:
477,270,180331,1,0,3:0:0:0:
479,246,180382,1,0,3:0:0:0:
477,221,180432,1,0,3:0:0:0:
470,197,180482,1,0,3:0:0:0:
461,174,180532,1,0,3:0:0:0:
448,153,180583,1,0,3:0:0:0:
431,135,180633,1,0,3:0:0:0:
412,119,180683,1,0,3:0:0:0:
391,106,180733,1,0,3:0:0:0:
368,97,180784,1,0,3:0:0:0:
344,92,180834,1,0,3:0:0:0:
319,90,180884,1,0,3:0:0:0:
26,98,181035,1,0,0:0:0:0:
254,142,181939,6,0,L|419:128,2,135.000005149842
484,284,182844,1,0,0:0:0:0:
97,309,183145,2,0,P|43:258|141:148,1,236.250009012223
120,145,183748,2,0,L|260:182,1,135.000005149842
176,227,184200,1,0,0:0:0:0:
277,288,184351,2,0,L|294:191,1,67.5000025749208
47,175,184652,2,0,L|199:120,1,135.000005149842
98,93,185104,1,0,0:0:0:0:
320,240,185255,2,0,L|337:152,1,67.5000025749208
94,218,185556,6,0,P|43:263|74:335,1,135.000005149842
238,370,186159,1,0,0:0:0:0:
444,283,186460,2,0,L|308:260,1,135.000005149842
272,251,186837,1,0,0:0:0:0:
247,220,186912,1,0,0:0:0:0:
247,180,186988,1,0,0:0:0:0:
272,149,187063,1,0,0:0:0:0:
327,99,187138,1,0,0:0:0:0:
305,27,187213,1,0,0:0:0:0:
31,122,187365,5,0,0:0:0:0:
25,148,187415,1,0,3:0:0:0:
23,175,187465,1,0,3:0:0:0:
25,202,187515,1,0,3:0:0:0:
31,228,187565,1,0,3:0:0:0:
40,254,187616,1,0,3:0:0:0:
52,278,187666,1,0,3:0:0:0:
67,300,187716,1,0,3:0:0:0:
86,320,187766,1,0,3:0:0:0:
106,337,187817,1,0,3:0:0:0:
129,351,187867,1,0,3:0:0:0:
154,362,187917,1,0,3:0:0:0:
180,369,187967,1,0,3:0:0:0:
207,373,188018,1,0,3:0:0:0:
234,373,188068,1,0,3:0:0:0:
260,370,188118,1,0,3:0:0:0:
494,364,188269,1,0,0:0:0:0:
445,356,189173,6,0,L|294:326,1,135.000005149842
252,271,189550,2,0,L|235:219,2,33.7500012874604
312,329,189776,2,0,L|400:347,1,67.5000025749208
217,349,190077,1,0,0:0:0:0:
417,267,190379,2,0,L|336:254,1,67.5000025749208
256,168,190680,2,0,L|175:155,1,67.5000025749208
332,185,190981,6,0,P|385:225|347:277,1,135.000005149842
326,278,191358,1,0,0:0:0:0:
295,282,191434,1,0,0:0:0:0:
265,285,191509,1,0,0:0:0:0:
234,288,191584,2,0,L|140:298,1,67.5000025749208
421,319,191886,2,0,P|449:292|392:227,1,135.000005149842
91,65,192338,2,0,P|63:92|120:157,1,135.000005149842
141,204,193694,6,0,L|228:197,1,67.5000025749208
319,270,193995,2,0,L|232:277,1,67.5000025749208
382,344,194297,2,0,L|469:337,1,67.5000025749208
128,355,194598,5,0,0:0:0:0:
102,347,194648,1,0,3:0:0:0:
78,334,194698,1,0,3:0:0:0:
58,316,194748,1,0,3:0:0:0:
42,294,194798,1,0,3:0:0:0:
32,269,194849,1,0,3:0:0:0:
27,243,194899,1,0,3:0:0:0:
29,216,194949,1,0,3:0:0:0:
36,190,194999,1,0,3:0:0:0:
49,166,195050,1,0,3:0:0:0:
67,146,195100,1,0,3:0:0:0:
89,130,195150,1,0,3:0:0:0:
114,120,195200,1,0,3:0:0:0:
140,115,195251,1,0,3:0:0:0:
167,116,195301,1,0,3:0:0:0:
193,124,195351,1,0,3:0:0:0:
483,183,195502,1,0,0:0:0:0:
244,291,196407,6,0,P|137:199|145:134,2,180
424,332,197532,1,0,0:0:0:0:
240,359,197960,2,0,P|134:315|131:269,1,168.75
129,275,198729,2,0,L|303:204,1,180
164,195,199288,2,0,P|120:238|182:300,1,168.75
182,299,199900,2,0,L|355:282,1,135
425,175,200500,2,0,L|252:192,1,135
164,246,201176,6,0,P|116:224|105:115,1,168.75
102,118,201637,2,0,L|276:107,1,168.75
270,107,202065,2,0,P|308:145|254:284,1,180
240,288,202655,2,0,P|132:260|131:176,1,180
223,93,204760,1,0,0:0:0:0:
303,118,204891,1,0,0:0:0:0:
347,97,204957,2,0,L|367:95,1,11.25
