osu file format v14

[General]
AudioFilename: audio.mp3
AudioLeadIn: 0
PreviewTime: 174706
Countdown: 0
SampleSet: None
StackLeniency: 0.7
Mode: 2
LetterboxInBreaks: 0
WidescreenStoryboard: 1

[Editor]
Bookmarks: 49732,159333,159673,159786
DistanceSpacing: 0.9
BeatDivisor: 4
GridSize: 32
TimelineZoom: 1.52

[Metadata]
Title:my time
TitleUnicode:my time
Artist:bo en
ArtistUnicode:bo en
Creator:Chara
Version:Rain
Source:OMORI
Tags:trailer
BeatmapID:1284004
BeatmapSetID:563953

[Difficulty]
HPDrainRate:6
CircleSize:4
OverallDifficulty:9
ApproachRate:9
SliderMultiplier:1.6
SliderTickRate:2

[Events]
//Background and Video events
0,0,"fe08249a3130825629831c018799d110_original.jpg",0,0
//Break Periods
//Storyboard Layer 0 (Background)
//Storyboard Layer 1 (Fail)
//Storyboard Layer 2 (Pass)
//Storyboard Layer 3 (Foreground)
//Storyboard Sound Samples

[TimingPoints]
152,301.401517054303,3,2,1,20,1,0
152,-133.333333333333,3,2,1,20,0,0
29086,-200,3,2,1,20,0,0
29161,-200,3,2,0,5,0,0
29990,-200,3,2,1,20,0,0
30066,-200,3,2,0,5,0,0
30894,-200,3,2,1,20,0,0
30970,-200,3,2,0,5,0,0
31799,-200,3,2,1,20,0,0
31874,-200,3,2,0,5,0,0
32703,-200,3,2,1,20,0,0
32778,-200,3,2,0,5,0,0
33607,-200,3,2,1,20,0,0
33682,-200,3,2,0,5,0,0
34511,-200,3,2,1,20,0,0
34587,-200,3,2,0,5,0,0
35415,-200,3,2,1,20,0,0
35491,-200,3,2,0,5,0,0
36320,-200,3,2,1,20,0,0
36395,-200,3,2,0,5,0,0
37224,-200,3,2,1,20,0,0
37299,-200,3,2,0,5,0,0
38128,-200,3,2,1,20,0,0
38203,-200,3,2,0,5,0,0
39032,-200,3,2,1,20,0,0
39108,-200,3,2,0,5,0,0
39937,-200,3,2,1,20,0,0
40012,-200,3,2,0,5,0,0
40841,-200,3,2,1,20,0,0
40916,-200,3,2,0,5,0,0
41745,-200,3,2,1,20,0,0
41820,-200,3,2,0,5,0,0
42649,-133.333333333333,3,2,1,20,0,0
43553,-133.333333333333,3,2,1,30,0,0
52520,-133.333333333333,3,2,0,5,0,0
52595,-133.333333333333,3,2,1,30,0,0
57116,-100,3,2,1,30,0,0
57568,-80,3,2,1,30,0,0
58021,-86.9565217391304,3,2,1,50,0,1
70227,-76.9230769230769,3,2,1,50,0,1
71132,-74.0740740740741,3,2,1,50,0,1
72036,-71.4285714285714,3,2,1,50,0,1
72940,-68.9655172413793,3,2,1,50,0,1
73392,-117.647058823529,3,2,1,20,0,0
102327,-133.333333333333,3,2,1,20,0,0
102327,-133.333333333333,3,2,1,20,0,0
102402,-133.333333333333,3,2,0,5,0,0
103231,-133.333333333333,3,2,1,20,0,0
103307,-133.333333333333,3,2,0,5,0,0
104135,-133.333333333333,3,2,1,20,0,0
104211,-133.333333333333,3,2,0,5,0,0
105040,-133.333333333333,3,2,1,20,0,0
105115,-133.333333333333,3,2,0,5,0,0
105944,-133.333333333333,3,2,1,20,0,0
106019,-133.333333333333,3,2,0,5,0,0
106848,-133.333333333333,3,2,1,20,0,0
106923,-133.333333333333,3,2,0,5,0,0
107752,-133.333333333333,3,2,1,20,0,0
107828,-133.333333333333,3,2,0,5,0,0
108656,-133.333333333333,3,2,1,20,0,0
108732,-133.333333333333,3,2,0,5,0,0
109561,-133.333333333333,3,2,1,20,0,0
109636,-133.333333333333,3,2,0,5,0,0
110465,-133.333333333333,3,2,1,20,0,0
110540,-133.333333333333,3,2,0,5,0,0
111369,-133.333333333333,3,2,1,20,0,0
111444,-133.333333333333,3,2,0,5,0,0
112273,-133.333333333333,3,2,1,20,0,0
112349,-133.333333333333,3,2,0,5,0,0
113178,-133.333333333333,3,2,1,20,0,0
113253,-133.333333333333,3,2,0,5,0,0
114082,-133.333333333333,3,2,1,20,0,0
114157,-133.333333333333,3,2,0,5,0,0
114986,-133.333333333333,3,2,1,20,0,0
115061,-133.333333333333,3,2,0,5,0,0
115890,-117.647058823529,3,2,1,30,0,0
116794,-117.647058823529,3,2,1,30,0,0
125761,-117.647058823529,3,2,0,5,0,0
125836,-117.647058823529,3,2,1,30,0,0
130357,450.500167811312,3,3,0,40,1,0
131258,226.415094339623,4,2,99,55,1,1
131258,-74.0740740740741,4,2,99,55,0,1
131371,-100,4,2,1,55,0,1
144842,-100,4,2,1,40,0,0
145748,-74.0740740740741,4,2,99,55,0,1
145861,-100,4,2,1,55,0,1
160239,301.401517054303,3,2,1,40,1,0
160314,-100,3,2,1,10,0,0
174706,-133.333333333333,3,2,1,30,0,0
183672,-133.333333333333,3,2,0,5,0,0
183748,-133.333333333333,3,2,1,30,0,0
196407,375,3,2,1,10,1,0
197532,428.571428571429,3,2,1,10,1,0
197960,769.230769230769,3,2,1,10,1,0
198681,-100,3,2,1,10,0,0
198729,365.853658536585,3,2,0,5,1,0
199094,388.349514563107,3,2,1,10,1,0
199288,612.244897959184,3,2,1,10,1,0
199861,-100,3,2,0,5,0,0
199900,600,3,2,1,10,1,0
200350,-100,3,2,0,5,0,0
200500,676.437429537768,3,2,1,10,1,0
201007,-100,3,2,0,5,0,0
201176,461.538461538462,3,2,1,10,1,0
201610,-100,3,2,1,10,0,0
201637,428.571428571429,3,2,0,5,1,0
202038,-100,3,2,0,5,0,0
202065,500,3,2,1,10,1,0
202565,363.636363636364,3,2,1,10,1,0
202655,1052.63157894737,3,2,1,10,1,0

[Colours]
Combo1 : 128,128,255
Combo2 : 255,128,255
Combo3 : 128,255,255
Combo4 : 0,255,128
Combo5 : 255,255,128
Combo6 : 255,0,128
Combo7 : 0,255,0
Combo8 : 255,128,64

[HitObjects]
134,261,152,6,0,L|10:235,2,120.000004577637
337,213,1056,2,0,P|382:154|377:85,1,120.000004577637
256,34,1659,1,0,0:0:0:0:
127,110,1960,6,0,P|135:168|175:213,1,120.000004577637
256,34,2563,1,0,0:0:0:0:
378,261,2864,2,0,L|502:235,2,120.000004577637
142,366,3768,6,0,L|15:338,1,120.000004577637
168,230,4371,1,0,0:0:0:0:
416,200,4673,1,0,0:0:0:0:
456,304,4974,1,0,0:0:0:0:
344,90,5275,1,0,0:0:0:0:
97,217,5577,6,0,L|239:241,2,120.000004577637
378,255,6481,2,0,L|236:279,2,120.000004577637
68,63,7385,5,0,0:0:0:0:
127,175,7687,2,0,L|-8:194,1,120.000004577637
223,79,8289,1,0,0:0:0:0:
282,191,8591,2,0,L|147:210,1,120.000004577637
378,106,9194,5,0,0:0:0:0:
437,218,9496,2,0,L|302:237,1,120.000004577637
501,61,10098,1,0,0:0:0:0:
378,142,10399,2,0,L|461:131,1,60.0000022888184
334,201,10701,2,0,L|251:190,1,60.0000022888184
158,227,11002,6,0,P|193:311|232:325,1,120.000004577637
358,322,11605,1,0,0:0:0:0:
192,289,11906,2,0,L|62:296,2,120.000004577637
364,180,12810,6,0,L|494:187,2,120.000004577637
196,224,13715,2,0,L|314:184,1,120.000004577637
157,59,14317,1,0,0:0:0:0:
444,63,14619,5,0,0:0:0:0:
385,175,14921,2,0,L|520:194,1,120.000004577637
289,79,15523,1,0,0:0:0:0:
230,191,15825,2,0,L|365:210,1,120.000004577637
134,106,16428,5,0,0:0:0:0:
75,218,16730,2,0,L|210:237,1,120.000004577637
11,61,17332,1,0,0:0:0:0:
134,142,17633,2,0,L|51:131,1,60.0000022888184
178,201,17935,2,0,L|261:190,1,60.0000022888184
341,176,18236,6,0,P|374:216|391:289,2,120.000004577637
174,331,19140,2,0,L|309:326,1,120.000004577637
431,319,19743,1,0,0:0:0:0:
171,176,20044,6,0,P|138:216|121:289,2,120.000004577637
338,331,20948,2,0,L|203:326,1,120.000004577637
81,319,21551,1,0,0:0:0:0:
376,328,21852,6,0,L|505:313,1,120.000004577637
421,194,22455,1,0,0:0:0:0:
256,341,22757,2,0,L|385:326,1,120.000004577637
301,207,23360,1,0,0:0:0:0:
136,354,23661,6,0,L|265:339,1,120.000004577637
181,220,24264,1,0,0:0:0:0:
16,367,24565,2,0,L|145:352,1,120.000004577637
222,341,25017,1,0,0:0:0:0:
308,333,25168,2,0,L|326:262,1,60.0000022888184
213,183,25469,6,0,P|169:174|86:186,2,120.000004577637
375,278,26373,2,0,P|419:269|502:281,2,120.000004577637
136,282,27278,1,0,0:0:0:0:
256,182,27579,1,0,0:0:0:0:
376,282,27880,1,0,0:0:0:0:
138,356,28182,5,0,0:0:0:0:
97,361,28257,1,0,0:0:0:0:
58,347,28332,1,0,0:0:0:0:
30,318,28408,1,0,0:0:0:0:
17,279,28483,1,0,0:0:0:0:
23,239,28558,1,0,0:0:0:0:
46,205,28634,1,0,0:0:0:0:
81,185,28709,1,0,0:0:0:0:
122,183,28785,2,0,L|170:178,1,30.0000011444092
82,123,28935,2,0,L|34:117,1,30.0000011444092
248,161,29086,6,0,P|304:124|234:22,1,220
235,21,29990,2,0,L|401:188,1,220
391,177,30894,2,0,B|284:153|284:153|391:132,1,220
391,131,31798,2,0,P|353:77|210:37,1,220
211,36,32703,2,0,B|283:79|283:79|229:79|229:79|300:37,1,220
300,36,33607,6,0,P|193:52|120:131,1,220
119,131,34511,2,0,B|228:153|228:153|121:177,1,220
121,176,35415,2,0,L|277:21,1,220
277,21,36320,2,0,L|121:176,1,220
121,177,37224,6,0,B|228:153|228:153|119:131,1,220
119,131,38128,2,0,P|193:51|300:36,1,220
300,37,39032,2,0,B|229:79|229:79|283:79|283:79|211:36,1,220
211,36,39937,2,0,P|318:51|392:131,1,220
392,131,40841,2,0,B|284:153|284:153|391:177,1,220
390,176,41745,2,0,L|235:21,1,220
235,21,42649,6,0,L|322:32,1,60.0000022888184
394,82,42951,2,0,L|307:93,1,60.0000022888184
443,143,43252,2,0,L|467:67,1,60.0000022888184
187,112,43553,6,0,P|115:134|69:185,2,120.000004577637
322,100,44458,1,0,0:0:0:0:
134,185,44759,2,0,L|54:187,1,60.0000022888184
151,103,45060,1,0,0:0:0:0:
46,112,45211,1,0,0:0:0:0:
282,279,45362,6,0,P|326:235|294:177,1,120.000004577637
221,154,45814,2,0,L|298:143,1,60.0000022888184
436,134,46266,2,0,L|304:105,1,120.000004577637
108,101,46718,2,0,L|240:72,1,120.000004577637
445,68,47170,6,0,P|475:117|430:166,1,120.000004577637
334,195,47622,1,0,0:0:0:0:
247,196,47773,2,0,L|225:126,1,60.0000022888184
323,86,48074,2,0,L|403:75,1,60.0000022888184
155,206,48376,2,0,L|75:195,1,60.0000022888184
245,162,48677,2,0,L|257:101,1,60.0000022888184
42,143,48979,5,0,0:0:0:0:
26,154,49029,1,0,3:0:0:0:
15,171,49079,1,0,3:0:0:0:
13,191,49129,1,0,3:0:0:0:
18,210,49179,1,0,3:0:0:0:
30,226,49230,1,0,3:0:0:0:
47,236,49280,1,0,3:0:0:0:
116,234,49431,1,0,3:0:0:0:
135,227,49481,1,0,3:0:0:0:
154,221,49531,1,0,3:0:0:0:
173,215,49581,1,0,3:0:0:0:
192,209,49631,1,0,3:0:0:0:
211,203,49682,1,0,3:0:0:0:
230,197,49732,1,0,3:0:0:0:
471,141,49883,1,0,0:0:0:0:
256,293,50787,6,0,L|109:278,2,120.000004577637
471,141,51691,1,0,0:0:0:0:
46,88,51993,2,0,P|31:146|134:250,1,210.000008010865
122,248,52595,2,0,L|253:222,1,120.000004577637
333,200,53047,2,0,L|347:128,1,60.0000022888184
188,176,53500,2,0,P|227:227|293:239,1,120.000004577637
413,314,53952,2,0,L|276:343,1,120.000004577637
