osu file format v14

[General]
AudioFilename: audio.mp3
AudioLeadIn: 0
PreviewTime: 17655
Countdown: 0
SampleSet: Normal
StackLeniency: 0.7
Mode: 1
LetterboxInBreaks: 0
WidescreenStoryboard: 1

[Editor]
Bookmarks: 761,17369,31297
DistanceSpacing: 0.5
BeatDivisor: 12
GridSize: 32
TimelineZoom: 1

[Metadata]
Title:everythin gon be alright
TitleUnicode:everythin gon be alright
Artist:bo en
ArtistUnicode:bo en
Creator:Yenmaster
Version:futsuu
Source:
Tags:going to heart chiptune electronic instrumental everything obake chan obakechan
BeatmapID:2267325
BeatmapSetID:1084170

[Difficulty]
HPDrainRate:8
CircleSize:5
OverallDifficulty:4
ApproachRate:5
SliderMultiplier:1.4
SliderTickRate:1

[Events]
//Background and Video events
0,0,"ghost qt.jpg",0,-70
Video,0,"bo en - everythin gon be alright.mp4"
//Break Periods
//Storyboard Layer 0 (Background)
//Storyboard Layer 1 (Fail)
//Storyboard Layer 2 (Pass)
//Storyboard Layer 3 (Foreground)
//Storyboard Layer 4 (Overlay)
//Storyboard Sound Samples

[TimingPoints]
245,535.714285714286,4,1,0,35,1,0
245,-76.9230769230769,4,1,0,35,0,0

[HitObjects]
256,192,780,5,8,0:0:0:0:
256,192,1048,1,0,0:0:0:0:
256,192,1584,1,8,0:0:0:0:
256,192,2120,1,0,0:0:0:0:
256,192,3191,1,8,0:0:0:0:
256,192,3727,1,8,0:0:0:0:
256,192,4263,1,8,0:0:0:0:
256,192,4530,1,0,0:0:0:0:
256,192,5066,1,8,0:0:0:0:
256,192,5334,1,0,0:0:0:0:
256,192,5870,1,8,0:0:0:0:
256,192,6405,1,0,0:0:0:0:
256,192,7477,1,8,0:0:0:0:
256,192,8013,1,0,0:0:0:0:
256,192,8280,1,0,0:0:0:0:
256,192,8548,1,8,0:0:0:0:
256,192,8816,1,0,0:0:0:0:
256,192,9352,1,8,0:0:0:0:
256,192,9620,1,0,0:0:0:0:
256,192,10155,1,8,0:0:0:0:
256,192,10691,1,0,0:0:0:0:
256,192,11227,1,8,0:0:0:0:
256,192,11495,1,0,0:0:0:0:
256,192,11763,1,8,0:0:0:0:
256,192,12298,1,0,0:0:0:0:
256,192,13102,1,0,0:0:0:0:
256,192,13370,1,8,0:0:0:0:
256,192,13905,1,0,0:0:0:0:
256,192,14441,1,0,0:0:0:0:
256,192,14709,1,8,0:0:0:0:
256,192,14977,1,8,0:0:0:0:
256,192,15513,1,0,0:0:0:0:
256,192,15780,1,8,0:0:0:0:
256,192,16048,1,0,0:0:0:0:
256,192,16316,1,0,0:0:0:0:
256,192,16852,1,8,0:0:0:0:
256,192,17388,1,0,0:0:0:0:
256,192,17655,1,0,0:0:0:0:
256,192,17923,1,8,0:0:0:0:
256,192,18191,1,0,0:0:0:0:
256,192,18727,1,8,0:0:0:0:
256,192,19263,1,0,0:0:0:0:
256,192,19798,1,0,0:0:0:0:
256,192,20066,1,8,0:0:0:0:
256,192,20334,1,8,0:0:0:0:
256,192,20870,1,8,0:0:0:0:
256,192,21138,1,0,0:0:0:0:
256,192,21673,1,0,0:0:0:0:
256,192,22209,1,8,0:0:0:0:
256,192,22477,1,0,0:0:0:0:
256,192,23013,1,8,0:0:0:0:
256,192,23548,1,0,0:0:0:0:
256,192,24084,1,8,0:0:0:0:
256,192,24352,1,0,0:0:0:0:
256,192,24620,1,8,0:0:0:0:
256,192,25155,1,8,0:0:0:0:
256,192,25959,1,0,0:0:0:0:
256,192,26495,1,8,0:0:0:0:
256,192,26763,1,0,0:0:0:0:
256,192,27298,1,8,0:0:0:0:
256,192,27834,1,0,0:0:0:0:
256,192,28370,1,0,0:0:0:0:
256,192,28638,1,8,0:0:0:0:
256,192,28905,1,0,0:0:0:0:
256,192,29441,1,8,0:0:0:0:
256,192,29709,1,0,0:0:0:0:
256,192,30245,1,8,0:0:0:0:
256,192,31316,1,8,0:0:0:0:
256,192,31584,1,8,0:0:0:0:
256,192,32120,1,0,0:0:0:0:
256,192,32655,1,0,0:0:0:0:
256,192,32923,1,8,0:0:0:0:
256,192,33459,1,0,0:0:0:0:
256,192,33727,1,8,0:0:0:0:
256,192,34263,1,8,0:0:0:0:
256,192,34530,1,0,0:0:0:0:
256,192,35066,1,8,0:0:0:0:
256,192,35602,1,8,0:0:0:0:
256,192,36138,1,0,0:0:0:0:
256,192,36405,1,8,0:0:0:0:
256,192,36673,1,8,0:0:0:0:
256,192,37209,1,8,0:0:0:0:
256,192,37745,1,8,0:0:0:0:
256,192,38280,1,0,0:0:0:0:
256,192,38548,1,8,0:0:0:0:
256,192,38816,1,0,0:0:0:0:
256,192,39084,1,0,0:0:0:0:
256,192,39352,1,0,0:0:0:0:
256,192,39888,1,8,0:0:0:0:
256,192,40423,1,0,0:0:0:0:
256,192,40691,1,8,0:0:0:0:
256,192,40959,1,0,0:0:0:0:
256,192,41495,1,8,0:0:0:0:
256,192,42030,1,0,0:0:0:0:
256,192,43638,1,8,0:0:0:0:
256,192,44173,1,8,0:0:0:0:
256,192,44709,1,0,0:0:0:0:
256,192,44977,1,8,0:0:0:0:
256,192,45245,1,8,0:0:0:0:
256,192,45780,1,8,0:0:0:0:
256,192,46316,1,0,0:0:0:0:
256,192,46852,1,8,0:0:0:0:
256,192,47388,1,0,0:0:0:0:
256,192,47655,1,0,0:0:0:0:
256,192,48191,1,0,0:0:0:0:
256,192,48459,1,8,0:0:0:0:
256,192,48995,1,8,0:0:0:0:
256,192,49263,1,0,0:0:0:0:
256,192,49530,5,8,0:0:0:0:
256,192,50066,1,0,0:0:0:0:
256,192,50602,1,8,0:0:0:0:
256,192,51137,1,0,0:0:0:0:
256,192,51673,1,8,0:0:0:0:
256,192,52209,1,0,0:0:0:0:
256,192,52744,1,0,0:0:0:0:
256,192,53280,1,8,0:0:0:0:
256,192,53548,12,0,55825,0:0:0:0:
