osu file format v14

[General]
AudioFilename: audio.mp3
AudioLeadIn: 0
PreviewTime: 17186
Countdown: 0
SampleSet: Soft
StackLeniency: 0.7
Mode: 0
LetterboxInBreaks: 0
WidescreenStoryboard: 1

[Editor]
Bookmarks: 36119,36120
DistanceSpacing: 1.4
BeatDivisor: 4
GridSize: 32
TimelineZoom: 1

[Metadata]
Title:everythin gon be alright
TitleUnicode:everythin gon be alright
Artist:bo en
ArtistUnicode:bo en
Creator:Chanci
Version:hard
Source:
Tags:everything will be gonna going to heart
BeatmapID:1755183
BeatmapSetID:824343

[Difficulty]
HPDrainRate:4.5
CircleSize:3
OverallDifficulty:5
ApproachRate:6
SliderMultiplier:1.68
SliderTickRate:1

[Events]
//Background and Video events
Video,0,"bo en - everythin gon be alright.mp4"
0,0,"ghost qt.jpg",0,0
//Break Periods
//Storyboard Layer 0 (Background)
//Storyboard Layer 1 (Fail)
//Storyboard Layer 2 (Pass)
//Storyboard Layer 3 (Foreground)
//Storyboard Sound Samples

[TimingPoints]
227,535.714285714286,4,2,1,35,1,0
7861,-100,4,2,1,5,0,0
7995,-100,4,2,1,35,0,0
12146,-100,4,2,1,5,0,0
12280,-100,4,2,1,35,0,0
12816,-100,4,2,1,5,0,0
13084,-100,4,2,1,35,0,0
15361,-100,4,2,1,5,0,0
15495,-100,4,2,1,35,0,0
19646,-100,4,2,1,5,0,0
19780,-100,4,2,1,35,0,0
20718,-100,4,2,1,5,0,0
20852,-100,4,2,1,35,0,0
23396,-100,4,2,1,5,0,0
23530,-100,4,2,1,35,0,0
23932,-100,4,2,1,5,0,0
24066,-100,4,2,1,35,0,0
25004,-100,4,2,1,5,0,0
25138,-100,4,2,1,35,0,0
27548,-100,4,2,1,5,0,0
27816,-100,4,2,1,35,0,0
29289,-100,4,2,1,5,0,0
29423,-100,4,2,1,35,0,0
30763,-100,4,2,1,5,0,0
31298,-100,4,2,1,35,0,0
32504,-100,4,2,1,5,0,0
32638,-100,4,2,1,35,0,0
34914,-100,4,2,1,5,0,0
35048,-100,4,2,1,35,0,0
36923,-100,4,2,1,5,0,0
37191,-100,4,2,1,35,0,0
37995,-100,4,2,1,5,0,0
38263,-100,4,2,1,35,0,0
41209,-100,4,2,1,5,0,0
41343,-100,4,2,1,35,0,0
41879,-100,4,2,1,5,0,0
42013,-100,4,2,1,35,0,0
42548,-100,4,2,1,5,0,0
43084,-100,4,2,1,35,0,0
43486,-100,4,2,1,5,0,0
43620,-100,4,2,1,35,0,0
45495,-100,4,2,1,5,0,0
45763,-100,4,2,1,35,0,0
46566,-100,4,2,1,5,0,0
46834,-100,4,2,1,35,0,0
48843,-100,4,2,1,5,0,0
48977,-100,4,2,1,35,0,0
49780,-100,4,2,1,5,0,0
50048,-100,4,2,1,35,0,0
50316,-100,4,2,1,5,0,0
50584,-100,4,2,1,35,0,0
50852,-100,4,2,1,5,0,0
51120,-100,4,2,1,35,0,0
51388,-100,4,2,1,5,0,0
51655,-100,4,2,1,35,0,0
51923,-100,4,2,1,5,0,0
52191,-100,4,2,1,35,0,0
52459,-100,4,2,1,5,0,0
52727,-100,4,2,1,35,0,0
52995,-100,4,2,1,5,0,0
53263,-111.111111111111,4,2,1,35,0,0
53798,-111.111111111111,4,2,1,5,0,0

[Colours]
Combo1 : 255,244,213
Combo2 : 213,255,213
Combo3 : 213,232,255
Combo4 : 253,215,220

[HitObjects]
110,43,762,5,8,0:0:0:0:
193,47,1030,1,8,0:0:0:0:
26,38,1566,1,8,0:0:0:0:
101,186,2102,1,8,0:0:0:0:
101,186,3173,6,0,L|268:194,1,168,0|0,0:0|0:0,0:0:0:0:
321,128,3977,2,0,P|346:161|354:201,1,84,8|0,0:0|0:0,0:0:0:0:
436,218,4512,2,0,P|420:256|388:283,1,84,8|8,0:0|0:0,0:0:0:0:
304,273,5048,5,8,0:0:0:0:
338,349,5316,1,8,0:0:0:0:
502,365,5852,1,8,0:0:0:0:
434,215,6387,1,8,0:0:0:0:
434,215,7458,5,8,0:0:0:0:
445,209,7503,2,0,P|390:205|345:174,1,112,8|0,0:0|0:0,0:0:0:0:
329,135,7995,2,0,L|364:136,3,28
370,52,8530,2,0,P|408:68|435:100,1,84,0|8,0:0|0:0,0:0:0:0:
275,23,9334,5,8,0:0:0:0:
188,60,9602,2,0,L|104:64,1,84,0|8,0:0|0:0,0:0:0:0:
65,137,10137,1,8,0:0:0:0:
233,134,10673,1,8,0:0:0:0:
151,280,11209,6,0,L|150:238,2,42,0|0|0,0:0|0:0|0:0,0:0:0:0:
216,332,11744,2,0,B|154:322|154:322|90:340,1,126,0|0,0:0|0:0,0:0:0:0:
77,378,12280,2,0,B|156:355|156:355|245:372,1,168,0|0,0:0|0:0,0:0:0:0:
324,372,13084,5,8,0:0:0:0:
369,302,13352,1,8,0:0:0:0:
452,305,13619,1,8,0:0:0:0:
497,235,13887,1,8,0:0:0:0:
374,159,14423,5,0,0:0:0:0:
420,88,14691,1,0,0:0:0:0:
335,83,14959,2,0,L|209:79,1,126,8|0,0:0|0:0,0:0:0:0:
188,116,15495,2,0,L|104:112,1,84
90,194,16030,6,0,L|132:196,1,42
162,225,16298,2,0,P|237:195|307:239,2,168,8|0|8,0:0|0:0|0:0,0:0:0:0:
229,276,17637,1,8,0:0:0:0:
297,319,17872,5,0,0:0:0:0:
295,331,17905,1,8,0:0:0:0:
219,375,18173,2,0,L|135:379,1,84,8|8,0:0|0:0,0:0:0:0:
55,331,18709,1,8,0:0:0:0:
144,171,19244,2,0,P|82:169|33:130,1,126,8|0,0:0|0:0,0:0:0:0:
51,91,19780,2,0,L|9:90,2,42
124,51,20315,5,8,0:0:0:0:
135,43,20360,2,0,P|177:77|232:81,1,112,8|0,0:0|0:0,0:0:0:0:
269,59,20852,2,0,P|310:53|348:66,1,84,8|0,0:0|0:0,0:0:0:0:
433,77,21387,2,0,P|416:115|386:142,1,84,8|8,0:0|0:0,0:0:0:0:
240,223,22124,5,0,0:0:0:0:
243,210,22191,1,8,0:0:0:0:
293,142,22459,1,0,0:0:0:0:
289,309,22950,5,0,0:0:0:0:
282,296,22994,2,0,L|407:301,1,126,8|0,0:0|0:0,0:0:0:0:
428,338,23530,2,0,L|302:332,1,126,8|0,0:0|0:0,0:0:0:0:
281,369,24066,2,0,L|323:370,2,42,8|0|8,0:0|0:0|0:0,0:0:0:0:
207,327,24557,5,0,0:0:0:0:
195,332,24602,2,0,L|70:327,1,126,8|0,0:0|0:0,0:0:0:0:
48,290,25137,2,0,L|89:291,1,42,8|0,0:0|0:0,0:0:0:0:
101,250,25405,2,0,L|143:251,2,42,0|0|0,0:0|0:0|0:0,0:0:0:0:
77,222,25807,1,0,0:0:0:0:
77,222,25941,1,0,0:0:0:0:
180,37,26477,5,8,0:0:0:0:
97,41,26745,1,0,0:0:0:0:
263,32,27280,2,0,P|304:43|335:71,1,84,8|0,0:0|0:0,0:0:0:0:
407,27,27816,2,0,P|407:107|341:154,1,168,8|8,0:0|0:0,0:0:0:0:
257,123,28619,1,8,0:0:0:0:
275,205,28842,5,0,0:0:0:0:
275,218,28887,2,0,P|251:261|182:292,1,126,8|0,0:0|0:0,0:0:0:0:
146,273,29423,1,0,0:0:0:0:
70,237,29691,1,8,0:0:0:0:
1,285,29959,1,0,0:0:0:0:
77,321,30182,5,0,0:0:0:0:
84,333,30227,2,0,B|145:374|145:374|326:358,1,252,8|0,0:0|0:0,0:0:0:0:
408,384,31298,5,8,0:0:0:0:
408,384,31566,1,8,0:0:0:0:
241,336,32102,2,0,P|215:293|223:218,1,126,8|0,0:0|0:0,0:0:0:0:
252,189,32637,6,0,L|168:183,1,84,0|0,0:0|0:0,0:0:0:0:
194,102,33173,2,0,L|277:107,2,84,0|0|0,0:0|0:0|0:0,0:0:0:0:
219,20,33977,2,0,L|302:25,1,84,0|0,0:0|0:0,0:0:0:0:
358,88,34512,2,0,P|405:127|467:130,1,126,8|0,0:0|0:0,0:0:0:0:
502,106,35048,6,0,P|508:125|506:193,2,84,0|0|0,0:0|0:0|0:0,0:0:0:0:
440,48,35852,1,0,0:0:0:0:
378,106,36120,2,0,P|371:125|373:192,1,84
441,237,36655,6,0,L|353:233,1,84,8|0,0:0|0:0,0:0:0:0:
278,264,37191,1,0,0:0:0:0:
125,321,37727,6,0,L|212:317,1,84,8|0,0:0|0:0,0:0:0:0:
288,348,38263,1,0,0:0:0:0:
356,298,38530,1,0,0:0:0:0:
278,264,38798,1,8,0:0:0:0:
343,211,39066,2,0,L|385:208,3,28,0|0|0|0,0:0|0:0|0:0|0:0,0:0:0:0:
264,181,39602,1,0,0:0:0:0:
278,264,39869,5,8,0:0:0:0:
200,235,40137,1,0,0:0:0:0:
135,288,40405,1,0,0:0:0:0:
57,259,40673,1,0,0:0:0:0:
122,205,40941,6,0,L|133:111,1,84,8|0,0:0|0:0,0:0:0:0:
107,86,41343,1,0,0:0:0:0:
128,49,41477,2,0,L|2:34,1,126,0|0,0:0|0:0,0:0:0:0:
35,7,42012,2,0,L|343:42,1,294,8|0,0:0|0:0,0:0:0:0:
342,79,43084,2,0,L|216:64,1,126,8|0,0:0|0:0,0:0:0:0:
232,103,43619,6,0,P|212:97|144:99,2,84,0|0|0,0:0|0:0|0:0,0:0:0:0:
290,166,44423,1,0,0:0:0:0:
317,247,44691,2,0,P|312:266|276:324,1,84,0|0,0:0|0:0,0:0:0:0:
200,349,45227,6,0,L|116:345,1,84,8|0,0:0|0:0,0:0:0:0:
65,278,45762,1,0,0:0:0:0:
209,192,46298,6,0,L|292:188,1,84,8|0,0:0|0:0,0:0:0:0:
370,222,46834,1,8,0:0:0:0:
438,171,47102,1,0,0:0:0:0:
360,137,47369,1,8,0:0:0:0:
428,88,47637,2,0,L|470:85,3,28,0|0|0|0,0:0|0:0|0:0|0:0,0:0:0:0:
350,54,48173,1,0,0:0:0:0:
360,137,48441,6,0,P|306:168|243:161,1,126,8|0,0:0|0:0,0:0:0:0:
212,134,48977,1,0,0:0:0:0:
129,148,49244,1,0,0:0:0:0:
103,228,49512,6,0,P|145:229|182:210,1,84,8|0,0:0|0:0,0:0:0:0:
212,134,50048,2,0,P|249:115|290:116,1,84,8|0,0:0|0:0,0:0:0:0:
323,259,50584,2,0,P|288:236|268:199,1,84,8|0,0:0|0:0,0:0:0:0:
375,103,51119,2,0,P|409:125|429:162,1,84,8|0,0:0|0:0,0:0:0:0:
512,166,51655,2,0,P|501:206|472:236,1,84,8|0,0:0|0:0,0:0:0:0:
414,299,52191,2,0,P|452:317|494:315,1,84,8|0,0:0|0:0,0:0:0:0:
337,263,52727,2,0,P|331:304|346:343,1,84,8|0,0:0|0:0,0:0:0:0:
340,183,53263,2,0,B|303:177|269:200|258:236|258:236|250:262|223:278|193:272|193:272|166:267|144:242|149:212|149:212|149:185|171:161|201:158|201:158|174:163|149:147|140:120|140:120|134:96|145:69|168:55|168:55|193:43|222:51|238:69|238:69|257:88|282:96|306:88|306:88|331:84|350:66|354:54,1,718.199978082276,8|0,0:0|0:0,0:0:0:0:
