osu file format v14

[General]
AudioFilename: audio.mp3
AudioLeadIn: 0
PreviewTime: 50
Countdown: 0
SampleSet: Soft
StackLeniency: 0.7
Mode: 0
LetterboxInBreaks: 0
WidescreenStoryboard: 1

[Editor]
Bookmarks: 14490,27890,43290,56090
DistanceSpacing: 0.1
BeatDivisor: 4
GridSize: 8
TimelineZoom: 2.2

[Metadata]
Title:Tussle Among Trees
TitleUnicode:Tussle Among Trees
Artist:bo en
ArtistUnicode:bo en
Creator:Ilay
Version:tin frog's Insane
Source:OMORI
Tags:Aubrey Sunny Hero Mari Something Kel Basil Wanpachi Hooni xiqingwa tin frog video game vgm music vast forest battle theme instrumental videogame ost orignal soundtrack sound track omocat
BeatmapID:3513772
BeatmapSetID:1711315

[Difficulty]
HPDrainRate:5
CircleSize:4
OverallDifficulty:7.3
ApproachRate:8.8
SliderMultiplier:2
SliderTickRate:1

[Events]
//Background and Video events
0,0,"BG.jpg",0,0
//Break Periods
//Storyboard Layer 0 (Background)
//Storyboard Layer 1 (Fail)
//Storyboard Layer 2 (Pass)
//Storyboard Layer 3 (Foreground)
//Storyboard Layer 4 (Overlay)
//Storyboard Sound Samples

[TimingPoints]
75,400,4,2,1,65,1,0
75,-58.8235294117647,4,2,1,65,0,0
1475,-100,4,2,1,65,0,0
1675,-58.8235294117647,4,2,1,65,0,0
2575,-100,4,2,1,65,0,0
3275,-58.8235294117647,4,2,1,65,0,0
4675,-100,4,2,1,65,0,0
4875,-58.8235294117647,4,2,1,65,0,0
5775,-100,4,2,1,65,0,0
6475,-58.8235294117647,4,2,1,65,0,0
9275,-100,4,2,1,65,0,0
9675,-100,4,2,1,65,0,0
9775,-100,4,2,1,65,0,0
11675,-100,4,2,1,60,0,0
14075,-100,4,2,1,50,0,0
14475,-500,4,2,1,65,0,0
28075,-100,4,2,1,60,0,0
42875,-142.857142857143,4,2,1,60,0,0
43275,-90.9090909090909,4,2,1,70,0,0
54475,-90.9090909090909,4,2,1,60,0,0
55075,-90.9090909090909,4,2,1,50,0,0
56075,-90.9090909090909,4,2,1,60,0,0
56475,-166.666666666667,4,2,1,60,0,0
68075,-100,4,2,1,60,0,0
68875,-100,4,2,1,70,0,0
69275,-76.9230769230769,4,2,1,70,0,0
69675,-62.5,4,2,1,70,0,0
70275,-52.6315789473684,4,2,1,70,0,0

[Colours]
Combo1 : 96,230,125
Combo2 : 111,40,227
Combo3 : 58,233,216
Combo4 : 228,237,129

[HitObjects]
503,373,75,6,0,P|400:339|409:234,1,170,6|0,2:0|2:0,2:0:0:0:
468,204,375,2,0,P|476:271|487:319,1,85,2|8,2:0|2:0,2:0:0:0:
180,360,675,2,0,P|200:264|211:150,1,170,2|0,2:0|1:0,2:0:0:0:
374,1,1075,5,2,2:0:0:0:
374,1,1175,1,2,2:0:0:0:
374,1,1275,1,10,2:0:0:0:
327,95,1475,2,0,L|402:75,1,50,2|0,2:0|2:0,2:0:0:0:
452,70,1675,6,0,P|335:43|260:20,1,170,2|0,1:2|2:0,2:0:0:0:
232,101,1975,2,0,P|194:65|201:21,1,85,2|8,2:0|2:0,2:0:0:0:
124,288,2275,2,0,P|27:319|-1:402,1,170,2|0,2:0|1:0,2:0:0:0:
17,378,2575,2,0,P|8:309|-11:251,1,100,0|0,2:0|2:0,2:0:0:0:
48,209,2875,1,10,2:0:0:0:
293,348,3075,5,2,2:0:0:0:
293,348,3175,1,0,2:0:0:0:
293,348,3275,2,0,P|406:314|414:222,1,170,6|0,1:2|2:0,2:0:0:0:
512,230,3575,2,0,P|481:207|475:141,1,85,2|8,2:0|2:0,2:0:0:0:
277,168,3875,2,0,P|310:65|315:-6,1,170,2|0,2:0|1:0,2:0:0:0:
117,54,4275,5,2,2:0:0:0:
117,54,4375,1,2,2:0:0:0:
117,54,4475,1,8,2:0:0:0:
17,44,4675,2,0,L|31:113,1,50,2|0,2:0|2:0,2:0:0:0:
103,139,4875,6,0,P|185:173|209:272,1,170,2|0,1:2|2:0,2:0:0:0:
137,312,5175,2,0,P|116:285|130:224,1,85,2|8,2:0|2:0,2:0:0:0:
445,254,5475,2,0,P|400:344|305:343,1,170,2|0,2:0|1:0,2:0:0:0:
326,350,5775,2,0,L|362:228,1,100,0|0,2:0|2:0,2:0:0:0:
376,172,6075,1,10,2:0:0:0:
376,172,6275,1,2,2:0:0:0:
512,5,6475,6,0,P|406:32|313:54,1,170,6|0,1:2|2:0,2:0:0:0:
271,74,6775,2,0,P|217:60|171:49,1,85,2|8,2:0|2:0,2:0:0:0:
30,200,7075,2,0,P|112:219|194:241,1,170,2|0,2:0|1:0,2:0:0:0:
3,120,7475,5,2,2:0:0:0:
3,120,7575,1,2,2:0:0:0:
3,120,7675,2,0,P|-10:56|-32:11,1,85,10|0,2:0|2:0,2:0:0:0:
89,80,7875,1,2,2:0:0:0:
0,318,8075,5,2,1:2:0:0:
204,376,8275,1,2,2:0:0:0:
329,214,8475,1,10,2:0:0:0:
438,154,8675,6,0,P|409:261|393:355,1,170,2|0,2:0|1:0,2:0:0:0:
496,295,9075,1,2,2:0:0:0:
354,128,9275,2,0,P|345:67|331:10,1,100,10|2,2:0|2:0,2:0:0:0:
336,29,9575,1,0,2:0:0:0:
336,29,9675,5,6,1:2:0:0:
206,105,9875,1,2,2:0:0:0:
112,55,10075,1,2,2:0:0:0:
203,14,10275,5,2,2:0:0:0:
0,213,10475,1,2,1:2:0:0:
0,213,10875,2,0,L|22:101,1,100,2|0,2:0|2:0,2:0:0:0:
343,280,11275,5,6,2:0:0:0:
291,291,11375,1,2,2:0:0:0:
248,326,11475,1,2,2:0:0:0:
206,356,11575,1,2,2:0:0:0:
152,371,11675,1,10,2:0:0:0:
256,192,12875,12,0,14375,1:0:0:0:
272,190,14475,6,0,L|266:224,2,30,6|2|2,2:0|2:0|1:2,2:0:0:0:
327,126,15175,1,2,2:0:0:0:
327,126,15275,2,0,L|319:86,1,40,10|2,2:0|2:0,2:0:0:0:
198,280,15875,5,2,1:2:0:0:
198,280,15975,1,2,1:2:0:0:
198,280,16075,2,0,L|164:287,1,30,2|2,1:2|2:0,2:0:0:0:
97,243,16475,2,0,L|70:237,1,20,2|0,2:0|1:0,2:0:0:0:
0,267,16875,2,0,L|2:279,2,10,8|0|0,2:0|2:0|2:0,2:0:0:0:
12,179,17275,1,2,2:0:0:0:
12,179,17475,1,0,2:0:0:0:
43,62,17675,6,0,L|36:29,2,30,2|2|2,1:2|2:0|1:2,2:0:0:0:
123,101,18375,1,2,2:0:0:0:
123,101,18475,2,0,L|164:109,1,40,10|2,2:0|1:2,2:0:0:0:
340,41,19275,5,2,2:0:0:0:
340,41,19375,1,2,2:0:0:0:
340,41,19475,1,2,2:0:0:0:
340,41,19575,1,2,2:0:0:0:
340,41,19675,2,0,L|385:28,1,40,2|2,2:0|2:0,2:0:0:0:
280,147,20275,5,0,1:0:0:0:
280,147,20375,1,0,1:0:0:0:
280,147,20475,1,0,1:0:0:0:
225,265,20675,1,0,1:0:0:0:
360,378,20875,6,0,L|352:342,2,30,6|2|2,2:0|2:0|1:2,2:0:0:0:
442,348,21575,1,2,2:0:0:0:
442,348,21675,2,0,L|484:357,1,40,10|2,2:0|2:0,2:0:0:0:
346,60,22475,5,2,1:2:0:0:
386,271,22675,1,2,2:0:0:0:
386,271,22775,1,2,2:0:0:0:
386,271,22875,2,0,L|393:243,1,20,2|0,2:0|1:0,2:0:0:0:
311,154,23275,2,0,L|310:142,2,10,8|0|0,2:0|2:0|2:0,2:0:0:0:
431,81,23675,1,2,2:0:0:0:
431,81,23875,1,0,2:0:0:0:
241,29,24075,6,0,L|210:23,2,30,2|2|2,1:2|2:0|1:2,2:0:0:0:
122,111,24775,1,2,2:0:0:0:
122,111,24875,2,0,L|167:104,1,40,10|2,2:0|2:0,2:0:0:0:
0,316,25475,1,0,1:0:0:0:
72,265,25675,6,0,L|86:222,1,40,2|0,1:2|1:0,0:0:0:0:
26,143,26275,2,0,L|28:155,1,10,2|2,2:0|2:0,2:0:0:0:
201,229,26475,5,8,2:0:0:0:
201,229,26575,1,0,2:0:0:0:
201,229,26675,1,0,1:0:0:0:
201,229,26775,1,0,1:0:0:0:
201,229,26875,1,0,1:0:0:0:
84,362,27075,1,0,1:0:0:0:
503,250,27875,5,2,2:0:0:0:
486,281,27975,1,2,2:0:0:0:
506,305,28075,2,0,P|410:276|378:166,1,200,14|2,2:0|2:0,2:0:0:0:
446,114,28675,1,0,1:0:0:0:
446,114,28775,1,0,1:0:0:0:
446,114,28875,1,2,1:2:0:0:
137,157,29175,5,2,2:0:0:0:
137,157,29275,2,0,L|25:184,1,100,2|0,2:0|1:0,2:0:0:0:
0,106,29675,2,0,L|15:56,2,50,8|0|0,2:0|2:0|2:0,2:0:0:0:
202,243,30075,5,0,1:0:0:0:
202,243,30175,1,0,1:0:0:0:
202,243,30275,1,0,1:0:0:0:
202,243,30375,1,0,1:0:0:0:
202,243,30475,2,0,P|274:265|369:295,2,150,2|2|2,1:2|2:0|1:2,2:0:0:0:
283,141,31175,5,2,2:0:0:0:
276,184,31275,2,0,P|354:155|393:44,1,200,10|2,2:0|2:0,2:0:0:0:
208,106,31875,1,0,2:0:0:0:
284,2,32075,6,0,L|270:85,1,50,2|2,2:0|2:0,2:0:0:0:
99,257,32275,2,0,L|84:188,1,50,2|2,2:0|2:0,2:0:0:0:
0,232,32475,2,0,P|16:128|32:19,1,200,2|2,2:0|2:0,2:0:0:0:
227,212,33075,5,0,1:0:0:0:
227,212,33175,1,0,1:0:0:0:
227,212,33275,1,0,1:0:0:0:
295,156,33475,1,0,1:0:0:0:
367,207,33675,2,0,P|452:189|529:165,2,150,6|2|2,2:0|2:0|1:2,2:0:0:0:
373,292,34375,5,2,2:0:0:0:
332,286,34475,2,0,P|370:345|491:333,1,200,10|2,2:0|2:0,2:0:0:0:
179,37,35275,5,2,1:2:0:0:
312,10,35475,1,2,2:0:0:0:
341,33,35575,1,2,2:0:0:0:
353,60,35675,2,0,P|290:119|212:106,1,150,2|0,2:0|2:0,2:0:0:0:
97,71,36075,2,0,L|46:94,2,50,8|0|0,2:0|2:0|2:0,2:0:0:0:
148,146,36475,1,2,2:0:0:0:
148,146,36675,1,2,2:0:0:0:
178,39,36875,5,2,2:0:0:0:
10,374,37275,2,0,P|55:321|121:311,1,100,0|2,1:0|2:0,2:0:0:0:
173,265,37575,1,2,2:0:0:0:
141,244,37675,2,0,P|249:262|282:375,1,200,10|2,2:0|2:0,2:0:0:0:
512,35,38475,6,0,P|430:57|285:89,1,200,2|2,1:2|2:0,2:0:0:0:
219,2,38975,1,0,2:0:0:0:
219,2,39075,1,2,1:2:0:0:
219,2,39175,1,2,2:0:0:0:
219,2,39275,6,0,L|234:62,1,50,10|0,2:0|1:0,2:0:0:0:
465,250,39475,2,0,L|492:174,1,50,0|0,1:0|1:0,2:0:0:0:
419,146,39675,2,0,P|377:200|391:263,1,100,2|0,1:2|1:0,2:0:0:0:
400,313,40075,5,6,2:0:0:0:
256,192,40175,12,2,42775,2:0:0:0:
248,210,42875,6,0,L|258:167,3,35,10|2|2|2,2:0|1:2|1:2|1:2,2:0:0:0:
227,303,43275,6,0,P|353:275|378:271,1,110,6|0,1:2|1:0,2:0:0:0:
512,83,43675,2,0,P|381:120|336:237,2,220,10|2|10,2:0|1:2|2:0,2:0:0:0:
225,3,44675,5,2,1:2:0:0:
225,3,44775,1,2,2:2:0:0:
225,3,44875,2,0,P|272:50|278:113,1,110,2|0,1:2|1:0,2:0:0:0:
113,229,45275,2,0,P|105:125|82:1,2,220,10|2|10,2:0|1:2|2:0,2:0:0:0:
512,330,46475,5,2,1:2:0:0:
373,348,46675,1,2,1:2:0:0:
396,357,46775,1,2,2:0:0:0:
416,369,46875,2,0,P|432:283|463:120,2,220,10|2|10,2:0|1:2|2:0,2:0:0:0:
275,276,47875,5,2,1:2:0:0:
275,276,47975,1,2,2:0:0:0:
275,276,48075,2,0,P|215:292|158:304,1,110,2|0,1:2|1:0,2:0:0:0:
3,163,48475,2,0,P|109:70|90:-33,2,220,10|2|10,2:0|1:2|2:0,2:0:0:0:
365,64,49475,5,2,1:2:0:0:
341,27,49575,1,2,2:0:0:0:
296,21,49675,2,0,P|224:54|217:90,1,110,6|0,1:2|1:0,2:0:0:0:
460,261,50075,2,0,P|408:177|285:160,2,220,10|2|10,2:0|1:2|2:0,2:0:0:0:
120,257,51075,5,2,1:2:0:0:
120,257,51141,5,2,2:0:0:0:
120,257,51208,5,2,2:0:0:0:
120,257,51275,6,0,P|183:218|185:156,1,110,2|0,1:2|1:0,2:0:0:0:
234,372,51675,2,0,P|93:342|-28:316,2,220,10|2|10,2:0|1:2|2:0,2:0:0:0:
506,27,52875,6,0,P|433:41|329:56,1,165,2|0,1:2|2:0,2:0:0:0:
242,0,53275,2,0,P|265:102|284:246,2,220,10|2|10,2:0|1:2|2:0,2:0:0:0:
189,183,54275,5,2,1:2:0:0:
189,183,54375,1,2,2:0:0:0:
189,183,54475,2,0,P|129:171|67:158,1,110,6|0,2:0|2:0,2:0:0:0:
8,110,54875,1,8,2:0:0:0:
1,299,55075,5,2,2:0:0:0:
1,299,55141,5,2,2:0:0:0:
1,299,55208,5,2,2:0:0:0:
1,299,55275,2,0,P|97:282|230:265,1,220,2|8,1:2|2:0,2:0:0:0:
296,216,55875,1,0,2:0:0:0:
512,333,56075,5,6,1:2:0:0:
411,122,56475,2,0,P|422:70|438:0,2,120,2|8|2,1:2|2:0|1:2,2:0:0:0:
411,122,57675,5,2,1:2:0:0:
340,81,57875,1,2,2:0:0:0:
340,81,57975,1,2,2:0:0:0:
340,81,58075,2,0,P|264:100|206:110,2,120,2|8|2,1:2|2:0|2:0,2:0:0:0:
60,309,59275,6,0,L|67:278,3,29.9999999999999,2|2|2|2,1:2|2:0|2:0|2:0,2:0:0:0:
153,260,59675,2,0,P|156:332|111:375,2,120,2|8|2,1:2|2:0|2:0,2:0:0:0:
79,184,60675,1,2,0:0:0:0:
88,92,60875,6,2,L|75:49,3,29.9999999999999,2|2|2|2,1:2|2:0|2:0|2:0,2:0:0:0:
0,107,61275,2,0,P|-8:39|41:-13,2,120,2|10|2,1:2|2:0|1:2,2:0:0:0:
227,196,62275,5,2,1:2:0:0:
227,196,62375,1,2,2:0:0:0:
227,196,62475,2,0,P|260:188|293:180,1,59.9999999999999,6|0,2:0|2:0,2:0:0:0:
487,166,62875,2,0,P|422:156|358:143,2,120,2|8|2,1:2|2:0|1:2,2:0:0:0:
129,0,64075,6,0,P|135:27|142:65,1,59.9999999999999,2|0,1:2|2:0,2:0:0:0:
212,112,64341,5,2,2:0:0:0:
212,112,64408,5,2,2:0:0:0:
212,112,64475,6,0,P|247:59|237:-17,2,120,2|8|2,1:2|2:0|2:0,2:0:0:0:
359,364,65675,6,0,P|365:327|381:291,1,59.9999999999999,2|0,1:2|2:0,2:0:0:0:
163,265,66075,2,0,P|153:204|104:163,1,120,2|8,1:2|2:0,2:0:0:0:
345,89,66775,5,8,2:0:0:0:
345,89,66875,2,0,P|363:44|393:26,1,59.9999999999999,2|8,1:2|2:0,2:0:0:0:
217,0,67275,6,0,P|234:68|259:220,1,210,6|0,1:2|2:0,2:0:0:0:
136,15,68075,6,0,P|153:83|176:232,1,200,2|2,1:2|2:0,2:0:0:0:
490,347,68875,6,0,P|499:288|519:214,1,100,2|2,1:2|2:0,2:0:0:0:
403,355,69275,6,0,P|412:296|432:218,1,130,2|2,1:2|2:0,2:0:0:0:
319,364,69675,6,0,P|328:305|355:199,1,160,2|2,1:2|1:2,2:0:0:0:
190,289,69975,1,0,1:0:0:0:
190,289,70075,1,2,1:2:0:0:
226,363,70275,6,0,P|235:304|274:165,1,190,2|0,1:2|2:0,2:0:0:0:
