osu file format v14

[General]
AudioFilename: audio.mp3
AudioLeadIn: 0
PreviewTime: 50
Countdown: 0
SampleSet: Soft
StackLeniency: 0.3
Mode: 0
LetterboxInBreaks: 0
WidescreenStoryboard: 1

[Editor]
Bookmarks: 14491,27891,43291,56091
DistanceSpacing: 1.1
BeatDivisor: 4
GridSize: 8
TimelineZoom: 2.2

[Metadata]
Title:Tussle Among Trees
TitleUnicode:Tussle Among Trees
Artist:bo en
ArtistUnicode:bo en
Creator:Ilay
Version:Normal
Source:OMORI
Tags:Aubrey Sunny Hero Mari Something Kel Basil Wanpachi Hooni xiqingwa tin frog video game vgm music vast forest battle theme instrumental videogame ost orignal soundtrack sound track omocat
BeatmapID:3510427
BeatmapSetID:1711315

[Difficulty]
HPDrainRate:3
CircleSize:2.6
OverallDifficulty:4
ApproachRate:5
SliderMultiplier:1.2
SliderTickRate:1

[Events]
//Background and Video events
0,0,"BG.jpg",0,0
//Break Periods
//Storyboard Layer 0 (Background)
//Storyboard Layer 1 (Fail)
//Storyboard Layer 2 (Pass)
//Storyboard Layer 3 (Foreground)
//Storyboard Layer 4 (Overlay)
//Storyboard Sound Samples

[TimingPoints]
75,400,4,2,1,65,1,0
11675,-100,4,2,1,60,0,0
14475,-100,4,2,1,65,0,0
15075,-100,4,2,1,60,0,0
43275,-100,4,2,1,70,0,1
54475,-100,4,2,1,60,0,0
55275,-100,4,2,1,50,0,0
56075,-100,4,2,1,60,0,0
68875,-100,4,2,1,70,0,0

[Colours]
Combo1 : 96,230,125
Combo2 : 111,40,227
Combo3 : 58,233,216
Combo4 : 228,237,129

[HitObjects]
165,71,75,6,0,L|257:87,1,90,6|2,2:0|2:0,2:0:0:0:
346,51,675,1,2,2:0:0:0:
430,152,1075,1,2,2:0:0:0:
430,152,1275,2,0,L|419:210,1,60,10|2,2:0|2:0,2:0:0:0:
407,276,1675,2,0,P|447:292|489:276,2,90,2|2|2,1:2|2:0|2:0,2:0:0:0:
346,303,2475,1,0,1:0:0:0:
250,211,2875,1,10,2:0:0:0:
136,278,3275,6,0,P|146:321|154:366,2,90,6|2|2,1:2|2:0|2:0,2:0:0:0:
33,194,4275,1,2,2:0:0:0:
33,194,4475,2,0,P|37:161|56:138,1,60,8|2,2:0|2:0,2:0:0:0:
92,87,4875,2,0,P|81:43|73:-1,2,90,2|2|2,1:2|2:0|2:0,2:0:0:0:
153,109,5675,1,0,1:0:0:0:
259,30,6075,1,10,2:0:0:0:
339,134,6475,6,0,B|384:121|362:97|413:84,2,90,6|2|2,1:2|2:0|2:0,2:0:0:0:
223,195,7475,1,2,2:0:0:0:
223,195,7675,2,0,L|212:254,1,60,10|2,2:0|2:0,2:0:0:0:
198,318,8075,6,0,P|214:342|240:356,1,60,10|2,0:0|0:0,0:0:0:0:
311,362,8475,1,10,2:0:0:0:
311,362,8675,2,0,P|368:343|431:327,1,120,2|2,2:0|1:0,2:0:0:0:
489,309,9275,1,10,2:0:0:0:
506,178,9675,6,0,P|442:138|343:174,1,180,6|2,1:2|2:0,2:0:0:0:
315,225,10475,1,2,1:2:0:0:
225,321,10875,1,2,2:0:0:0:
99,278,11275,2,0,L|86:202,1,60,6|2,2:0|2:0,2:0:0:0:
75,154,11675,6,0,B|104:12|254:17|254:17|201:50|203:112,1,360,10|10,2:0|2:0,2:0:0:0:
458,349,14475,6,0,P|487:316|487:272,1,90,6|2,2:0|2:0,2:0:0:0:
413,205,15075,1,2,1:2:0:0:
413,205,15275,2,0,P|420:177|429:147,1,60,10|0,2:0|2:0,2:0:0:0:
452,85,15675,1,2,2:0:0:0:
345,6,16075,2,0,P|301:7|258:69,1,120,2|2,1:2|2:0,2:0:0:0:
302,189,16875,2,0,P|289:248|280:307,1,120,8|2,2:0|2:0,2:0:0:0:
165,373,17675,6,0,P|125:353|108:313,1,90,2|2,1:2|2:0,2:0:0:0:
125,215,18275,1,2,1:2:0:0:
125,215,18475,2,0,L|101:88,1,120,10|2,2:0|1:2,2:0:0:0:
198,5,19275,1,2,2:0:0:0:
261,23,19475,1,2,2:0:0:0:
268,88,19675,2,0,P|304:133|362:137,1,120,2|2,2:0|2:0,2:0:0:0:
443,32,20475,1,0,1:0:0:0:
509,145,20875,6,0,P|499:190|492:233,1,90,6|2,2:0|2:0,2:0:0:0:
470,330,21475,1,2,1:2:0:0:
470,330,21675,2,0,L|411:319,1,60,10|0,2:0|2:0,2:0:0:0:
355,354,22075,2,0,L|237:376,1,120,2|2,2:0|1:2,2:0:0:0:
183,336,22675,1,2,2:0:0:0:
183,336,22875,2,0,P|169:280|203:234,1,120,2|8,2:0|2:0,2:0:0:0:
334,213,23675,1,2,2:0:0:0:
294,87,24075,6,0,P|251:79|196:63,1,90,2|2,1:2|2:0,2:0:0:0:
112,35,24675,1,2,1:2:0:0:
112,35,24875,2,0,L|101:94,1,60,10|0,2:0|2:0,2:0:0:0:
50,137,25275,2,0,L|61:196,1,60,2|0,2:0|1:0,2:0:0:0:
40,259,25675,2,0,P|50:312|109:347,1,120,2|0,1:2|1:0,0:0:0:0:
157,308,26275,1,2,2:0:0:0:
157,308,26475,2,0,P|225:284|359:369,1,240,8|0,2:0|3:0,2:0:0:0:
479,209,27875,5,2,2:0:0:0:
479,209,28075,2,0,P|472:181|463:151,1,60,14|0,2:0|2:0,2:0:0:0:
488,90,28475,1,2,2:0:0:0:
362,131,28875,2,0,P|318:130|275:68,1,120,2|2,1:2|2:0,2:0:0:0:
157,13,29675,2,0,P|113:14|70:76,1,120,8|0,2:0|1:0,2:0:0:0:
116,194,30475,6,0,P|109:235|97:301,1,90,2|2,1:2|2:0,2:0:0:0:
82,380,31075,1,2,1:2:0:0:
82,380,31275,2,0,L|209:356,1,120,10|2,2:0|2:0,2:0:0:0:
329,381,32075,1,2,2:0:0:0:
371,331,32275,1,2,2:0:0:0:
341,273,32475,2,0,P|329:212|303:147,1,120,2|2,2:0|2:0,2:0:0:0:
391,55,33275,1,0,1:0:0:0:
270,1,33675,6,0,P|225:11|182:18,1,90,6|2,2:0|2:0,2:0:0:0:
174,117,34275,1,2,1:2:0:0:
174,117,34475,2,0,L|163:176,1,60,10|0,2:0|2:0,2:0:0:0:
201,229,34875,2,0,L|179:347,1,120,2|2,2:0|1:2,2:0:0:0:
118,373,35475,1,2,2:0:0:0:
118,373,35675,2,0,P|60:365|21:321,1,120,2|8,2:0|2:0,2:0:0:0:
6,189,36475,1,2,2:0:0:0:
92,89,36875,6,0,P|100:46|116:-9,1,90,2|2,2:0|2:0,2:0:0:0:
196,53,37475,1,2,2:0:0:0:
196,53,37675,2,0,L|255:42,1,60,10|0,2:0|2:0,2:0:0:0:
292,96,38075,2,0,L|351:107,1,60,2|0,2:0|2:0,2:0:0:0:
408,73,38475,2,0,P|457:103|466:163,1,120,2|2,1:2|2:0,2:0:0:0:
430,215,39075,1,2,1:2:0:0:
430,214,39275,2,0,P|410:260|392:334,1,120,10|2,2:0|1:2,2:0:0:0:
261,340,40075,6,0,L|143:362,1,120,6|8,2:0|2:0,2:0:0:0:
81,373,40675,1,2,1:2:0:0:
81,373,40875,2,0,P|38:332|40:274,1,120,10|8,2:0|2:0,2:0:0:0:
127,176,41675,6,0,P|136:115|149:58,1,120,10|10,2:0|2:0,2:0:0:0:
213,34,42275,1,2,1:2:0:0:
213,34,42475,2,2,P|242:33|268:53,1,60,10|2,2:0|2:0,2:0:0:0:
285,113,42875,1,10,2:0:0:0:
336,154,43075,1,2,1:2:0:0:
392,120,43275,6,0,P|402:62|423:5,2,120,6|10|2,1:2|2:0|1:2,2:0:0:0:
411,260,44475,1,10,2:0:0:0:
411,260,44675,1,0,1:0:0:0:
411,260,44875,2,0,P|368:298|308:282,1,120,2|10,1:2|2:0,2:0:0:0:
252,166,45675,2,0,L|262:106,1,60,2|0,1:2|1:0,2:0:0:0:
231,48,46075,1,10,2:0:0:0:
165,36,46275,1,0,1:0:0:0:
115,79,46475,6,0,B|43:67|78:33|11:23,2,120,2|10|2,1:2|2:0|1:2,2:0:0:0:
47,195,47675,1,10,2:0:0:0:
47,195,47875,1,2,1:2:0:0:
47,195,48075,2,0,L|68:316,1,120,2|10,1:2|2:0,2:0:0:0:
193,272,48875,2,0,L|253:282,1,60,2|0,1:2|1:0,2:0:0:0:
317,292,49275,1,10,2:0:0:0:
369,251,49475,1,2,1:2:0:0:
434,258,49675,6,0,B|495:295|450:313|508:348,2,120,6|10|2,1:2|2:0|1:2,2:0:0:0:
370,156,50875,1,10,2:0:0:0:
370,156,51075,1,2,1:2:0:0:
370,156,51275,2,0,P|402:112|388:53,1,120,2|10,1:2|2:0,2:0:0:0:
256,30,52075,2,0,L|170:14,1,60,2|0,1:2|1:2,2:0:0:0:
131,8,52475,1,10,2:0:0:0:
83,54,52675,1,0,1:0:0:0:
93,119,52875,6,0,P|62:168|5:177,2,120,2|10|2,1:2|2:0|1:2,2:0:0:0:
231,153,54075,1,10,2:0:0:0:
231,153,54275,1,0,1:0:0:0:
231,153,54475,2,0,P|312:231|281:345,1,240,6|2,2:0|1:2,2:0:0:0:
488,124,56075,5,6,1:2:0:0:
393,32,56475,2,0,L|264:57,1,120,2|8,1:2|2:0,2:0:0:0:
209,60,57075,2,0,L|220:0,2,60,2|2|2,2:0|1:2|1:2,2:0:0:0:
196,124,57675,5,2,1:2:0:0:
94,209,58075,2,0,P|84:266|116:315,1,120,2|8,1:2|2:0,2:0:0:0:
176,341,58675,1,2,2:0:0:0:
176,341,58875,2,0,L|236:330,1,60,2|2,2:0|2:0,2:0:0:0:
300,321,59275,5,2,1:2:0:0:
421,372,59675,2,0,P|463:331|464:273,1,120,2|8,1:2|2:0,2:0:0:0:
427,218,60275,2,0,L|438:158,2,60,2|2|2,2:0|2:0|2:0,2:0:0:0:
372,256,60875,5,2,1:2:0:0:
321,134,61275,2,0,P|296:122|264:124,1,60,2|0,1:2|2:0,2:0:0:0:
198,116,61675,2,2,P|177:138|171:167,1,60,10|2,2:0|2:0,2:0:0:0:
191,229,62075,1,2,1:2:0:0:
191,229,62275,1,2,1:2:0:0:
151,282,62475,6,0,P|92:280|51:238,1,120,6|2,2:0|1:2,2:0:0:0:
75,109,63275,1,8,2:0:0:0:
75,109,63475,2,0,L|53:28,2,60,2|2|2,2:0|1:2|2:0,2:0:0:0:
137,131,64075,5,2,1:2:0:0:
242,51,64475,2,0,L|360:72,1,120,2|8,1:2|2:0,2:0:0:0:
425,77,65075,1,2,2:0:0:0:
425,77,65275,2,0,L|436:137,1,60,2|2,2:0|2:0,2:0:0:0:
450,200,65675,5,2,1:2:0:0:
373,308,66075,2,0,P|342:307|312:297,1,60,2|2,1:2|2:0,2:0:0:0:
279,243,66475,2,8,P|239:249|192:266,1,90
100,292,67075,1,8,2:0:0:0:
100,292,67275,6,0,P|102:232|122:174,1,120,6|2,1:2|2:0,2:0:0:0:
230,101,68075,2,0,P|290:103|348:122,1,120,2|2,1:2|2:0,2:0:0:0:
478,128,68875,2,0,P|479:155|468:184,1,60,2|2,1:2|2:0,2:0:0:0:
469,251,69275,2,0,P|446:265|415:270,1,60,2|2,1:2|2:0,2:0:0:0:
368,318,69675,2,0,P|344:305|324:281,1,60,2|2,1:2|1:2,2:0:0:0:
281,228,70075,1,2,1:2:0:0:
218,247,70275,5,2,1:2:0:0:
