osu file format v14

[General]
AudioFilename: audio.mp3
AudioLeadIn: 0
PreviewTime: 50
Countdown: 0
SampleSet: Soft
StackLeniency: 0.3
Mode: 0
LetterboxInBreaks: 0
WidescreenStoryboard: 0

[Editor]
Bookmarks: 14500,27900,43300,56100
DistanceSpacing: 0.3
BeatDivisor: 4
GridSize: 8
TimelineZoom: 2.2

[Metadata]
Title:Tussle Among Trees
TitleUnicode:Tussle Among Trees
Artist:bo en
ArtistUnicode:bo en
Creator:Ilay
Version:Hustle
Source:OMORI
Tags:Aubrey Sunny Hero Mari Something Kel Basil Wanpachi Hooni xiqingwa tin frog video game vgm music vast forest battle theme instrumental videogame ost orignal soundtrack sound track omocat
BeatmapID:3496770
BeatmapSetID:1711315

[Difficulty]
HPDrainRate:5
CircleSize:4
OverallDifficulty:8.5
ApproachRate:9
SliderMultiplier:2.6
SliderTickRate:1

[Events]
//Background and Video events
0,0,"BG.jpg",0,0
//Break Periods
//Storyboard Layer 0 (Background)
//Storyboard Layer 1 (Fail)
//Storyboard Layer 2 (Pass)
//Storyboard Layer 3 (Foreground)
//Storyboard Layer 4 (Overlay)
//Storyboard Sound Samples

[TimingPoints]
75,400,4,2,1,65,1,0
75,-71.4285714285714,4,2,1,65,0,0
11675,-71.4285714285714,4,2,1,60,0,0
11875,-83.3333333333333,4,2,1,60,0,0
12075,-83.3333333333333,4,2,1,55,0,0
12275,-100,4,2,1,55,0,0
12475,-100,4,2,1,50,0,0
12675,-125,4,2,1,50,0,0
12875,-125,4,2,1,40,0,0
14075,-125,4,2,1,50,0,0
14475,-166.666666666667,4,2,1,65,0,0
15075,-166.666666666667,4,2,1,60,0,0
15275,-100,4,2,1,60,0,0
20875,-166.666666666667,4,2,1,60,0,0
21675,-100,4,2,1,60,0,0
33675,-166.666666666667,4,2,1,60,0,0
34475,-100,4,2,1,60,0,0
40075,-83.3333333333333,4,2,1,60,0,0
43275,-83.3333333333333,4,2,1,70,0,1
43675,-125,4,2,1,70,0,1
54475,-166.666666666667,4,2,1,60,0,0
55075,-166.666666666667,4,2,1,50,0,0
56075,-100,4,2,1,60,0,0
67275,-83.3333333333333,4,2,1,60,0,0
67675,-125,4,2,1,60,0,0
68075,-83.3333333333333,4,2,1,60,0,0
68475,-125,4,2,1,60,0,0
68875,-83.3333333333333,4,2,1,70,0,0
69075,-125,4,2,1,70,0,0
69275,-83.3333333333333,4,2,1,70,0,0
69475,-125,4,2,1,70,0,0
69675,-83.3333333333333,4,2,1,70,0,0
70275,-125,4,2,1,70,0,0

[Colours]
Combo1 : 96,230,125
Combo2 : 111,40,227
Combo3 : 58,233,216
Combo4 : 228,237,129

[HitObjects]
262,135,75,6,0,P|309:61|396:61,1,182,6|0,2:0|2:0,2:0:0:0:
446,3,375,1,2,2:0:0:0:
455,9,475,2,0,P|479:51|471:90,1,91,8|0,2:0|2:0,2:0:0:0:
380,232,675,6,0,P|371:187|356:144,1,91,2|0,2:0|2:0,2:0:0:0:
455,167,875,1,0,1:0:0:0:
388,336,1075,1,2,2:0:0:0:
352,316,1175,1,2,2:0:0:0:
311,310,1275,2,0,P|268:318|223:333,1,91,10|0,2:0|2:0,2:0:0:0:
144,381,1475,2,0,P|111:348|104:304,1,91,2|0,2:0|2:0,2:0:0:0:
196,157,1675,6,0,B|99:142|126:228|36:219,1,182,2|0,1:2|2:0,2:0:0:0:
49,141,1975,2,0,P|39:96|22:55,2,91,2|8|0,2:0|2:0|2:0,2:0:0:0:
179,242,2275,2,0,P|261:215|278:130,1,182,2|0,2:0|1:0,2:0:0:0:
266,118,2575,2,0,P|236:84|192:79,1,91,2|0,2:0|2:0,2:0:0:0:
436,17,2775,5,2,2:0:0:0:
431,23,2875,2,0,P|418:66|409:110,1,91,10|0,2:0|2:0,2:0:0:0:
337,52,3075,1,0,2:0:0:0:
511,194,3275,6,0,P|423:190|367:257,1,182,6|0,1:2|2:0,2:0:0:0:
502,274,3575,1,2,2:0:0:0:
502,274,3675,2,0,P|473:307|429:305,1,91,8|0,2:0|2:0,2:0:0:0:
258,297,3875,6,0,P|272:339|281:384,1,91,2|0,2:0|2:0,2:0:0:0:
356,333,4075,1,0,1:0:0:0:
223,187,4275,1,2,2:0:0:0:
191,212,4375,1,2,2:0:0:0:
159,237,4475,2,0,P|115:222|71:214,1,91,8|0,2:0|2:0,2:0:0:0:
160,120,4675,2,0,P|134:82|114:41,1,91,2|0,2:0|2:0,2:0:0:0:
350,28,4875,6,0,P|311:110|306:199,1,182,2|0,1:2|2:0,2:0:0:0:
385,185,5175,2,0,P|403:142|406:98,2,91,2|8|0,2:0|2:0|2:0,2:0:0:0:
427,276,5475,2,0,B|366:258|341:315|362:305|337:363|277:345,1,182,2|0,2:0|1:0,2:0:0:0:
255,349,5775,2,0,P|227:314|238:272,1,91,0|0,2:0|2:0,2:0:0:0:
133,266,5975,5,0,2:0:0:0:
125,270,6075,2,0,P|81:252|34:239,1,91,10|0,2:0|2:0,2:0:0:0:
55,338,6275,1,0,2:0:0:0:
135,94,6475,6,0,B|196:76|221:133|200:123|225:181|285:163,1,182,6|0,1:2|2:0,2:0:0:0:
310,241,6775,1,2,2:0:0:0:
310,241,6875,2,0,P|354:221|367:176,1,91,8|0,2:0|2:0,2:0:0:0:
358,0,7075,6,0,P|347:44|334:88,1,91,2|0,2:0|2:0,2:0:0:0:
263,19,7275,1,0,1:0:0:0:
419,119,7475,1,2,2:0:0:0:
426,123,7575,1,2,2:0:0:0:
433,127,7675,6,0,P|477:132|511:104,1,91,10|0,2:0|2:0,2:0:0:0:
453,39,7875,1,2,2:0:0:0:
489,214,8075,6,0,P|496:258|512:301,1,91,2|0,1:2|2:0,2:0:0:0:
378,384,8275,2,0,P|385:339|401:296,1,91,2|0,2:0|2:0,2:0:0:0:
361,190,8475,2,0,P|331:224|297:254,1,91,10|0,2:0|2:0,2:0:0:0:
193,356,8675,6,0,P|112:327|101:236,1,182,2|0,2:0|1:0,2:0:0:0:
245,105,9075,1,2,2:0:0:0:
177,274,9275,1,10,2:0:0:0:
41,154,9475,1,2,2:0:0:0:
256,26,9675,6,0,P|298:38|323:76,1,91,6|0,1:2|2:0,2:0:0:0:
404,42,9875,2,0,P|414:81|394:125,1,91,2|0,2:0|2:0,2:0:0:0:
348,190,10075,1,2,2:0:0:0:
509,133,10275,1,2,2:0:0:0:
345,278,10475,6,0,B|245:268|294:196|200:184,1,182,2|0,1:2|2:0,2:0:0:0:
95,335,10775,1,0,2:0:0:0:
99,345,10875,2,0,P|179:378|250:329,1,182,2|0,2:0|2:0,2:0:0:0:
169,278,11175,5,0,2:0:0:0:
162,270,11275,2,0,P|120:253|76:244,1,91,6|2,2:0|2:0,2:0:0:0:
0,134,11475,2,2,P|44:124|86:107,1,91,2|2,2:0|2:0,2:0:0:0:
163,36,11675,5,10,2:0:0:0:
163,36,11775,1,0,2:0:0:0:
163,36,11875,2,0,P|174:68|185:109,1,78,0|0,2:0|2:0,2:0:0:0:
285,39,12075,5,10,2:0:0:0:
285,39,12175,1,0,2:0:0:0:
285,39,12275,2,0,P|279:67|270:101,1,65,0|0,2:0|2:0,2:0:0:0:
384,98,12475,5,10,2:0:0:0:
384,98,12575,1,0,2:0:0:0:
384,98,12675,2,0,P|368:115|349:135,1,52,0|0,2:0|2:0,2:0:0:0:
256,192,12875,5,10,2:0:0:0:
256,192,13275,1,0,2:0:0:0:
256,192,13675,1,0,2:0:0:0:
256,192,14075,5,0,1:0:0:0:
249,226,14175,1,0,1:0:0:0:
268,264,14275,1,0,1:0:0:0:
240,304,14375,1,0,1:0:0:0:
256,367,14475,6,0,P|304:336|362:330,1,117,6|2,2:0|2:0,2:0:0:0:
362,330,15075,5,2,1:2:0:0:
401,369,15175,1,2,2:0:0:0:
455,365,15275,2,0,P|482:349|494:320,2,65,10|0|0,2:0|2:0|2:0,2:0:0:0:
417,255,15675,6,0,P|424:224|436:194,1,65,2|0,2:0|2:0,2:0:0:0:
488,124,15875,1,2,1:2:0:0:
512,79,15975,1,2,1:2:0:0:
477,40,16075,2,0,B|402:38|433:87|363:90,1,130,2|0,1:2|2:0,2:0:0:0:
235,50,16375,1,2,2:0:0:0:
237,41,16475,2,0,P|281:85|274:147,1,130,2|0,2:0|1:0,2:0:0:0:
225,212,16775,5,0,2:0:0:0:
225,212,16875,1,8,2:0:0:0:
142,156,17075,1,0,2:0:0:0:
307,267,17275,2,0,P|275:277|252:298,1,65,2|0,2:0|2:0,2:0:0:0:
220,370,17475,1,0,2:0:0:0:
394,294,17675,6,0,P|403:232|361:187,1,130,2|0,1:2|2:0,2:0:0:0:
453,166,17975,2,0,P|480:149|512:150,2,65,2|0|0,2:0|2:0|2:0,2:0:0:0:
397,61,18275,1,2,1:2:0:0:
378,68,18375,1,2,2:0:0:0:
361,76,18475,6,0,P|300:56|235:40,1,130,10|0,2:0|2:0,2:0:0:0:
202,117,18775,1,0,2:0:0:0:
189,109,18875,2,0,P|94:131|1:161,1,195,2|0,1:2|2:0,2:0:0:0:
120,342,19275,5,2,2:0:0:0:
108,312,19375,1,2,2:0:0:0:
108,264,19475,1,2,2:0:0:0:
140,218,19575,1,2,2:0:0:0:
197,194,19675,6,0,P|229:192|257:205,1,65,2|0,2:0|2:0,2:0:0:0:
315,153,19875,2,0,P|332:180|335:211,1,65,2|0,2:0|2:0,2:0:0:0:
270,341,20075,6,0,L|287:279,1,65,2|0,2:0|2:0,2:0:0:0:
184,309,20275,1,0,1:0:0:0:
182,315,20375,1,0,1:0:0:0:
180,321,20475,2,0,P|146:327|117:342,1,65,0|0,1:0|2:0,2:0:0:0:
377,298,20675,2,0,P|410:291|439:276,1,65,0|0,1:0|2:0,2:0:0:0:
197,194,20875,6,0,P|156:153|138:98,1,117,6|2,2:0|2:0,2:0:0:0:
449,12,21475,5,2,1:2:0:0:
399,0,21575,1,2,2:0:0:0:
359,23,21675,2,0,P|331:117|310:211,1,195,10|0,2:0|2:0,2:0:0:0:
368,266,22075,2,0,P|428:256|441:196,1,130,2|0,2:0|2:0,2:0:0:0:
287,331,22375,5,0,2:0:0:0:
285,323,22475,2,0,P|254:267|194:246,1,130,2|2,1:2|2:0,2:0:0:0:
159,151,22775,1,2,2:0:0:0:
83,164,22875,2,0,P|41:211|56:272,1,130,2|0,2:0|1:0,2:0:0:0:
139,313,23175,5,0,2:0:0:0:
139,313,23275,1,8,2:0:0:0:
242,167,23475,1,0,2:0:0:0:
102,31,23675,2,0,P|98:64|108:93,1,65,2|0,2:0|2:0,2:0:0:0:
159,151,23875,1,0,2:0:0:0:
301,50,24075,6,0,P|363:40|408:83,1,130,2|0,1:2|2:0,2:0:0:0:
382,158,24375,2,0,P|352:170|335:197,2,65,2|0|0,2:0|2:0|2:0,2:0:0:0:
483,33,24675,1,2,1:2:0:0:
495,51,24775,1,2,2:0:0:0:
508,69,24875,6,0,P|487:130|472:193,1,130,10|0,2:0|2:0,2:0:0:0:
512,359,25175,1,0,2:0:0:0:
509,344,25275,2,0,P|480:288|419:269,1,130,2|0,2:0|1:0,2:0:0:0:
370,372,25575,5,0,2:0:0:0:
370,372,25675,2,0,P|399:357|430:348,1,65,2|0,1:2|0:0,0:0:0:0:
336,227,25875,2,0,P|323:288|267:315,1,130,2|0,2:0|1:0,2:0:0:0:
173,287,26175,5,2,2:0:0:0:
128,254,26275,1,2,2:0:0:0:
115,214,26375,1,2,2:0:0:0:
117,189,26475,6,0,P|123:162|134:127,1,65,8|0,2:0|2:0,2:0:0:0:
19,157,26675,1,0,1:0:0:0:
19,157,26775,1,0,1:0:0:0:
19,157,26875,2,0,P|16:192|35:214,1,65,0|0,1:0|2:0,2:0:0:0:
232,158,27075,2,0,P|234:123|216:101,1,65,0|0,1:0|2:0,2:0:0:0:
86,50,27275,5,0,3:0:0:0:
86,50,27675,1,0,3:0:0:0:
232,158,27875,5,2,2:0:0:0:
256,204,27975,1,2,2:0:0:0:
228,251,28075,2,0,P|134:276|42:309,1,195,14|0,2:0|2:0,2:0:0:0:
129,361,28475,2,0,P|159:350|190:341,1,65,2|0,2:0|2:0,2:0:0:0:
375,360,28675,5,0,1:0:0:0:
325,374,28775,1,0,1:0:0:0:
295,332,28875,2,0,B|309:259|351:299|368:231,1,130,2|0,1:2|2:0,2:0:0:0:
452,247,29175,1,2,2:0:0:0:
452,247,29275,2,0,P|451:184|403:145,1,130,2|0,2:0|1:0,2:0:0:0:
318,161,29575,5,0,2:0:0:0:
318,161,29675,1,8,2:0:0:0:
406,52,29875,1,0,2:0:0:0:
241,101,30075,5,0,1:0:0:0:
206,62,30175,1,0,1:0:0:0:
154,51,30275,1,0,1:0:0:0:
105,72,30375,1,0,1:0:0:0:
77,117,30475,6,0,P|101:176|116:240,1,130,2|0,1:2|2:0,2:0:0:0:
91,321,30775,2,0,P|61:308|44:281,2,65,2|2|0,2:0|2:0|2:0,2:0:0:0:
214,256,31075,1,2,1:2:0:0:
232,261,31175,1,2,2:0:0:0:
250,265,31275,6,0,P|313:279|373:304,1,130,10|0,2:0|2:0,2:0:0:0:
418,367,31575,1,0,2:0:0:0:
428,373,31675,2,0,P|501:314|500:219,1,195,2|0,2:0|2:0,2:0:0:0:
395,75,32075,5,2,2:0:0:0:
359,60,32175,1,2,2:0:0:0:
310,71,32275,1,2,2:0:0:0:
281,118,32375,1,2,2:0:0:0:
293,178,32475,6,0,P|314:202|343:212,1,65,2|0,2:0|2:0,2:0:0:0:
373,304,32675,2,0,P|403:293|423:268,1,65,2|0,2:0|2:0,2:0:0:0:
271,278,32875,6,0,P|239:283|208:296,1,65,2|0,2:0|2:0,2:0:0:0:
152,225,33075,1,0,1:0:0:0:
152,225,33175,1,0,1:0:0:0:
152,225,33275,2,0,P|173:202|205:202,1,65,0|0,1:0|2:0,2:0:0:0:
262,361,33475,2,0,P|240:383|208:383,1,65,0|0,1:0|2:0,2:0:0:0:
31,300,33675,6,0,P|88:305|132:350,1,117,6|2,2:0|2:0,2:0:0:0:
29,106,34275,5,2,1:2:0:0:
16,50,34375,1,2,2:0:0:0:
58,12,34475,2,0,B|172:36|97:98|206:127,1,195,10|0,2:0|2:0,2:0:0:0:
327,17,34875,2,0,P|267:-1|221:41,1,130,2|0,2:0|2:0,2:0:0:0:
324,218,35175,5,0,2:0:0:0:
324,218,35275,2,0,P|311:154|292:92,1,130,2|2,1:2|2:0,2:0:0:0:
471,26,35575,1,2,2:0:0:0:
471,26,35675,2,0,P|452:88|439:151,1,130,2|0,2:0|1:0,2:0:0:0:
418,259,35975,5,0,2:0:0:0:
418,259,36075,1,8,2:0:0:0:
512,300,36275,1,0,2:0:0:0:
324,218,36475,2,0,P|303:243|300:277,1,65,2|0,2:0|2:0,2:0:0:0:
353,336,36675,1,2,2:0:0:0:
219,289,36875,6,0,P|155:304|94:324,1,130,2|0,2:0|2:0,2:0:0:0:
15,322,37175,2,0,P|16:353|36:379,2,65,2|0|0,2:0|1:0|2:0,2:0:0:0:
65,224,37475,1,2,2:0:0:0:
63,211,37575,1,2,2:0:0:0:
59,198,37675,6,0,P|44:134|23:73,1,130,10|0,2:0|2:0,2:0:0:0:
102,16,37975,1,0,2:0:0:0:
149,78,38075,2,0,B|262:102|219:15|330:33,1,195,2|0,2:0|2:0,2:0:0:0:
426,165,38475,6,0,P|370:138|305:117,1,130,2|0,1:2|2:0,2:0:0:0:
238,156,38775,1,0,2:0:0:0:
238,156,38875,2,0,P|253:184|282:195,1,65,2|0,2:0|2:0,2:0:0:0:
389,315,39075,1,2,1:2:0:0:
386,305,39175,1,2,2:0:0:0:
384,296,39275,2,0,P|375:268|366:232,1,65,10|0,2:0|1:0,2:0:0:0:
426,165,39475,5,0,1:0:0:0:
426,165,39575,1,0,1:0:0:0:
426,165,39675,2,0,P|457:157|484:172,1,65,2|0,1:2|2:0,2:0:0:0:
324,364,39875,2,0,P|293:372|266:357,1,65,0|0,1:0|2:0,2:0:0:0:
222,231,40075,6,0,P|186:215|147:210,1,78,6|0,2:0|2:0,2:0:0:0:
200,304,40275,1,2,2:0:0:0:
201,311,40375,2,0,P|162:305|126:290,1,78,2|8,1:2|2:0,2:0:0:0:
70,149,40575,5,2,2:0:0:0:
67,94,40675,1,2,1:2:0:0:
101,68,40775,1,2,2:0:0:0:
126,67,40875,2,0,B|172:81|149:98|187:111,1,78,10|2,2:0|2:0,2:0:0:0:
336,67,41075,1,2,2:0:0:0:
336,67,41175,1,2,2:0:0:0:
249,50,41275,6,0,P|262:86|270:124,1,78,8|2,2:0|2:0,2:0:0:0:
401,9,41475,2,0,P|409:46|422:83,1,78,2|2,1:2|2:0,2:0:0:0:
359,162,41675,6,0,P|384:189|422:190,1,78,10|2,2:0|2:0,2:0:0:0:
466,272,41875,1,2,2:0:0:0:
466,272,41975,2,2,P|500:256|512:220,1,78,2|10,1:2|2:0,2:0:0:0:
384,345,42175,5,2,2:0:0:0:
374,314,42275,1,2,1:2:0:0:
339,283,42375,1,2,2:0:0:0:
286,277,42475,2,2,B|238:286|260:305|221:315,1,78,10|2,2:0|1:2,2:0:0:0:
123,250,42675,1,2,2:0:0:0:
123,250,42775,1,2,2:0:0:0:
178,199,42875,5,10,2:0:0:0:
171,124,42975,1,2,1:2:0:0:
107,83,43075,1,2,1:2:0:0:
34,106,43175,1,2,1:2:0:0:
6,176,43275,5,6,1:2:0:0:
86,358,43475,1,0,1:0:0:0:
123,250,43675,2,0,L|105:199,1,52,10|0,2:0|2:0,2:0:0:0:
46,267,43875,1,0,1:0:0:0:
197,326,44075,5,2,1:2:0:0:
298,239,44275,1,0,1:0:0:0:
420,346,44475,2,0,L|435:289,1,52,10|0,2:0|2:0,2:0:0:0:
490,237,44675,1,0,1:0:0:0:
490,237,44775,1,2,2:0:0:0:
490,237,44875,5,2,1:2:0:0:
399,37,45075,1,0,1:0:0:0:
503,99,45275,2,0,L|487:155,1,52,10|0,2:0|2:0,2:0:0:0:
414,195,45475,1,0,1:0:0:0:
285,107,45675,5,2,1:2:0:0:
167,188,45875,1,0,1:0:0:0:
98,77,46075,2,0,L|113:20,1,52,10|0,2:0|2:0,2:0:0:0:
186,81,46275,1,0,1:0:0:0:
143,271,46475,5,2,1:2:0:0:
13,167,46675,1,2,1:2:0:0:
24,158,46775,1,2,2:0:0:0:
41,153,46875,2,0,L|108:171,1,52,10|0,2:0|2:0,2:0:0:0:
167,188,47075,1,0,1:0:0:0:
9,263,47275,5,2,1:2:0:0:
89,383,47475,1,0,1:0:0:0:
228,290,47675,2,0,L|284:305,1,52,10|0,2:0|2:0,2:0:0:0:
362,326,47875,1,2,1:2:0:0:
362,326,47975,1,0,2:0:0:0:
362,326,48075,5,2,1:2:0:0:
323,169,48275,1,0,1:0:0:0:
450,252,48475,2,0,L|463:201,1,52,10|0,2:0|2:0,2:0:0:0:
483,130,48675,1,0,1:0:0:0:
343,249,48875,5,2,1:2:0:0:
227,134,49075,1,0,1:0:0:0:
85,235,49275,2,0,L|28:219,1,52,10|0,2:0|2:0,2:0:0:0:
106,100,49475,1,2,1:2:0:0:
87,120,49575,1,2,2:0:0:0:
83,146,49675,5,6,1:2:0:0:
192,279,49875,1,0,1:0:0:0:
102,381,50075,2,0,L|45:365,1,52,10|0,2:0|2:0,2:0:0:0:
5,302,50275,1,0,1:0:0:0:
195,372,50475,5,2,1:2:0:0:
268,217,50675,1,0,1:0:0:0:
407,279,50875,2,0,L|422:335,1,52,10|0,2:0|2:0,2:0:0:0:
351,379,51075,5,2,1:2:0:0:
348,372,51141,5,2,2:0:0:0:
346,364,51208,5,2,2:0:0:0:
343,357,51275,5,2,1:2:0:0:
485,226,51475,1,0,1:0:0:0:
352,170,51675,2,0,L|336:113,1,52,10|0,2:0|2:0,2:0:0:0:
382,53,51875,1,0,1:0:0:0:
237,138,52075,5,2,1:2:0:0:
142,14,52275,1,0,1:2:0:0:
56,96,52475,2,0,L|0:111,1,52,10|0,2:0|2:0,2:0:0:0:
11,23,52675,1,0,1:0:0:0:
164,187,52875,5,2,1:2:0:0:
0,280,53075,1,0,1:2:0:0:
100,372,53275,2,0,L|115:315,1,52,10|0,2:0|2:0,2:0:0:0:
88,247,53475,1,0,1:2:0:0:
201,347,53675,5,2,1:2:0:0:
263,173,53875,1,0,1:0:0:0:
378,287,54075,2,0,P|403:286|425:272,1,52,10|0,2:0|2:0,2:0:0:0:
400,130,54275,1,0,1:0:0:0:
371,162,54375,1,2,2:0:0:0:
376,210,54475,6,0,P|382:118|321:80,1,156,6|8,2:0|2:0,2:0:0:0:
79,143,55075,5,2,2:0:0:0:
79,143,55141,5,2,2:0:0:0:
79,143,55208,5,2,2:0:0:0:
79,143,55275,6,0,B|58:76|101:38|152:35|194:63|212:117|157:168,1,272.999999999999,2|0,1:2|2:0,2:0:0:0:
18,231,56075,6,0,P|112:233|178:302,1,195,6|0,1:2|2:0,2:0:0:0:
178,381,56475,1,2,1:2:0:0:
171,378,56675,1,2,2:0:0:0:
253,277,56875,6,0,P|284:264|315:258,1,65,8|0,2:0|2:0,2:0:0:0:
381,336,57075,2,0,P|412:342|442:354,1,65,2|0,2:0|2:0,2:0:0:0:
512,270,57275,1,2,1:2:0:0:
508,261,57475,1,2,1:2:0:0:
374,190,57675,6,0,P|354:163|348:132,1,65,2|0,1:2|2:0,2:0:0:0:
358,57,57875,1,2,2:0:0:0:
365,45,57975,1,2,2:0:0:0:
381,39,58075,5,2,1:2:0:0:
467,122,58275,1,2,2:0:0:0:
279,41,58475,6,0,P|250:22|221:11,1,65,8|0,2:0|2:0,2:0:0:0:
261,125,58675,2,0,P|229:125|197:132,1,65,2|0,2:0|2:0,2:0:0:0:
146,59,58875,1,2,2:0:0:0:
138,55,59075,1,2,2:0:0:0:
24,159,59275,5,2,1:2:0:0:
28,154,59375,1,2,2:0:0:0:
34,152,59475,1,2,2:0:0:0:
40,150,59575,1,2,2:0:0:0:
46,148,59675,2,0,P|77:154|101:176,1,65,2|0,1:2|2:0,2:0:0:0:
134,246,59875,1,2,2:0:0:0:
0,304,60075,6,0,P|30:286|58:274,1,65,8|0,2:0|2:0,2:0:0:0:
118,360,60275,2,0,P|148:366|180:379,1,65,2|0,2:0|2:0,2:0:0:0:
231,308,60475,1,2,2:0:0:0:
264,347,60575,1,2,2:0:0:0:
307,348,60675,1,2,2:0:0:0:
329,333,60775,1,2,2:0:0:0:
338,319,60875,6,2,P|337:288|325:256,3,65,2|2|2|2,1:2|2:0|2:0|2:0,2:0:0:0:
392,201,61275,1,2,1:2:0:0:
400,183,61375,1,0,2:0:0:0:
424,173,61475,1,0,2:0:0:0:
467,179,61575,1,0,2:0:0:0:
493,232,61675,6,2,P|476:259|467:290,1,65,10|2,2:0|2:0,2:0:0:0:
322,173,61875,2,2,P|313:141|296:114,1,65,2|2,2:0|2:0,2:0:0:0:
462,98,62075,1,2,1:2:0:0:
479,79,62175,1,2,2:0:0:0:
477,44,62275,1,2,1:2:0:0:
436,15,62375,1,2,2:0:0:0:
360,37,62475,6,0,P|267:9|170:5,1,195,6|0,2:0|2:0,2:0:0:0:
106,48,62875,1,2,1:2:0:0:
103,55,63075,1,2,2:0:0:0:
172,140,63275,6,0,P|196:119|207:89,1,65,8|0,2:0|2:0,2:0:0:0:
56,142,63475,2,0,P|58:174|75:201,1,65,2|0,2:0|2:0,2:0:0:0:
160,235,63675,1,2,1:2:0:0:
156,226,63875,1,2,2:0:0:0:
39,284,64075,6,0,B|108:298|67:346|134:360,1,130,2|0,1:2|2:0,2:0:0:0:
208,336,64341,5,2,2:0:0:0:
208,336,64408,5,2,2:0:0:0:
208,336,64475,5,2,1:2:0:0:
305,384,64675,1,2,2:0:0:0:
278,265,64875,6,0,P|280:232|296:204,1,65,8|0,2:0|2:0,2:0:0:0:
395,301,65075,2,0,P|411:273|413:240,1,65,2|0,2:0|2:0,2:0:0:0:
373,166,65275,1,2,2:0:0:0:
377,151,65475,1,2,2:0:0:0:
276,44,65675,6,0,P|181:48|120:121,1,195,2|0,1:2|2:0,2:0:0:0:
38,128,66075,2,0,P|43:159|65:183,1,65,2|0,1:2|2:0,2:0:0:0:
147,200,66275,1,2,2:0:0:0:
0,318,66475,6,0,P|47:276|110:283,1,130,8|0,2:0|2:0,2:0:0:0:
147,352,66775,2,0,P|170:373|202:375,1,65,8|2,2:0|1:2,2:0:0:0:
259,314,66975,1,0,2:0:0:0:
270,321,67075,2,0,P|277:353|285:383,1,65,8|0,2:0|2:0,2:0:0:0:
426,353,67275,6,0,P|504:284|430:206,1,234,6|0,1:2|2:0,2:0:0:0:
434,200,67675,2,0,P|366:231|355:305,1,156,2|0,2:0|2:0,2:0:0:0:
298,183,68075,6,0,P|219:114|293:36,1,234,2|0,1:2|2:0,2:0:0:0:
290,30,68475,2,0,P|357:61|368:135,1,156,2|0,2:0|2:0,2:0:0:0:
298,183,68875,6,0,P|263:189|222:203,1,78,2|0,1:2|2:0,2:0:0:0:
303,257,69075,2,0,P|279:260|253:270,1,52,2|0,2:0|2:0,2:0:0:0:
162,347,69275,6,0,P|127:341|86:326,1,78,2|0,1:2|2:0,2:0:0:0:
167,273,69475,2,0,P|143:269|117:259,1,52,2|0,2:0|2:0,2:0:0:0:
21,231,69675,6,0,P|17:193|39:162,1,78,2|0,1:2|2:0,2:0:0:0:
118,133,69875,1,2,1:2:0:0:
123,124,69975,1,0,1:0:0:0:
91,57,70075,6,0,P|56:51|15:36,1,78,2|0,1:2|2:0,2:0:0:0:
173,189,70275,2,0,P|196:192|222:202,1,52,2|0,1:2|2:0,2:0:0:0:
