osu file format v14

[General]
AudioFilename: tussle_among_trees_extended.mp3
AudioLeadIn: 0
PreviewTime: 80
Countdown: 0
SampleSet: Soft
StackLeniency: 0.7
Mode: 0
LetterboxInBreaks: 0
WidescreenStoryboard: 1

[Editor]
Bookmarks: 14431,40031,56057,64457,70431
DistanceSpacing: 0.4
BeatDivisor: 8
GridSize: 32
TimelineZoom: 2

[Metadata]
Title:Tussle Among Trees
TitleUnicode:Tussle Among Trees
Artist:bo en
ArtistUnicode:bo en
Creator:Chai the Tea
Version:Sapling
Source:OMORI
Tags:Spork Lover Pennek waefwerf Electronic Instrumental vgm omocat video game videogame ost soundtrack original kel aubrey hero basil mari picnic chiptune 燈菓子
BeatmapID:3376724
BeatmapSetID:1654140

[Difficulty]
HPDrainRate:5.3
CircleSize:4
OverallDifficulty:8
ApproachRate:8.7
SliderMultiplier:1.69
SliderTickRate:1

[Events]
//Background and Video events
0,0,"thumb-1920-1146743.jpg",0,0
//Break Periods
//Storyboard Layer 0 (Background)
//Storyboard Layer 1 (Fail)
//Storyboard Layer 2 (Pass)
//Storyboard Layer 3 (Foreground)
//Storyboard Layer 4 (Overlay)
//Storyboard Sound Samples

[TimingPoints]
80,400,4,2,1,80,1,0
80,-62.5,4,2,1,80,0,0
7680,-100,4,2,1,80,0,0
8080,-66.6666666666667,4,2,1,80,0,0
8480,-100,4,2,1,80,0,0
9080,-125,4,2,1,80,0,0
11680,-200,4,2,1,55,0,0
14080,-200,4,2,2,80,0,0
14480,-200,4,2,2,80,0,0
14880,-66.6666666666667,4,2,2,80,0,0
16080,-66.6666666666667,4,2,2,80,0,0
16480,-58.8235294117647,4,2,2,80,0,0
16880,-66.6666666666667,4,2,2,80,0,0
17280,-90.9090909090909,4,2,2,80,0,0
17680,-66.6666666666667,4,2,2,80,0,0
22880,-58.8235294117647,4,2,2,80,0,0
23280,-66.6666666666667,4,2,2,80,0,0
23680,-90.9090909090909,4,2,2,80,0,0
24080,-66.6666666666667,4,2,2,80,0,0
25280,-90.9090909090909,4,2,2,80,0,0
25680,-66.6666666666667,4,2,2,80,0,0
28080,-55.5555555555556,4,2,2,80,0,0
28480,-66.6666666666667,4,2,2,80,0,0
29280,-58.8235294117647,4,2,2,80,0,0
29680,-66.6666666666667,4,2,2,80,0,0
30080,-90.9090909090909,4,2,2,80,0,0
30480,-66.6666666666667,4,2,2,80,0,0
36880,-66.6666666666667,4,2,2,80,0,0
38480,-66.6666666666667,4,2,2,80,0,0
40080,-66.6666666666667,4,2,1,70,0,0
42475,-100,4,2,1,70,0,0
43280,-66.6666666666667,4,2,1,80,0,0
43680,-66.6666666666666,4,2,1,80,0,0
43780,-111.111111111111,4,2,1,80,0,0
43880,-111.111111111111,4,2,1,80,0,0
43980,-111.111111111111,4,2,1,80,0,0
44080,-100,4,2,1,80,0,0
44480,-111.111111111111,4,2,1,80,0,0
44880,-66.6666666666667,4,2,1,80,0,0
45280,-111.111111111111,4,2,1,80,0,0
45380,-111.111111111111,4,2,1,80,0,0
45480,-111.111111111111,4,2,1,80,0,0
45580,-111.111111111111,4,2,1,80,0,0
45680,-100,4,2,1,80,0,0
46080,-111.111111111111,4,2,1,80,0,0
46180,-111.111111111111,4,2,1,80,0,0
46280,-111.111111111111,4,2,1,80,0,0
46380,-111.111111111111,4,2,1,80,0,0
46480,-66.6666666666667,4,2,1,80,0,0
46880,-111.111111111111,4,2,1,80,0,0
46980,-111.111111111111,4,2,1,80,0,0
47080,-111.111111111111,4,2,1,80,0,0
47180,-111.111111111111,4,2,1,80,0,0
47280,-100,4,2,1,80,0,0
47680,-111.111111111111,4,2,1,80,0,0
47780,-111.111111111111,4,2,1,80,0,0
47880,-111.111111111111,4,2,1,80,0,0
48080,-66.6666666666667,4,2,1,80,0,0
48480,-111.111111111111,4,2,1,80,0,0
48580,-111.111111111111,4,2,1,80,0,0
48680,-111.111111111111,4,2,1,80,0,0
48780,-111.111111111111,4,2,1,80,0,0
48880,-90.9090909090909,4,2,1,80,0,0
49280,-111.111111111111,4,2,1,80,0,0
49380,-111.111111111111,4,2,1,80,0,0
49480,-111.111111111111,4,2,1,80,0,0
49680,-66.6666666666667,4,2,1,80,0,0
50080,-111.111111111111,4,2,1,80,0,0
50180,-111.111111111111,4,2,1,80,0,0
50280,-111.111111111111,4,2,1,80,0,0
50380,-111.111111111111,4,2,1,80,0,0
50480,-100,4,2,1,80,0,0
50880,-111.111111111111,4,2,1,80,0,0
50980,-111.111111111111,4,2,1,80,0,0
51080,-111.111111111111,4,2,1,80,0,0
51280,-66.6666666666667,4,2,1,80,0,0
51680,-71.4285714285714,4,2,1,80,0,0
51980,-111.111111111111,4,2,1,80,0,0
52080,-100,4,2,1,80,0,0
52480,-111.111111111111,4,2,1,80,0,0
52580,-111.111111111111,4,2,1,80,0,0
52680,-111.111111111111,4,2,1,80,0,0
52780,-111.111111111111,4,2,1,80,0,0
52880,-66.6666666666667,4,2,1,80,0,0
53280,-111.111111111111,4,2,1,80,0,0
53380,-111.111111111111,4,2,1,80,0,0
53480,-111.111111111111,4,2,1,80,0,0
53580,-111.111111111111,4,2,1,80,0,0
53680,-90.9090909090909,4,2,1,80,0,0
54080,-111.111111111111,4,2,1,80,0,0
54180,-111.111111111111,4,2,1,80,0,0
54280,-111.111111111111,4,2,1,80,0,0
54480,-66.6666666666667,4,2,1,80,0,0
55880,-100,4,2,1,80,0,0
56080,-66.6666666666667,4,2,1,60,0,0
56480,-111.111111111111,4,2,1,60,0,0
56580,-111.111111111111,4,2,1,60,0,0
56680,-111.111111111111,4,2,1,60,0,0
56780,-111.111111111111,4,2,1,60,0,0
56880,-66.6666666666667,4,2,1,60,0,0
57280,-111.111111111111,4,2,1,60,0,0
57380,-111.111111111111,4,2,1,60,0,0
57480,-111.111111111111,4,2,1,60,0,0
57580,-111.111111111111,4,2,1,60,0,0
57680,-66.6666666666667,4,2,1,60,0,0
58080,-50,4,2,1,60,0,0
58180,-50,4,2,1,5,0,0
58280,-111.111111111111,4,2,1,60,0,0
58380,-111.111111111111,4,2,1,5,0,0
58480,-66.6666666666667,4,2,1,60,0,0
58880,-111.111111111111,4,2,1,60,0,0
58980,-111.111111111111,4,2,1,60,0,0
59080,-111.111111111111,4,2,1,60,0,0
59180,-111.111111111111,4,2,1,60,0,0
59280,-66.6666666666667,4,2,1,60,0,0
59680,-111.111111111111,4,2,1,60,0,0
59780,-111.111111111111,4,2,1,60,0,0
59880,-111.111111111111,4,2,1,60,0,0
59980,-111.111111111111,4,2,1,60,0,0
60080,-66.6666666666667,4,2,1,60,0,0
60880,-100,4,2,1,60,0,0
61280,-66.6666666666666,4,2,1,60,0,0
61580,-100,4,2,1,60,0,0
62080,-111.111111111111,4,2,1,60,0,0
62480,-66.6666666666667,4,2,1,60,0,0
62880,-111.111111111111,4,2,1,60,0,0
62980,-111.111111111111,4,2,1,60,0,0
63080,-111.111111111111,4,2,1,60,0,0
63180,-111.111111111111,4,2,1,60,0,0
63280,-66.6666666666667,4,2,1,60,0,0
63680,-111.111111111111,4,2,1,60,0,0
63780,-111.111111111111,4,2,1,60,0,0
63880,-111.111111111111,4,2,1,60,0,0
63980,-111.111111111111,4,2,1,60,0,0
64080,-66.6666666666667,4,2,1,60,0,0
64280,-100,4,2,1,60,0,0
64480,-111.111111111111,4,2,1,60,0,0
64880,-66.6666666666667,4,2,1,60,0,0
65280,-111.111111111111,4,2,1,60,0,0
65380,-111.111111111111,4,2,1,60,0,0
65480,-111.111111111111,4,2,1,60,0,0
65580,-111.111111111111,4,2,1,60,0,0
65680,-66.6666666666667,4,2,1,60,0,0
66080,-111.111111111111,4,2,1,60,0,0
66180,-111.111111111111,4,2,1,60,0,0
66280,-111.111111111111,4,2,1,60,0,0
66380,-111.111111111111,4,2,1,60,0,0
66480,-66.6666666666667,4,2,2,60,0,0
67280,-66.6666666666667,4,2,1,65,0,0
68080,-66.6666666666667,4,2,1,70,0,0
68480,-111.111111111111,4,2,1,70,0,0
68880,-66.6666666666667,4,2,1,77,0,0
69080,-125,4,2,1,77,0,0
69280,-66.6666666666667,4,2,1,77,0,0
69480,-125,4,2,1,77,0,0
69680,-50,4,2,1,85,0,0
70480,-50,4,2,1,80,0,0

[Colours]
Combo1 : 224,85,65
Combo2 : 255,159,255
Combo3 : 46,158,250
Combo4 : 128,13,255
Combo5 : 32,221,150

[HitObjects]
71,180,80,6,0,P|113:145|190:99,1,135.2,6|0,3:1|0:0,0:0:0:0:
1,136,380,1,2,0:1:0:0:
24,85,480,1,8,0:1:0:0:
169,200,680,1,2,0:1:0:0:
169,200,880,1,0,3:0:0:0:
58,14,1080,5,2,0:1:0:0:
105,6,1180,1,2,0:2:0:0:
144,35,1280,1,10,0:1:0:0:
289,17,1480,5,2,0:2:0:0:
277,7,1580,1,0,0:0:0:0:
264,0,1680,2,0,P|223:32|241:113,1,135.2,2|0,3:1|0:0,0:0:0:0:
386,88,1980,1,2,0:1:0:0:
373,49,2080,1,8,0:0:0:0:
363,179,2280,6,0,P|327:159|311:132,1,67.6,2|0,0:1|0:0,0:0:0:0:
463,15,2480,1,0,3:0:0:0:
463,15,2580,2,0,P|482:39|476:139,1,135.2
376,56,2880,1,8,0:2:0:0:
482,229,3080,5,0,0:0:0:0:
441,211,3180,1,2,0:3:0:0:
441,211,3280,2,0,P|393:238|322:294,1,135.2,2|0,3:1|0:0,0:0:0:0:
470,305,3580,1,2,0:1:0:0:
415,316,3680,1,8,0:0:0:0:
358,173,3880,1,2,0:1:0:0:
358,173,4080,1,0,3:0:0:0:
258,304,4280,5,2,0:1:0:0:
276,348,4380,1,2,0:2:0:0:
321,365,4480,1,10,0:1:0:0:
496,355,4680,5,2,0:2:0:0:
501,369,4780,1,0,0:0:0:0:
512,380,4880,2,0,P|463:370|417:292,1,135.2,2|0,3:1|0:0,0:0:0:0:
364,171,5180,1,2,0:1:0:0:
350,225,5280,1,8,0:0:0:0:
459,203,5480,2,0,P|483:213|469:249,1,67.6,2|0,0:1|0:0,0:0:0:0:
303,289,5680,5,0,3:0:0:0:
303,289,5780,2,0,P|251:312|234:392,1,135.2
333,376,6080,1,10,0:2:0:0:
333,376,6280,1,0,0:0:0:0:
180,274,6480,6,0,P|165:209|130:152,1,135.2,2|0,3:1|0:0,0:0:0:0:
86,259,6780,1,2,0:1:0:0:
36,232,6880,1,8,0:0:0:0:
189,101,7080,2,0,P|228:143|273:219,1,135.2,2|0,0:1|3:0,0:0:0:0:
211,368,7480,5,2,0:1:0:0:
131,378,7580,1,2,0:2:0:0:
185,332,7680,2,0,P|203:339|210:359,1,42.25,10|0,0:1|0:0,0:0:0:0:
310,342,7880,5,0,0:1:0:0:
299,334,7980,1,0,0:0:0:0:
284,328,8080,2,0,P|308:306|336:291,1,63.3750024175645,2|0,3:1|0:0,0:0:0:0:
362,220,8280,2,0,P|397:228|434:268,1,63.3750024175645,2|0,0:2|0:0,0:0:0:0:
504,178,8480,2,0,P|484:175|464:164,1,42.25,10|0,0:1|0:0,0:0:0:0:
412,107,8680,2,0,P|400:89|398:68,1,42.25,2|0,0:1|0:0,0:0:0:0:
454,6,8880,5,0,3:0:0:0:
190,42,9080,1,0,0:0:0:0:
398,68,9280,1,10,0:2:0:0:
207,137,9480,1,0,0:0:0:0:
182,166,9580,1,2,0:3:0:0:
169,210,9680,5,2,3:1:0:0:
126,292,9880,1,2,0:2:0:0:
74,292,9980,1,0,0:0:0:0:
51,252,10080,1,2,0:2:0:0:
64,230,10180,1,0,0:0:0:0:
66,206,10280,1,2,0:2:0:0:
50,184,10380,1,0,0:0:0:0:
0,170,10480,1,2,3:1:0:0:
81,18,10680,5,0,0:0:0:0:
42,58,10780,1,0,0:0:0:0:
46,100,10880,1,2,0:2:0:0:
59,109,10980,1,0,0:0:0:0:
77,109,11080,2,0,L|112:101,1,33.8,0|0,0:2|0:0,0:0:0:0:
248,147,11280,5,2,3:1:0:0:
224,100,11380,1,2,0:2:0:0:
254,57,11480,1,2,0:2:0:0:
307,72,11580,1,2,0:2:0:0:
316,122,11680,2,0,L|323:144,3,21.125,10|0|0|0,0:2|0:0|0:0|0:0,0:0:0:0:
197,217,12080,2,0,B|205:241,3,21.125,0|0|0|0,3:0|0:0|0:0|0:0,0:0:0:0:
360,333,12480,5,8,0:2:0:0:
366,346,12580,1,0,0:0:0:0:
356,356,12680,1,0,0:0:0:0:
341,359,12780,1,0,0:0:0:0:
331,347,12880,1,0,3:3:0:0:
331,347,14080,5,8,3:3:0:0:
382,319,14180,1,8,0:3:0:0:
411,261,14280,1,4,0:3:0:0:
426,202,14380,1,4,0:3:0:0:
477,165,14480,1,0,3:3:0:0:
477,165,14880,6,0,B|458:175|458:175|466:190|466:190|483:185|483:185|478:168,1,63.3750024175645
363,114,15080,5,2,0:2:0:0:
312,102,15180,1,2,0:2:0:0:
283,145,15280,1,10,0:2:0:0:
361,336,15680,1,2,0:2:0:0:
179,253,15880,5,8,0:3:0:0:
239,272,15980,1,4,0:3:0:0:
249,257,16080,2,0,B|258:229|292:190|351:222|356:246,1,126.750004835129,6|0,0:3|0:0,0:0:0:0:
433,367,16380,1,2,0:2:0:0:
486,363,16480,2,0,B|518:360|518:360|483:336,1,71.8250013699532,2|0,0:1|0:0,0:0:0:0:
499,253,16680,1,0,3:3:0:0:
327,372,16880,6,0,B|333:354|334:328|334:328|382:314|382:314|415:288,1,126.750004835129,8|0,0:2|0:0,0:0:0:0:
334,9,17280,2,0,B|362:2|362:2|350:20,1,46.4750014183045,2|0,0:3|0:0,0:0:0:0:
489,45,17480,5,0,0:0:0:0:
476,38,17580,1,0,0:0:0:0:
459,34,17680,2,0,B|420:47|399:83|393:104|404:135,1,126.750004835129,0|0,3:0|0:0,0:0:0:0:
479,156,17980,1,0,0:0:0:0:
489,159,18080,2,0,P|514:126|509:109,1,63.3750024175645
293,131,18280,5,2,3:2:0:0:
245,152,18380,1,2,0:2:0:0:
206,116,18480,2,0,B|188:73|188:73|233:-13|317:28,1,190.125007252693,10|0,0:2|0:0,0:0:0:0:
346,200,18880,1,2,3:2:0:0:
346,200,19080,1,0,0:0:0:0:
137,180,19280,5,2,0:2:0:0:
168,214,19380,1,2,0:2:0:0:
152,258,19480,1,2,0:2:0:0:
111,259,19580,1,2,0:2:0:0:
76,229,19680,2,0,P|41:224|6:215,1,63.3750024175645,2|0,0:2|0:0,0:0:0:0:
2,337,19880,2,0,B|0:357|20:392|69:418|139:363|118:308,1,190.125007252693
219,301,20280,5,8,0:3:0:0:
237,384,20380,1,8,0:3:0:0:
293,309,20480,2,0,L|261:246,1,63.3750024175645,4|0,0:3|0:0,0:0:0:0:
314,155,20680,2,0,L|249:177,1,63.3750024175645,8|4,0:3|0:3,0:0:0:0:
60,202,20880,6,0,B|-2:153|-8:117|23:16|37:33,1,190.125007252693,0|0,3:0|0:0,0:0:0:0:
100,89,21280,2,0,B|119:99|119:99|111:114|111:114|94:109|94:109|99:92,1,63.3750024175645
254,0,21480,5,2,3:2:0:0:
216,36,21580,1,2,0:2:0:0:
236,78,21680,2,0,B|273:103|273:103|308:161|278:204|248:213|219:208,1,190.125007252693,10|0,0:2|0:0,0:0:0:0:
120,108,22080,1,2,3:2:0:0:
120,108,22280,1,0,0:0:0:0:
364,133,22480,5,2,3:2:0:0:
307,7,22680,1,2,0:2:0:0:
340,61,22780,1,2,0:2:0:0:
398,70,22880,2,0,B|443:67|443:67|414:53,1,71.8250013699532,2|0,0:1|0:0,0:0:0:0:
512,0,23080,1,0,3:0:0:0:
460,207,23280,6,0,B|439:195|421:175|421:175|407:152|407:152|360:136,1,126.750004835129,8|0,0:2|0:0,0:0:0:0:
203,311,23680,2,0,B|176:325|176:325|198:325,1,46.4750014183045,2|0,0:3|0:0,0:0:0:0:
296,210,23880,1,0,0:0:0:0:
280,212,23980,1,0,0:0:0:0:
267,220,24080,2,0,B|263:271|321:333|402:320,1,190.125007252693,0|0,3:0|0:0,0:0:0:0:
490,348,24480,2,0,B|505:353|505:353|497:368|497:368|480:363|480:363|485:346,1,63.3750024175645
449,158,24680,5,2,3:2:0:0:
459,210,24780,1,2,0:2:0:0:
425,239,24880,2,0,B|380:244|380:244|326:205|309:146|340:110,1,190.125007252693,10|0,0:2|0:0,0:0:0:0:
479,3,25280,2,0,B|453:-9|453:-9|445:12,1,46.4750014183045,2|0,0:3|0:0,0:0:0:0:
413,75,25480,1,0,3:0:0:0:
182,0,25680,6,0,B|238:61|175:86|161:175|255:157|235:236,1,253.500009670258,2|0,3:2|3:0,0:0:0:0:
100,296,26180,1,2,0:2:0:0:
84,278,26280,1,2,0:2:0:0:
91,258,26380,1,2,0:2:0:0:
163,222,26480,5,8,0:2:0:0:
169,278,26580,1,8,0:3:0:0:
174,334,26680,1,4,0:3:0:0:
123,359,26780,1,4,0:3:0:0:
66,362,26880,2,0,B|13:241,1,126.750004835129,8|4,3:0|3:3,0:0:0:0:
35,72,27280,5,2,0:0:0:0:
35,72,27680,5,2,0:0:0:0:
35,72,27880,1,2,3:2:0:0:
82,78,27980,1,2,0:2:0:0:
111,109,28080,2,0,B|121:141|121:141|105:186|105:186|61:200|61:200|23:187,1,152.099995358277,14|0,0:2|0:0,0:0:0:0:
198,85,28480,2,0,L|266:62,1,63.3750024175645,0|0,3:0|0:0,0:0:0:0:
358,81,28680,5,8,2:3:0:0:
322,135,28780,1,4,0:3:0:0:
325,157,28880,2,0,B|343:180|373:186|409:186|430:148|425:125,1,126.750004835129,0|0,3:0|0:0,0:0:0:0:
486,12,29180,1,0,0:0:0:0:
511,45,29280,2,0,B|518:73|518:73|484:47,1,71.8250013699532,2|0,0:1|0:0,0:0:0:0:
372,8,29480,1,0,3:0:0:0:
509,170,29680,6,0,B|501:186|488:213|488:213|509:272|509:272|508:291,1,126.750004835129,8|0,0:2|0:0,0:0:0:0:
358,368,30080,5,10,0:3:0:0:
320,326,30180,1,8,0:3:0:0:
271,297,30280,1,4,0:3:0:0:
274,241,30380,1,4,0:3:0:0:
314,198,30480,2,0,B|354:207|384:240|387:261|389:289,1,126.750004835129,0|0,3:0|0:0,0:0:0:0:
442,352,30780,1,0,0:0:0:0:
461,354,30880,2,0,P|489:319|477:303,1,63.3750024175645
272,298,31080,5,2,3:2:0:0:
269,352,31180,1,2,0:2:0:0:
219,377,31280,2,0,B|165:373|126:284|179:223,1,190.125007252693,10|0,0:2|0:0,0:0:0:0:
307,109,31680,1,2,0:2:0:0:
307,109,31880,1,0,3:0:0:0:
155,147,32080,5,2,0:2:0:0:
199,138,32180,1,2,0:2:0:0:
213,94,32280,1,2,0:2:0:0:
182,68,32380,1,2,0:2:0:0:
137,73,32480,2,0,P|103:84|69:99,1,63.3750024175645,2|0,0:2|0:0,0:0:0:0:
34,31,32680,2,0,B|10:28|-25:48|-51:97|-17:151|33:160,1,190.125007252693
75,249,33080,5,8,0:3:0:0:
159,271,33180,1,8,0:3:0:0:
86,327,33280,2,0,L|33:283,1,63.3750024175645,4|0,0:3|0:0,0:0:0:0:
210,186,33480,2,0,L|142:203,1,63.3750024175645,8|4,0:3|0:3,0:0:0:0:
293,384,33680,6,0,B|254:317|363:306|325:199|299:186,1,190.125007252693,0|0,3:0|0:0,0:0:0:0:
282,133,34080,2,0,B|283:111|283:111|267:110|267:110|261:127|261:127|278:132,1,63.3750024175645
507,70,34280,5,2,3:2:0:0:
487,19,34380,1,2,0:2:0:0:
429,29,34480,2,0,B|389:29|343:65|349:138|399:167|426:158|434:139,1,190.125007252693,10|0,0:2|0:0,0:0:0:0:
512,240,34880,1,2,0:2:0:0:
512,240,35080,1,0,0:0:0:0:
506,75,35280,5,2,3:2:0:0:
403,257,35480,1,2,0:2:0:0:
410,203,35580,1,2,0:2:0:0:
459,172,35680,2,0,B|478:162|478:162|470:147|470:147|453:152|453:152|458:169,1,63.3750024175645,2|0,0:2|0:0,0:0:0:0:
512,248,35880,1,0,3:0:0:0:
266,300,36080,6,0,B|295:301|295:301|327:304|327:304|359:332|371:362,1,126.750004835129,8|0,0:2|0:0,0:0:0:0:
285,383,36480,1,0,0:0:0:0:
264,151,36680,1,0,0:0:0:0:
259,166,36780,1,0,0:0:0:0:
250,183,36880,2,0,B|199:187|148:118|169:34,1,190.125007252693
269,50,37280,2,0,B|288:60|288:60|280:75|280:75|263:70|263:70|268:53,1,63.3750024175645,0|0,3:0|0:0,0:0:0:0:
75,119,37480,5,2,0:2:0:0:
91,58,37580,1,2,0:2:0:0:
41,28,37680,2,0,B|-7:38|-30:104|-17:164|27:181,1,190.125007252693,10|0,0:2|0:0,0:0:0:0:
170,165,38080,1,2,0:2:0:0:
170,165,38280,1,0,0:0:0:0:
6,335,38480,6,0,B|88:342|74:268|149:252|183:312|237:245,1,253.500009670258,2|2,3:2|0:1,0:0:0:0:
324,317,38980,1,2,0:2:0:0:
345,342,39080,1,2,3:2:0:0:
373,341,39180,1,2,0:2:0:0:
452,369,39280,5,8,0:2:0:0:
458,313,39380,1,8,0:3:0:0:
463,257,39480,1,4,0:3:0:0:
412,232,39580,1,4,0:3:0:0:
369,206,39680,2,0,B|361:176|361:176|365:136|365:136,3,63.3750024175645,8|4|8|8,3:0|0:3|0:3|0:3,0:0:0:0:
285,56,40080,5,2,3:2:0:0:
289,67,40180,1,0,0:0:0:0:
300,71,40280,1,0,0:0:0:0:
311,65,40380,1,0,0:0:0:0:
379,30,40480,5,10,0:2:0:0:
382,56,40580,1,0,0:0:0:0:
402,75,40680,1,0,0:0:0:0:
430,72,40780,1,0,0:0:0:0:
487,23,40880,6,0,P|458:35|434:57,1,63.3750024175645,2|0,0:2|0:0,0:0:0:0:
369,110,41080,2,0,P|353:137|348:168,3,63.3750024175645,0|0|10|0,0:0|0:0|0:2|0:0,0:0:0:0:
273,185,41480,5,0,0:0:0:0:
250,196,41580,1,0,0:0:0:0:
222,186,41680,1,2,0:2:0:0:
208,162,41780,1,0,0:0:0:0:
135,178,41880,5,0,0:0:0:0:
118,217,41980,1,0,0:0:0:0:
79,232,42080,1,10,0:2:0:0:
34,220,42180,1,0,0:0:0:0:
32,139,42280,6,0,P|62:143|81:168,1,63.3750024175645
112,277,42480,2,0,P|106:297|108:318,1,42.25,2|0,0:2|0:0,0:0:0:0:
165,238,42680,2,0,P|149:251|140:270,1,42.25
224,378,42880,5,10,0:2:0:0:
272,345,42980,1,8,0:3:0:0:
328,328,43080,1,4,0:3:0:0:
386,337,43180,1,4,0:3:0:0:
428,374,43280,2,0,B|465:356|465:356|502:299|484:207,1,190.125007252693,6|0,3:2|0:0,0:0:0:0:
325,145,43680,5,10,0:1:0:0:
325,145,43880,1,2,0:2:0:0:
483,92,44080,2,0,P|448:120|421:155,1,84.5,0|0,3:0|0:0,0:0:0:0:
371,284,44480,1,10,0:2:0:0:
243,160,44680,5,2,0:2:0:0:
244,171,44780,1,0,0:0:0:0:
241,181,44880,2,0,B|175:183|122:145|88:90|101:65,1,190.125007252693,2|0,3:1|0:0,0:0:0:0:
276,0,45280,1,10,0:1:0:0:
276,0,45480,1,2,0:2:0:0:
192,130,45680,2,0,P|227:107|264:87,1,84.5,0|0,3:0|0:0,0:0:0:0:
175,31,46080,1,10,0:2:0:0:
175,31,46280,1,2,0:2:0:0:
196,214,46480,6,0,P|232:259|235:275,1,63.3750024175645,2|0,3:1|0:0,0:0:0:0:
129,340,46680,1,0,0:0:0:0:
78,316,46780,1,0,0:0:0:0:
80,257,46880,1,10,0:1:0:0:
80,257,47080,1,2,0:2:0:0:
12,135,47280,2,0,P|74:169|85:181,1,84.5,0|0,3:0|0:0,0:0:0:0:
310,281,47680,1,10,0:2:0:0:
370,171,47880,5,2,0:2:0:0:
356,160,47980,1,0,0:0:0:0:
343,144,48080,2,0,B|422:165|492:162|508:97,1,190.125007252693,2|0,3:1|0:0,0:0:0:0:
407,13,48480,1,10,0:1:0:0:
407,13,48680,1,2,0:2:0:0:
330,68,48880,2,0,P|284:79|236:79,1,92.950002836609,0|0,3:0|0:0,0:0:0:0:
201,169,49280,1,10,0:2:0:0:
384,265,49480,5,2,0:1:0:0:
344,247,49580,1,0,0:0:0:0:
314,269,49680,2,0,B|271:290|291:369|255:384|210:309|162:320,1,190.125007252693,2|0,3:1|0:0,0:0:0:0:
207,168,50080,1,10,0:1:0:0:
207,168,50280,1,2,0:2:0:0:
223,250,50480,2,0,P|181:233|137:226,1,84.5,0|0,3:0|0:0,0:0:0:0:
25,365,50880,1,10,0:2:0:0:
184,378,51080,6,0,L|214:386,1,25.3499992263794,2|2,0:1|0:2,0:0:0:0:
213,371,51213,6,0,L|242:363,1,25.3499992263794,2|2,0:2|3:1,0:0:0:0:
124,308,51480,1,0,0:0:0:0:
306,384,51680,2,0,P|312:351|352:192,1,177.449994584656,10|0,0:1|0:0,0:0:0:0:
434,186,52080,2,0,P|419:157|369:122,1,84.5,0|0,3:0|0:0,0:0:0:0:
250,209,52480,1,10,0:2:0:0:
250,209,52680,1,2,0:2:0:0:
403,384,52880,6,0,B|462:373|452:321|473:256|512:232,1,190.125007252693,2|0,3:1|0:0,0:0:0:0:
389,123,53280,1,10,0:1:0:0:
389,123,53480,1,2,0:2:0:0:
300,131,53680,2,0,P|287:113|283:35,1,92.950002836609,0|0,3:0|0:0,0:0:0:0:
272,207,54080,1,10,0:2:0:0:
196,311,54280,5,2,0:2:0:0:
179,314,54380,1,0,0:0:0:0:
164,321,54480,2,0,P|155:286|0:129,1,253.500009670258,2|8,3:1|0:1,0:0:0:0:
65,24,55080,5,2,0:2:0:0:
109,10,55180,1,2,0:2:0:0:
146,27,55280,1,2,3:1:0:0:
159,64,55380,1,2,0:2:0:0:
207,163,55580,5,2,0:2:0:0:
298,95,55780,5,2,0:0:0:0:
329,127,55880,2,0,L|376:96,1,42.25,2|2,0:2|0:2,0:0:0:0:
441,106,56080,5,2,3:1:0:0:
472,109,56180,1,2,0:2:0:0:
498,125,56280,1,2,0:0:0:0:
507,155,56380,1,2,0:2:0:0:
500,191,56480,2,0,B|442:202|442:202|459:185,1,76.0499976791383,2|2,0:1|0:2,0:0:0:0:
329,271,56880,2,0,B|297:292|297:292|277:327|300:382,1,126.750004835129,8|0,0:2|0:0,0:0:0:0:
225,248,57280,2,0,P|209:228|180:180,1,76.0499976791383,2|2,0:2|0:2,0:0:0:0:
36,289,57680,6,0,L|112:302,1,63.3750024175645,2|0,3:1|0:0,0:0:0:0:
56,120,57880,1,2,0:2:0:0:
99,162,57980,1,2,0:2:0:0:
46,181,58080,2,0,B|-8:208|-8:208|23:214,1,84.5,2|0,0:1|0:0,0:0:0:0:
88,250,58280,2,0,L|128:230,1,38.0249988395691,2|0,0:2|0:0,0:0:0:0:
151,74,58480,2,0,B|183:87|183:87|182:127|195:188,1,126.750004835129,8|0,0:2|0:0,0:0:0:0:
255,46,58880,1,2,0:2:0:0:
255,46,59080,1,2,0:2:0:0:
259,222,59280,5,2,3:1:0:0:
275,253,59380,1,2,0:2:0:0:
304,265,59480,1,2,0:2:0:0:
321,246,59580,1,2,0:2:0:0:
325,206,59680,2,0,B|332:158|332:158|353:183,1,76.0499976791383,2|2,0:1|0:2,0:0:0:0:
397,285,60080,1,8,0:2:0:0:
200,384,60280,1,2,0:2:0:0:
267,322,60480,5,2,0:2:0:0:
292,306,60580,1,2,0:2:0:0:
306,284,60680,1,2,0:2:0:0:
310,256,60780,1,2,0:2:0:0:
283,224,60880,2,0,L|283:182,1,42.25,2|2,3:1|0:2,0:0:0:0:
170,146,61080,2,0,L|203:176,1,42.25,2|2,0:2|0:2,0:0:0:0:
264,102,61280,5,2,0:1:0:0:
264,102,61380,1,2,2:2:0:0:
346,59,61580,6,0,L|353:100,1,42.25,2|8,0:2|0:2,0:0:0:0:
414,158,61780,5,2,0:2:0:0:
496,86,61980,5,2,0:2:0:0:
501,80,62080,1,2,0:2:0:0:
484,36,62180,1,2,0:2:0:0:
439,13,62280,1,2,0:2:0:0:
386,28,62380,1,2,0:2:0:0:
346,62,62480,6,0,B|293:32|293:32|222:50,1,126.750004835129,2|0,3:1|0:0,0:0:0:0:
329,147,62880,2,0,P|319:158|309:219,1,76.0499976791383,2|2,0:1|0:2,0:0:0:0:
190,356,63280,2,0,B|254:368|254:368|302:321,1,126.750004835129,8|0,0:2|0:0,0:0:0:0:
156,288,63680,5,2,0:2:0:0:
156,288,63880,1,2,0:2:0:0:
234,218,64080,1,2,3:1:0:0:
311,320,64280,6,0,L|302:354,1,28.1666666666667,2|2,0:0|0:2,0:0:0:0:
318,349,64413,6,0,L|328:379,1,28.1666666666667,2|2,0:2|0:1,0:0:0:0:
391,286,64680,1,2,0:2:0:0:
503,363,64880,2,0,B|476:354|476:354|457:321|400:293,1,126.750004835129,8|0,0:2|0:0,0:0:0:0:
486,177,65280,1,2,0:2:0:0:
486,177,65480,1,2,0:2:0:0:
325,186,65680,6,0,B|317:171|317:171|250:189|145:238,1,190.125007252693,2|0,3:1|0:0,0:0:0:0:
99,290,66080,2,0,P|84:297|42:263,1,76.0499976791383,2|2,0:1|0:2,0:0:0:0:
249,176,66480,5,10,0:2:0:0:
370,27,66780,5,8,0:0:0:0:
126,31,67080,5,10,0:0:0:0:
69,268,67280,5,6,3:1:0:0:
73,254,67380,1,2,0:2:0:0:
84,241,67480,1,2,0:2:0:0:
96,233,67580,1,2,0:2:0:0:
136,220,67680,5,2,0:1:0:0:
149,212,67780,1,2,0:2:0:0:
160,199,67880,1,2,0:2:0:0:
164,185,67980,1,2,0:2:0:0:
201,111,68080,6,0,P|228:91|261:110,3,63.3750024175645,2|2|2|2,3:1|0:2|0:2|0:2,0:0:0:0:
144,40,68480,6,0,P|127:36|115:51,3,38.0249988395691,2|2|2|2,0:1|0:2|0:2|0:2,0:0:0:0:
253,100,68880,6,0,B|266:126|264:138|264:138|274:172,1,63.3750024175645,2|0,3:1|0:0,0:0:0:0:
334,225,69080,1,2,0:2:0:0:
238,297,69280,2,0,B|251:271|249:259|249:259|255:224,1,63.3750024175645,2|0,3:1|0:0,0:0:0:0:
342,143,69480,1,2,0:2:0:0:
447,84,69680,2,0,B|460:110|458:122|458:122|466:173,1,84.5,2|0,3:1|0:0,0:0:0:0:
492,263,69880,5,8,3:3:0:0:
421,271,69980,1,8,0:3:0:0:
375,331,70080,1,2,3:1:0:0:
190,355,70280,2,0,B|163:347|156:337|156:337|113:307,1,84.5,4|0,0:3|0:0,0:0:0:0:
249,157,70480,5,4,0:0:0:0:
