osu file format v14

[General]
AudioFilename: tussle_among_trees_extended.mp3
AudioLeadIn: 0
PreviewTime: 80
Countdown: 0
SampleSet: Soft
StackLeniency: 0.7
Mode: 0
LetterboxInBreaks: 0
WidescreenStoryboard: 1

[Editor]
Bookmarks: 14457,40057,56057,69257
DistanceSpacing: 1
BeatDivisor: 4
GridSize: 32
TimelineZoom: 2.199999

[Metadata]
Title:Tussle Among Trees
TitleUnicode:Tussle Among Trees
Artist:bo en
ArtistUnicode:bo en
Creator:Chai the Tea
Version:Collab Sprout
Source:OMORI
Tags:Spork Lover Pennek waefwerf Electronic Instrumental vgm omocat video game videogame ost soundtrack original kel aubrey hero basil mari picnic chiptune 燈菓子
BeatmapID:3376889
BeatmapSetID:1654140

[Difficulty]
HPDrainRate:5
CircleSize:4
OverallDifficulty:7
ApproachRate:7.5
SliderMultiplier:1.69
SliderTickRate:1

[Events]
//Background and Video events
0,0,"thumb-1920-1146743.jpg",0,0
//Break Periods
//Storyboard Layer 0 (Background)
//Storyboard Layer 1 (Fail)
//Storyboard Layer 2 (Pass)
//Storyboard Layer 3 (Foreground)
//Storyboard Layer 4 (Overlay)
//Storyboard Sound Samples

[TimingPoints]
80,400,4,2,1,80,1,0
11680,-100,4,2,1,55,0,0
14080,-100,4,2,2,80,0,0
14480,-100,4,2,2,80,0,0
40080,-100,4,2,1,70,0,0
43280,-100,4,2,1,80,0,0
56080,-100,4,2,1,60,0,0
66480,-100,4,2,2,60,0,0
67280,-100,4,2,1,65,0,0
68080,-100,4,2,1,70,0,0
68880,-100,4,2,1,77,0,0
69680,-100,4,2,1,85,0,0
70455,-100,4,2,1,85,0,0
70480,-100,4,2,1,80,0,0

[Colours]
Combo1 : 58,181,194
Combo2 : 255,159,255
Combo3 : 46,158,250
Combo4 : 128,13,255

[HitObjects]
168,222,80,6,0,L|136:93,1,126.75,6|2,3:1|0:1,0:0:0:0:
110,316,680,2,0,L|226:323,1,84.5,2|0,0:1|3:0,0:0:0:0:
292,293,1080,1,2,0:1:0:0:
300,272,1180,1,2,0:2:0:0:
298,249,1280,2,0,P|284:191|310:143,1,84.5,10|2,0:1|0:2,0:0:0:0:
402,286,1680,2,0,B|468:287|468:287|518:346,2,126.75,2|2|2,3:1|0:1|0:1,0:0:0:0:
310,347,2480,5,0,3:0:0:0:
225,311,2680,1,0,0:0:0:0:
141,353,2880,1,8,0:2:0:0:
225,294,3080,1,0,0:0:0:0:
225,200,3280,6,0,L|374:199,1,126.75,2|2,3:1|0:1,0:0:0:0:
273,32,3880,2,0,L|286:130,1,84.5,2|0,0:1|3:0,0:0:0:0:
145,85,4280,1,2,0:1:0:0:
125,118,4380,1,2,0:2:0:0:
126,151,4480,2,0,P|144:198|123:263,1,84.5,10|2,0:1|0:2,0:0:0:0:
44,336,4880,6,0,L|55:179,2,126.75,2|2|2,3:1|0:1|0:1,0:0:0:0:
145,365,5680,2,0,L|208:353,3,42.25,0|0|0|0,3:0|0:0|0:0|0:0,0:0:0:0:
213,319,6080,2,0,P|244:280|247:221,1,84.5,10|0,0:2|0:0,0:0:0:0:
153,182,6480,5,2,3:1:0:0:
256,43,6780,5,2,0:1:0:0:
423,80,7080,5,2,0:1:0:0:
504,33,7280,2,0,L|510:140,1,84.5,0|2,3:0|0:1,0:0:0:0:
487,155,7580,1,2,0:2:0:0:
494,199,7680,2,0,P|491:248|450:271,1,84.5,10|0,0:1|0:1,0:0:0:0:
366,340,8080,5,2,3:1:0:0:
287,308,8280,1,2,0:2:0:0:
210,343,8480,1,10,0:1:0:0:
137,299,8680,1,2,0:1:0:0:
173,224,8880,2,0,L|148:127,1,84.5,0|0,3:0|0:0,0:0:0:0:
29,216,9280,2,0,L|64:125,1,84.5,10|0,0:2|0:0,0:0:0:0:
112,71,9680,5,2,3:1:0:0:
196,73,9880,1,2,0:2:0:0:
254,133,10080,2,0,P|324:110|339:87,1,84.5,2|2,0:2|0:2,0:0:0:0:
371,0,10480,2,0,L|384:201,1,169,2|2,3:1|0:2,0:0:0:0:
477,321,11280,5,2,3:1:0:0:
461,349,11380,1,2,0:2:0:0:
435,362,11480,1,2,0:2:0:0:
406,360,11580,1,2,0:2:0:0:
376,351,11680,2,0,P|352:339|323:319,3,42.25,10|0|0|0,0:2|0:0|0:0|0:0,0:0:0:0:
298,329,12080,2,0,P|281:310|272:289,3,42.25,0|0|0|0,3:0|0:0|0:0|0:0,0:0:0:0:
276,241,12480,2,0,P|261:226|230:213,1,42.25,8|0,0:2|0:0,0:0:0:0:
191,147,12680,2,0,P|170:138|123:133,1,42.25
81,85,12880,1,0,3:3:0:0:
256,192,12980,12,8,14080,3:3:0:0:
242,71,14480,6,0,L|419:60,1,169,0|0,3:3|0:0,0:0:0:0:
488,138,15080,1,2,0:2:0:0:
483,162,15180,1,2,0:2:0:0:
469,184,15280,2,0,B|428:177|428:177|385:176,1,84.5,10|0,0:2|0:0,0:0:0:0:
333,290,15680,1,2,0:2:0:0:
397,356,15880,2,0,B|382:369|382:369|358:381,1,42.25,8|4,0:3|0:3,0:0:0:0:
291,367,16080,6,0,L|202:385,1,84.5,6|0,0:3|0:0,0:0:0:0:
172,361,16380,1,2,0:2:0:0:
130,374,16480,2,0,P|109:350|106:292,1,84.5,2|0,0:1|3:3,0:0:0:0:
124,193,16880,1,8,0:2:0:0:
47,183,17080,2,0,B|16:208|-2:254,2,84.5,0|2|0,0:0|0:3|0:0,0:0:0:0:
131,182,17680,6,0,P|130:139|100:12,1,169,0|0,3:0|0:0,0:0:0:0:
192,42,18280,1,2,3:2:0:0:
201,56,18380,1,2,0:2:0:0:
224,63,18480,2,0,B|266:47|266:47|296:9,1,84.5,10|0,0:2|0:0,0:0:0:0:
372,61,18880,2,0,L|460:73,1,84.5,2|0,3:2|0:0,0:0:0:0:
489,181,19280,5,2,0:2:0:0:
459,191,19380,1,2,0:2:0:0:
427,196,19480,1,2,0:2:0:0:
396,196,19580,1,2,0:2:0:0:
362,195,19680,2,0,P|317:177|197:217,1,169,2|0,0:2|0:0,0:0:0:0:
254,362,20280,1,8,0:3:0:0:
254,362,20380,1,8,0:3:0:0:
254,362,20480,1,4,0:3:0:0:
183,311,20680,1,8,0:3:0:0:
120,384,20880,6,0,L|80:211,1,169,0|0,3:0|0:0,0:0:0:0:
1,147,21480,1,2,3:2:0:0:
6,123,21580,1,2,0:2:0:0:
24,113,21680,2,0,B|64:129|64:129|109:118,1,84.5,10|0,0:2|0:0,0:0:0:0:
173,197,22080,6,0,L|196:280,1,84.5,2|0,3:2|0:0,0:0:0:0:
294,371,22480,1,2,3:2:0:0:
299,281,22680,1,2,0:2:0:0:
307,273,22780,1,2,0:2:0:0:
317,267,22880,2,0,P|355:273|399:294,1,84.5,2|0,0:1|3:0,0:0:0:0:
503,299,23280,1,8,0:2:0:0:
460,368,23480,2,0,P|417:373|375:385,2,84.5,0|2|0,0:0|0:3|0:0,0:0:0:0:
512,291,24080,6,0,P|513:236|432:157,1,169,0|0,3:0|0:0,0:0:0:0:
343,205,24680,1,2,3:2:0:0:
329,196,24780,1,2,0:2:0:0:
322,173,24880,2,0,B|338:131|338:131|376:101,1,84.5,10|0,0:2|0:0,0:0:0:0:
446,64,25280,1,2,0:3:0:0:
364,0,25480,1,0,3:0:0:0:
288,21,25680,6,0,B|226:30|256:87|189:89,1,126.75,2|0,3:2|0:0,0:0:0:0:
166,92,26080,2,0,L|107:69,3,42.25,0|2|2|2,3:0|0:2|0:2|0:2,0:0:0:0:
101,82,26480,1,8,0:2:0:0:
72,95,26580,1,8,0:3:0:0:
51,118,26680,1,4,0:3:0:0:
39,147,26780,1,4,0:3:0:0:
40,179,26880,1,8,3:0:0:0:
200,230,27280,5,2,0:0:0:0:
204,235,27680,1,2,0:0:0:0:
276,258,27880,1,2,3:2:0:0:
296,241,27980,1,2,0:2:0:0:
315,219,28080,2,0,L|326:121,1,84.5,14|0,0:2|0:0,0:0:0:0:
279,39,28480,1,0,3:0:0:0:
224,104,28680,2,0,B|211:89|211:89|208:60,1,42.25,8|4,2:3|0:3,0:0:0:0:
158,0,28880,6,0,L|69:18,1,84.5,0|0,3:0|0:0,0:0:0:0:
34,51,29180,1,0,0:0:0:0:
58,86,29280,2,0,P|79:110|82:168,1,84.5,2|0,0:1|3:0,0:0:0:0:
11,243,29680,2,0,P|19:297|40:317,1,84.5,8|0,0:2|0:0,0:0:0:0:
150,349,30080,1,10,0:3:0:0:
141,318,30180,1,8,0:3:0:0:
144,286,30280,1,4,0:3:0:0:
155,257,30380,1,4,0:3:0:0:
177,238,30480,2,0,P|220:239|347:269,1,169,0|0,3:0|0:0,0:0:0:0:
454,241,31080,5,2,3:2:0:0:
468,250,31180,1,2,0:2:0:0:
475,273,31280,2,0,B|459:315|459:315|421:345,1,84.5,10|0,0:2|0:0,0:0:0:0:
341,373,31680,2,0,L|253:385,1,84.5,2|0,0:2|3:0,0:0:0:0:
240,283,32080,5,2,0:2:0:0:
230,253,32180,1,2,0:2:0:0:
225,221,32280,1,2,0:2:0:0:
225,190,32380,1,2,0:2:0:0:
232,163,32480,2,0,P|277:145|397:185,1,169,2|0,0:2|0:0,0:0:0:0:
495,54,33080,1,8,0:3:0:0:
495,54,33180,1,8,0:3:0:0:
495,54,33280,1,4,0:3:0:0:
410,23,33480,1,8,0:3:0:0:
326,58,33680,6,0,L|153:18,1,169,0|0,3:0|0:0,0:0:0:0:
68,88,34280,1,2,3:2:0:0:
73,112,34380,1,2,0:2:0:0:
91,122,34480,2,0,B|131:106|131:106|176:117,1,84.5,10|0,0:2|0:0,0:0:0:0:
235,181,34880,6,0,L|318:158,1,84.5,2|0,0:2|0:0,0:0:0:0:
449,199,35280,1,2,3:2:0:0:
474,278,35480,1,2,0:2:0:0:
466,286,35580,1,2,0:2:0:0:
456,292,35680,2,0,P|418:286|374:265,1,84.5,2|0,0:2|3:0,0:0:0:0:
287,268,36080,1,8,0:2:0:0:
308,354,36280,2,0,P|347:372|389:384,2,84.5
279,276,36880,6,0,P|224:285|162:380,1,169,0|0,0:0|3:0,0:0:0:0:
46,365,37480,1,2,0:2:0:0:
32,356,37580,1,2,0:2:0:0:
25,333,37680,2,0,B|41:291|41:291|79:261,1,84.5,10|0,0:2|0:0,0:0:0:0:
30,183,38080,2,0,B|11:94,1,84.5,2|0,0:2|0:0,0:0:0:0:
54,0,38480,6,0,B|116:9|86:66|153:68,1,126.75,2|0,3:2|0:0,0:0:0:0:
180,95,38880,2,0,L|239:72,3,42.25,2|2|2|2,0:1|0:2|3:2|0:2,0:0:0:0:
230,72,39280,1,8,0:2:0:0:
237,49,39380,1,8,0:3:0:0:
247,28,39480,2,0,P|266:22|291:21,1,42.25,4|4,0:3|0:3,0:0:0:0:
340,78,39680,2,0,B|362:86|362:86|383:82,3,42.25,8|4|8|8,3:0|0:3|0:3|0:3,0:0:0:0:
455,41,40080,6,0,P|457:20|455:0,2,42.25,2|0|0,3:2|0:0|0:0,0:0:0:0:
480,138,40480,2,0,P|491:178|512:215,1,84.5,10|0,0:2|0:0,0:0:0:0:
506,314,40880,1,2,0:2:0:0:
512,334,41080,1,0,0:0:0:0:
406,384,41280,1,10,0:2:0:0:
417,363,41480,1,0,0:0:0:0:
324,325,41680,6,0,P|303:334|270:339,2,42.25,2|0|0,0:2|0:0|0:0,0:0:0:0:
378,260,42080,2,0,P|376:214|387:153,1,84.5,10|0,0:2|0:0,0:0:0:0:
298,106,42480,1,2,0:2:0:0:
287,102,42580,1,0,0:0:0:0:
266,98,42680,1,0,0:0:0:0:
245,99,42780,1,0,0:0:0:0:
207,108,42880,2,0,P|171:118|157:126,1,42.25,10|8,0:2|0:3,0:0:0:0:
114,188,43080,2,0,P|99:206|91:235,1,42.25,4|4,0:3|0:3,0:0:0:0:
90,308,43280,6,0,L|280:338,1,169,6|10,3:2|0:1,0:0:0:0:
325,383,43880,1,2,0:2:0:0:
388,321,44080,2,0,L|381:212,1,84.5,0|0,3:0|0:0,0:0:0:0:
323,176,44480,1,10,0:2:0:0:
381,63,44680,1,2,0:2:0:0:
299,41,44880,6,0,P|248:43|200:68,1,84.5,2|0,3:1|0:0,0:0:0:0:
176,169,45280,2,0,L|167:1,1,169,10|0,0:1|3:0,0:0:0:0:
95,45,45880,1,0,0:0:0:0:
16,140,46080,1,10,0:2:0:0:
16,140,46280,1,2,0:2:0:0:
101,130,46480,5,2,3:1:0:0:
150,202,46680,1,0,0:0:0:0:
160,215,46780,1,0,0:0:0:0:
171,230,46880,2,0,L|344:220,1,169,10|0,0:1|3:0,0:0:0:0:
410,287,47480,1,0,0:0:0:0:
457,178,47680,1,10,0:2:0:0:
457,178,47880,1,2,0:2:0:0:
377,210,48080,6,0,L|291:216,1,84.5,2|0,3:1|0:0,0:0:0:0:
247,82,48480,2,0,P|255:146|245:277,1,169,10|0,0:1|3:0,0:0:0:0:
205,322,49080,1,0,0:0:0:0:
275,196,49280,1,10,0:2:0:0:
329,260,49480,1,2,0:1:0:0:
345,269,49580,1,0,0:0:0:0:
366,272,49680,6,0,P|412:270|452:248,1,84.5,2|0,3:1|0:0,0:0:0:0:
507,158,50080,2,0,P|483:237|511:316,1,169,10|0,0:1|3:0,0:0:0:0:
445,370,50680,1,0,0:0:0:0:
320,321,50880,1,10,0:2:0:0:
404,288,51080,1,2,0:1:0:0:
416,273,51180,1,2,0:2:0:0:
421,253,51280,6,0,P|413:190|391:161,1,84.5,2|0,3:1|0:0,0:0:0:0:
311,145,51680,2,0,P|394:148|465:105,1,169,10|0,0:1|3:0,0:0:0:0:
488,20,52280,1,0,0:0:0:0:
503,120,52480,1,10,0:2:0:0:
503,120,52680,1,2,0:2:0:0:
364,55,52880,6,0,L|262:50,1,84.5,2|0,3:1|0:0,0:0:0:0:
342,163,53280,2,0,L|299:0,1,169,10|0,0:1|3:0,0:0:0:0:
224,4,53880,1,0,0:0:0:0:
149,96,54080,1,10,0:2:0:0:
149,96,54280,1,2,0:2:0:0:
6,17,54480,2,0,L|77:175,1,169,2|8,3:1|0:1,0:0:0:0:
144,207,55080,1,2,0:2:0:0:
179,201,55180,1,2,0:2:0:0:
214,224,55280,5,2,3:1:0:0:
251,216,55380,2,0,L|388:223,1,126.75,2|8,0:2|0:2,0:0:0:0:
483,35,56080,6,0,L|439:33,3,42.25,2|2|2|2,3:1|0:2|0:0|0:2,0:0:0:0:
410,56,56480,2,0,L|321:46,1,84.5,2|2,0:1|0:2,0:0:0:0:
202,25,56880,1,8,0:2:0:0:
202,25,57080,1,0,0:0:0:0:
151,81,57280,2,0,L|59:62,1,84.5,2|2,0:2|0:2,0:0:0:0:
1,166,57680,6,0,L|15:256,1,84.5,2|2,3:1|0:2,0:0:0:0:
47,282,57980,1,2,0:2:0:0:
90,285,58080,2,0,P|127:260|174:253,1,84.5,2|2,0:1|0:2,0:0:0:0:
225,185,58480,1,8,0:2:0:0:
225,185,58680,1,0,0:0:0:0:
294,245,58880,2,0,P|324:264|372:276,1,84.5,2|2,0:2|0:2,0:0:0:0:
448,231,59280,6,0,L|446:174,3,42.25,2|2|2|2,3:1|0:2|0:2|0:2,0:0:0:0:
469,174,59680,2,0,P|448:123|410:97,1,84.5,2|2,0:1|0:2,0:0:0:0:
347,152,60080,1,8,0:2:0:0:
347,152,60280,1,2,0:2:0:0:
226,116,60480,5,2,0:2:0:0:
235,134,60580,1,2,0:2:0:0:
241,154,60680,1,2,0:2:0:0:
242,175,60780,1,2,0:2:0:0:
240,201,60880,2,0,L|234:255,3,42.25,2|2|2|2,3:1|0:2|0:2|0:2,0:0:0:0:
210,274,61280,2,0,L|211:335,3,42.25,2|2|0|2,0:1|2:2|0:0|0:2,0:0:0:0:
200,354,61680,2,0,L|93:356,1,84.5,8|0,0:2|0:0,0:0:0:0:
14,349,62080,5,2,0:2:0:0:
11,328,62180,1,2,0:2:0:0:
12,306,62280,1,2,0:2:0:0:
17,286,62380,1,2,0:2:0:0:
27,267,62480,2,0,P|42:216|15:94,1,169,2|2,3:1|0:1,0:0:0:0:
10,15,63080,1,2,0:2:0:0:
95,44,63280,1,8,0:2:0:0:
95,44,63480,1,0,0:0:0:0:
185,8,63680,2,0,P|171:61|171:106,1,84.5,2|2,0:2|0:2,0:0:0:0:
226,164,64080,6,0,L|350:117,1,126.75,2|2,3:1|0:2,0:0:0:0:
375,112,64480,2,0,P|407:146|401:191,1,84.5,2|2,0:1|0:2,0:0:0:0:
466,248,64880,1,8,0:2:0:0:
466,248,65080,1,0,0:0:0:0:
512,179,65280,2,0,P|515:147|483:93,1,84.5,2|2,0:2|0:2,0:0:0:0:
471,6,65680,6,0,L|287:32,1,169,2|2,3:1|0:1,0:0:0:0:
215,0,66280,1,2,0:2:0:0:
199,86,66480,2,0,P|185:127|204:212,1,126.75,10|8,0:2|0:0,0:0:0:0:
59,320,67080,1,10,0:0:0:0:
59,320,67280,6,0,B|102:316|102:316|231:325,1,169,6|2,3:1|0:1,0:0:0:0:
449,269,68080,6,0,B|409:235|409:235|339:273|339:273|297:256,1,169,2|2,3:1|0:1,0:0:0:0:
83,205,68880,6,0,B|100:180|100:180|123:171|123:171|159:171|159:171,1,84.5,2|2,3:1|0:2,0:0:0:0:
261,176,69280,6,0,B|236:159|236:159|227:136|227:136|227:100|227:100,1,84.5,2|2,3:1|0:2,0:0:0:0:
227,0,69680,6,0,B|210:25|210:25|187:34|187:34|151:34|151:34,1,84.5,2|8,3:1|3:3,0:0:0:0:
117,41,69980,1,8,0:3:0:0:
83,63,70080,2,0,B|108:80|108:80|117:103|117:103|117:139|117:139,1,84.5,2|4,3:1|0:3,0:0:0:0:
183,248,70480,5,4,0:0:0:0:
