osu file format v14

[General]
AudioFilename: audio.ogg
AudioLeadIn: 0
PreviewTime: 43875
Countdown: 0
SampleSet: Soft
StackLeniency: 0.7
Mode: 3
LetterboxInBreaks: 0
SpecialStyle: 0
WidescreenStoryboard: 1

[Editor]
DistanceSpacing: 0.8
BeatDivisor: 6
GridSize: 4
TimelineZoom: 1.819999

[Metadata]
Title:My Time
TitleUnicode:My Time
Artist:bo en
ArtistUnicode:bo en
Creator:iiJohn0
Version:It's a long way down...
Source:OMORI
Tags:NotiiJohn0 OJQ HimitsuHiketsu Tigerinity Ucitysm Indoroid Lott FAMoss short boen Calum Thomas Bowen pale machine OST Omocat LLC Playism electronic experimental ひきこもり sped up version MARU-123 maltine records official soundtrack sound track trailer theme music oyasumi japanese english pop videogame video game pixel art psychological horror rpg role play roleplay aubrey hero basil indie bad ending route black space white hikikomori mari vgm sunny maker MV rpgmv 178 Original Pt.3 disc 3
BeatmapID:3090134
BeatmapSetID:1508399

[Difficulty]
HPDrainRate:8.5
CircleSize:4
OverallDifficulty:8.5
ApproachRate:5
SliderMultiplier:1.4
SliderTickRate:1

[Events]
//Background and Video events
0,0,"byeig.png",0,0
//Break Periods
//Storyboard Layer 0 (Background)
//Storyboard Layer 1 (Fail)
//Storyboard Layer 2 (Pass)
//Storyboard Layer 3 (Foreground)
//Storyboard Layer 4 (Overlay)
//Storyboard Sound Samples

[TimingPoints]
442,301.507537688442,3,2,2,40,1,0
442,-100,3,2,2,40,0,0
29386,304.568527918782,3,2,2,40,1,0
29386,-132.013201320132,3,2,2,40,0,0
32127,301.507537688442,3,2,2,40,1,0
32127,-133.333333333333,3,2,2,40,0,0
37554,304.568527918782,3,2,2,40,1,0
37554,-132.013201320132,3,2,2,40,0,0
38467,295.566502463054,3,2,2,40,1,0
38467,-136.054421768707,3,2,2,40,0,0
39353,307.692307692308,3,2,2,40,1,0
39353,-130.718954248366,3,2,2,40,0,0
40276,298.507462686567,3,2,2,40,1,0
40276,-134.680134680135,3,2,2,40,0,0
41171,301.507537688442,3,2,2,40,1,0
41171,-133.333333333333,3,2,2,40,0,0
42980,298.507462686567,3,2,2,40,1,0
42980,-101.010101010101,3,2,2,40,0,0
43875,301.507537688442,3,2,2,40,1,0
43875,-100,3,2,2,40,0,0
50206,304.568527918782,3,2,2,40,1,0
50206,-99.009900990099,3,2,2,40,0,0
51119,301.507537688442,3,2,2,40,1,0
51119,-100,3,2,2,40,0,0
53832,289.855072463768,3,2,2,40,1,0
53832,-104.166666666667,3,2,2,40,0,0
54121,306.122448979592,3,2,2,40,1,0
54121,-98.0392156862745,3,2,2,40,0,0
54733,301.507537688442,3,2,2,40,1,0
54733,-100,3,2,2,40,0,0
55939,309.278350515464,3,2,2,40,1,0
55939,-97.0873786407767,3,2,2,40,0,0
56557,291.26213592233,3,2,2,40,1,0
56557,-103.092783505155,3,2,2,40,0,0
57430,315.789473684211,3,2,1,60,1,0
57430,-20,3,2,1,60,0,0
57449,-1000,3,2,1,60,0,0
57745,-58.8235294117647,3,2,1,60,0,0
57764,-1000,3,2,1,60,0,0
57824,-58.8235294117647,3,2,1,60,0,0
57843,-1000,3,2,1,60,0,0
57903,283.018867924528,3,2,1,60,1,0
57903,-20,3,2,1,60,0,0
57922,-133.333333333333,3,2,1,60,0,0
57956,-500,3,2,1,60,0,0
58327,226.201696512724,4,2,1,60,1,1
58327,-133.333333333333,4,2,1,60,0,1
72803,288.461538461538,3,2,1,40,1,0
72803,-104.166666666667,3,2,1,40,0,0
73668,315.789473684211,3,2,1,40,1,0
73668,-95.2380952380952,3,2,1,40,0,0
74615,297.029702970297,3,2,1,40,1,0
74615,-101.010101010101,3,2,1,40,0,0
75506,306.90537084399,3,2,1,40,1,0
75506,-98.0392156862745,3,2,1,40,0,0
76426,297.029702970297,3,2,1,40,1,0
76426,-101.010101010101,3,2,1,40,0,0
77317,304.568527918782,3,2,1,40,1,0
77317,-99.009900990099,3,2,1,40,0,0
78230,291.26213592233,3,2,1,40,1,0
78230,-103.092783505155,3,2,1,40,0,0
79103,319.148936170213,3,2,1,40,1,0
79103,-94.3396226415094,3,2,1,40,0,0
79581,298.507462686567,3,2,1,40,1,0
79581,-101.010101010101,3,2,1,40,0,0
80028,297.029702970297,3,2,2,40,1,0
80028,-101.010101010101,3,2,2,40,0,0
81216,306.90537084399,3,2,2,40,1,0
81216,-98.0392156862745,3,2,2,40,0,0
81829,297.029702970297,3,2,2,40,1,0
81829,-101.010101010101,3,2,2,40,0,0
83165,315.789473684211,3,2,2,40,1,0
83165,-95.2380952380952,3,2,2,40,0,0
83638,297.029702970297,3,2,2,40,1,0
83638,-101.010101010101,3,2,2,40,0,0
84529,299.25187032419,3,2,2,40,1,0
84529,-101.010101010101,3,2,2,40,0,0
86324,314.13612565445,3,2,2,40,1,0
86324,-96.1538461538461,3,2,2,40,0,0
87266,370.37037037037,3,2,2,40,1,0
87266,-81.3008130081301,3,2,2,40,0,0
88377,434.782608695652,3,2,2,40,1,0
88377,-69.4444444444444,3,2,2,40,0,0
88811,382.165605095541,3,2,2,40,1,0
88811,-78.740157480315,3,2,2,40,0,0
89575,365.853658536585,3,2,2,40,1,0
89575,-82.6446280991736,3,2,2,40,0,0
89940,388.349514563107,3,2,2,40,1,0
89940,-77.5193798449612,3,2,2,40,0,0
90134,594.059405940594,3,2,2,40,1,0
90134,-50.761421319797,3,2,2,40,0,0
90728,606.060606060606,3,2,2,40,1,0
90728,-49.7512437810945,3,2,2,40,0,0
91334,586.79706601467,3,2,2,40,1,0
91334,-51.2820512820513,3,2,2,40,0,0
91994,487.80487804878,3,2,2,40,1,0
91994,-61.7283950617284,3,2,2,40,0,0
92481,428.571428571429,3,2,2,40,1,0
92481,-70.4225352112676,3,2,2,40,0,0
92909,500,3,2,2,40,1,0
92909,-60.2409638554217,3,2,2,40,0,0
93409,612.244897959184,3,2,2,40,1,0
93409,-49.2610837438424,3,2,2,40,0,0
93485,1071.42857142857,3,2,2,40,1,0
93485,-28.169014084507,3,2,2,40,0,0
94556,1058.20105820106,3,2,2,40,1,0
94556,-28.4900284900285,3,2,2,40,0,0
95614,1153.84615384615,3,2,2,40,1,0
95614,-26.1096605744125,3,2,2,40,0,0

[HitObjects]
448,192,442,128,0,743:0:0:0:0:
64,192,743,1,0,0:0:0:0:
192,192,743,1,0,0:0:0:0:
64,192,1045,1,0,0:0:0:0:
192,192,1045,1,0,0:0:0:0:
320,192,1346,1,0,0:0:0:0:
64,192,1648,1,0,0:0:0:0:
192,192,1648,1,0,0:0:0:0:
64,192,1949,1,0,0:0:0:0:
192,192,1949,1,0,0:0:0:0:
448,192,2251,1,0,0:0:0:0:
64,192,2552,1,0,0:0:0:0:
192,192,2552,1,0,0:0:0:0:
64,192,2854,1,0,0:0:0:0:
192,192,2854,1,0,0:0:0:0:
320,192,3155,128,0,4060:0:0:0:0:
64,192,3457,1,0,0:0:0:0:
192,192,3457,1,0,0:0:0:0:
64,192,3758,1,0,0:0:0:0:
192,192,3758,1,0,0:0:0:0:
64,192,4060,128,0,4964:0:0:0:0:
192,192,4361,1,0,0:0:0:0:
320,192,4361,1,0,0:0:0:0:
192,192,4663,1,0,0:0:0:0:
320,192,4663,1,0,0:0:0:0:
448,192,4964,128,0,5869:0:0:0:0:
192,192,5266,1,0,0:0:0:0:
320,192,5266,1,0,0:0:0:0:
192,192,5567,1,0,0:0:0:0:
320,192,5567,1,0,0:0:0:0:
320,192,5869,128,0,6773:0:0:0:0:
64,192,6170,1,0,0:0:0:0:
448,192,6170,1,0,0:0:0:0:
64,192,6472,1,0,0:0:0:0:
448,192,6472,128,0,6773:0:0:0:0:
192,192,6773,128,0,7678:0:0:0:0:
64,192,7075,1,0,0:0:0:0:
448,192,7075,1,0,0:0:0:0:
64,192,7376,1,0,0:0:0:0:
448,192,7376,1,0,0:0:0:0:
448,192,7678,128,0,7979:0:0:0:0:
64,192,7979,1,0,0:0:0:0:
192,192,7979,1,0,0:0:0:0:
64,192,8281,1,0,0:0:0:0:
192,192,8281,1,0,0:0:0:0:
448,192,8582,1,0,0:0:0:0:
64,192,8884,1,0,0:0:0:0:
192,192,8884,1,0,0:0:0:0:
64,192,9185,1,0,0:0:0:0:
192,192,9185,1,0,0:0:0:0:
320,192,9487,1,0,0:0:0:0:
64,192,9788,1,0,0:0:0:0:
192,192,9788,1,0,0:0:0:0:
64,192,10090,1,0,0:0:0:0:
192,192,10090,1,0,0:0:0:0:
448,192,10391,1,0,0:0:0:0:
64,192,10693,1,0,0:0:0:0:
192,192,10693,1,0,0:0:0:0:
320,192,10844,1,0,0:0:0:0:
64,192,10994,1,0,0:0:0:0:
192,192,10994,128,0,11145:0:0:0:0:
448,192,11145,128,0,11296:0:0:0:0:
192,192,11296,128,0,12200:0:0:0:0:
64,192,11597,1,0,0:0:0:0:
448,192,11597,1,0,0:0:0:0:
64,192,11899,1,0,0:0:0:0:
448,192,11899,1,0,0:0:0:0:
320,192,12200,128,0,13105:0:0:0:0:
64,192,12502,1,0,0:0:0:0:
448,192,12502,1,0,0:0:0:0:
64,192,12803,1,0,0:0:0:0:
448,192,12803,1,0,0:0:0:0:
448,192,13105,128,0,14009:0:0:0:0:
64,192,13406,1,0,0:0:0:0:
192,192,13406,1,0,0:0:0:0:
64,192,13708,128,0,14009:0:0:0:0:
192,192,13708,1,0,0:0:0:0:
320,192,14009,128,0,14914:0:0:0:0:
64,192,14311,1,0,0:0:0:0:
192,192,14311,1,0,0:0:0:0:
64,192,14612,1,0,0:0:0:0:
192,192,14612,1,0,0:0:0:0:
64,192,14914,128,0,15215:0:0:0:0:
320,192,15215,1,0,0:0:0:0:
448,192,15215,1,0,0:0:0:0:
320,192,15517,1,0,0:0:0:0:
448,192,15517,1,0,0:0:0:0:
64,192,15818,1,0,0:0:0:0:
320,192,16120,1,0,0:0:0:0:
448,192,16120,1,0,0:0:0:0:
320,192,16421,1,0,0:0:0:0:
448,192,16421,1,0,0:0:0:0:
192,192,16723,1,0,0:0:0:0:
320,192,17024,1,0,0:0:0:0:
448,192,17024,1,0,0:0:0:0:
320,192,17326,1,0,0:0:0:0:
448,192,17326,1,0,0:0:0:0:
64,192,17627,1,0,0:0:0:0:
320,192,17929,1,0,0:0:0:0:
448,192,17929,1,0,0:0:0:0:
192,192,18080,1,0,0:0:0:0:
320,192,18230,1,0,0:0:0:0:
448,192,18230,1,0,0:0:0:0:
192,192,18381,1,0,0:0:0:0:
64,192,18532,128,0,19436:0:0:0:0:
192,192,18833,1,0,0:0:0:0:
448,192,18833,1,0,0:0:0:0:
192,192,19135,1,0,0:0:0:0:
448,192,19135,1,0,0:0:0:0:
320,192,19436,128,0,20341:0:0:0:0:
192,192,19738,1,0,0:0:0:0:
448,192,19738,1,0,0:0:0:0:
192,192,20039,1,0,0:0:0:0:
448,192,20039,1,0,0:0:0:0:
192,192,20341,128,0,21246:0:0:0:0:
64,192,20643,1,0,0:0:0:0:
448,192,20643,1,0,0:0:0:0:
64,192,20944,128,0,21246:0:0:0:0:
448,192,20944,1,0,0:0:0:0:
320,192,21246,128,0,22150:0:0:0:0:
64,192,21547,1,0,0:0:0:0:
448,192,21547,1,0,0:0:0:0:
64,192,21849,1,0,0:0:0:0:
448,192,21849,1,0,0:0:0:0:
64,192,22150,128,0,22452:0:0:0:0:
320,192,22452,1,0,0:0:0:0:
448,192,22452,1,0,0:0:0:0:
320,192,22753,1,0,0:0:0:0:
448,192,22753,1,0,0:0:0:0:
64,192,23055,1,0,0:0:0:0:
320,192,23356,1,0,0:0:0:0:
448,192,23356,1,0,0:0:0:0:
320,192,23658,1,0,0:0:0:0:
448,192,23658,1,0,0:0:0:0:
192,192,23959,1,0,0:0:0:0:
320,192,24261,1,0,0:0:0:0:
448,192,24261,1,0,0:0:0:0:
320,192,24562,1,0,0:0:0:0:
448,192,24562,1,0,0:0:0:0:
64,192,24864,1,0,0:0:0:0:
320,192,25165,1,0,0:0:0:0:
448,192,25165,1,0,0:0:0:0:
192,192,25316,1,0,0:0:0:0:
320,192,25467,1,0,0:0:0:0:
448,192,25467,1,0,0:0:0:0:
64,192,25617,1,0,0:0:0:0:
192,192,25768,128,0,26673:0:0:0:0:
64,192,26070,1,0,0:0:0:0:
448,192,26070,1,0,0:0:0:0:
64,192,26371,1,0,0:0:0:0:
448,192,26371,1,0,0:0:0:0:
320,192,26673,128,0,27577:0:0:0:0:
64,192,26974,1,0,0:0:0:0:
448,192,26974,1,0,0:0:0:0:
64,192,27276,1,0,0:0:0:0:
448,192,27276,1,0,0:0:0:0:
448,192,27577,128,0,28482:0:0:0:0:
64,192,27879,1,0,0:0:0:0:
192,192,27879,1,0,0:0:0:0:
64,192,28180,1,0,0:0:0:0:
192,192,28180,1,0,0:0:0:0:
192,192,28482,128,0,28557:0:0:0:0:
64,192,28557,128,0,28632:0:0:0:0:
448,192,28632,128,0,28708:0:0:0:0:
320,192,28708,128,0,28783:0:0:0:0:
64,192,28783,128,0,28934:0:0:0:0:
192,192,28859,128,0,29009:0:0:0:0:
448,192,28934,128,0,29160:0:0:0:0:
320,192,29009,128,0,29235:0:0:0:0:
64,192,29085,128,0,29311:0:0:0:0:
192,192,29160,128,0,29311:0:0:0:0:
448,192,29235,128,0,29386:0:0:0:0:
320,192,29311,128,0,29386:0:0:0:0:
64,192,29386,1,0,0:0:0:0:
192,192,29386,1,0,0:0:0:0:
64,192,30261,1,0,0:0:0:0:
320,192,30299,128,0,30604:0:0:0:0:
448,192,30299,128,0,30375:0:0:0:0:
192,192,30375,1,0,0:0:0:0:
192,192,31175,1,0,0:0:0:0:
64,192,31213,128,0,31289:0:0:0:0:
320,192,31213,128,0,31517:0:0:0:0:
448,192,31289,1,0,0:0:0:0:
320,192,32089,1,0,0:0:0:0:
64,192,32127,128,0,32202:0:0:0:0:
192,192,32127,128,0,32428:0:0:0:0:
448,192,32202,1,0,0:0:0:0:
192,192,32993,1,0,0:0:0:0:
320,192,33031,128,0,33106:0:0:0:0:
448,192,33031,128,0,33333:0:0:0:0:
64,192,33106,1,0,0:0:0:0:
320,192,33898,1,0,0:0:0:0:
64,192,33936,128,0,34237:0:0:0:0:
192,192,33936,128,0,34011:0:0:0:0:
448,192,34011,1,0,0:0:0:0:
448,192,34802,1,0,0:0:0:0:
192,192,34840,128,0,35142:0:0:0:0:
320,192,34840,128,0,34915:0:0:0:0:
64,192,34915,1,0,0:0:0:0:
320,192,35707,1,0,0:0:0:0:
192,192,35745,128,0,36046:0:0:0:0:
448,192,35745,128,0,35820:0:0:0:0:
64,192,35820,1,0,0:0:0:0:
192,192,36611,1,0,0:0:0:0:
320,192,36649,128,0,36724:0:0:0:0:
448,192,36649,128,0,36951:0:0:0:0:
64,192,36724,1,0,0:0:0:0:
320,192,37516,1,0,0:0:0:0:
64,192,37554,128,0,37630:0:0:0:0:
192,192,37554,128,0,37858:0:0:0:0:
448,192,37630,1,0,0:0:0:0:
192,192,38429,1,0,0:0:0:0:
320,192,38467,128,0,38540:0:0:0:0:
448,192,38467,128,0,38762:0:0:0:0:
64,192,38540,1,0,0:0:0:0:
192,192,39316,1,0,0:0:0:0:
64,192,39353,128,0,39429:0:0:0:0:
320,192,39353,128,0,39660:0:0:0:0:
448,192,39429,1,0,0:0:0:0:
320,192,40237,1,0,0:0:0:0:
192,192,40276,128,0,40574:0:0:0:0:
448,192,40276,128,0,40350:0:0:0:0:
64,192,40350,1,0,0:0:0:0:
320,192,41134,1,0,0:0:0:0:
64,192,41171,128,0,41246:0:0:0:0:
192,192,41171,128,0,41472:0:0:0:0:
448,192,41246,1,0,0:0:0:0:
64,192,42037,1,0,0:0:0:0:
192,192,42075,128,0,42150:0:0:0:0:
320,192,42075,128,0,42377:0:0:0:0:
448,192,42150,1,0,0:0:0:0:
192,192,42942,1,0,0:0:0:0:
64,192,42980,128,0,43129:0:0:0:0:
448,192,42980,128,0,43875:0:0:0:0:
320,192,43054,1,0,0:0:0:0:
192,192,43129,128,0,43427:0:0:0:0:
64,192,43278,128,0,43577:0:0:0:0:
320,192,43427,128,0,43726:0:0:0:0:
192,192,43577,128,0,43875:0:0:0:0:
64,192,43726,128,0,43875:0:0:0:0:
320,192,43875,128,0,44176:0:0:0:0:
448,192,44025,128,0,44327:0:0:0:0:
64,192,44176,1,0,0:0:0:0:
192,192,44176,128,0,44327:0:0:0:0:
320,192,44327,128,0,44628:0:0:0:0:
64,192,44478,1,0,0:0:0:0:
192,192,44478,128,0,44779:0:0:0:0:
448,192,44628,128,0,44779:0:0:0:0:
64,192,44779,128,0,45081:0:0:0:0:
320,192,44779,128,0,44930:0:0:0:0:
320,192,45081,128,0,45684:0:0:0:0:
448,192,45081,128,0,45231:0:0:0:0:
64,192,45231,1,0,0:0:0:0:
192,192,45231,128,0,45533:0:0:0:0:
448,192,45382,1,0,0:0:0:0:
448,192,45533,128,0,45684:0:0:0:0:
64,192,45684,128,0,45834:0:0:0:0:
192,192,45684,128,0,45985:0:0:0:0:
448,192,45834,1,0,0:0:0:0:
320,192,45935,1,0,0:0:0:0:
64,192,45985,1,0,0:0:0:0:
448,192,46035,1,0,0:0:0:0:
320,192,46136,1,0,0:0:0:0:
64,192,46186,1,0,0:0:0:0:
192,192,46236,1,0,0:0:0:0:
320,192,46287,1,0,0:0:0:0:
448,192,46287,1,0,0:0:0:0:
64,192,46588,128,0,46890:0:0:0:0:
320,192,46588,1,0,0:0:0:0:
448,192,46588,128,0,46890:0:0:0:0:
192,192,46739,128,0,46890:0:0:0:0:
320,192,46890,128,0,47040:0:0:0:0:
64,192,47040,128,0,47493:0:0:0:0:
192,192,47040,1,0,0:0:0:0:
448,192,47040,128,0,47342:0:0:0:0:
320,192,47191,128,0,47342:0:0:0:0:
192,192,47342,128,0,47493:0:0:0:0:
320,192,47493,128,0,47643:0:0:0:0:
448,192,47493,128,0,47794:0:0:0:0:
64,192,47794,1,0,0:0:0:0:
192,192,47794,1,0,0:0:0:0:
320,192,47869,1,0,0:0:0:0:
192,192,47945,1,0,0:0:0:0:
448,192,48020,1,0,0:0:0:0:
64,192,48096,1,0,0:0:0:0:
320,192,48096,1,0,0:0:0:0:
192,192,48171,1,0,0:0:0:0:
448,192,48246,1,0,0:0:0:0:
64,192,48322,1,0,0:0:0:0:
192,192,48359,1,0,0:0:0:0:
320,192,48397,1,0,0:0:0:0:
448,192,48397,1,0,0:0:0:0:
64,192,48435,1,0,0:0:0:0:
64,192,48699,1,0,0:0:0:0:
192,192,48699,1,0,0:0:0:0:
448,192,48736,1,0,0:0:0:0:
320,192,48774,1,0,0:0:0:0:
64,192,49000,1,0,0:0:0:0:
448,192,49000,1,0,0:0:0:0:
192,192,49038,1,0,0:0:0:0:
320,192,49302,1,0,0:0:0:0:
448,192,49302,1,0,0:0:0:0:
64,192,49377,128,0,49528:0:0:0:0:
320,192,49452,128,0,49603:0:0:0:0:
192,192,49528,128,0,49679:0:0:0:0:
448,192,49603,128,0,49754:0:0:0:0:
320,192,49679,128,0,49829:0:0:0:0:
64,192,49754,128,0,49905:0:0:0:0:
448,192,49829,128,0,49980:0:0:0:0:
192,192,49905,128,0,50055:0:0:0:0:
64,192,49980,128,0,50131:0:0:0:0:
320,192,50055,128,0,50131:0:0:0:0:
192,192,50131,128,0,50206:0:0:0:0:
64,192,50206,1,0,0:0:0:0:
320,192,50206,1,0,0:0:0:0:
448,192,50206,1,0,0:0:0:0:
64,192,51119,1,0,0:0:0:0:
320,192,51119,128,0,51420:0:0:0:0:
448,192,51269,128,0,51571:0:0:0:0:
64,192,51420,1,0,0:0:0:0:
192,192,51420,128,0,51571:0:0:0:0:
320,192,51571,128,0,51872:0:0:0:0:
64,192,51722,1,0,0:0:0:0:
192,192,51722,128,0,52023:0:0:0:0:
448,192,51872,128,0,52023:0:0:0:0:
64,192,52023,128,0,52325:0:0:0:0:
320,192,52023,128,0,52174:0:0:0:0:
320,192,52325,128,0,52928:0:0:0:0:
448,192,52325,128,0,52475:0:0:0:0:
192,192,52475,128,0,52777:0:0:0:0:
64,192,52928,128,0,53229:0:0:0:0:
192,192,52928,128,0,53078:0:0:0:0:
320,192,53229,128,0,53380:0:0:0:0:
448,192,53229,1,0,0:0:0:0:
192,192,53417,1,0,0:0:0:0:
64,192,53455,128,0,53832:0:0:0:0:
320,192,53531,128,0,53832:0:0:0:0:
448,192,53531,1,0,0:0:0:0:
192,192,53832,128,0,53976:0:0:0:0:
448,192,53832,128,0,54121:0:0:0:0:
64,192,54121,1,0,0:0:0:0:
192,192,54121,1,0,0:0:0:0:
192,192,54274,128,0,54580:0:0:0:0:
448,192,54274,1,0,0:0:0:0:
64,192,54427,1,0,0:0:0:0:
448,192,54427,128,0,54733:0:0:0:0:
64,192,54733,128,0,55034:0:0:0:0:
192,192,54733,128,0,54883:0:0:0:0:
320,192,55034,128,0,55185:0:0:0:0:
448,192,55034,1,0,0:0:0:0:
64,192,55185,128,0,55486:0:0:0:0:
320,192,55336,128,0,55637:0:0:0:0:
448,192,55336,1,0,0:0:0:0:
192,192,55486,128,0,55788:0:0:0:0:
64,192,55637,128,0,55788:0:0:0:0:
448,192,55637,128,0,55788:0:0:0:0:
64,192,55939,128,0,56557:0:0:0:0:
192,192,55939,1,0,0:0:0:0:
448,192,56016,1,0,0:0:0:0:
320,192,56093,128,0,56402:0:0:0:0:
448,192,56248,128,0,56402:0:0:0:0:
192,192,56402,128,0,56702:0:0:0:0:
320,192,56557,128,0,56848:0:0:0:0:
448,192,56557,128,0,57285:0:0:0:0:
64,192,56702,128,0,57030:0:0:0:0:
192,192,56848,128,0,57139:0:0:0:0:
320,192,56993,128,0,57285:0:0:0:0:
64,192,57139,128,0,57430:0:0:0:0:
192,192,57285,128,0,57430:0:0:0:0:
320,192,57430,1,0,0:0:0:0:
448,192,57430,1,0,0:0:0:0:
64,192,58327,1,2,0:0:0:0:
320,192,58327,1,4,0:0:0:0:
448,192,58372,1,0,0:0:0:0:
192,192,58417,1,0,0:0:0:0:
320,192,58462,1,0,0:0:0:0:
64,192,58507,1,0,0:0:0:0:
192,192,58553,1,0,0:0:0:0:
320,192,58666,1,2,0:0:0:0:
448,192,58666,1,0,0:0:0:0:
64,192,58779,1,0,0:0:0:0:
192,192,58779,1,0,0:0:0:0:
192,192,58892,1,0,0:0:0:0:
448,192,58892,1,0,0:0:0:0:
320,192,59005,1,8,0:0:0:0:
448,192,59005,1,0,0:0:0:0:
64,192,59118,1,0,0:0:0:0:
192,192,59118,1,0,0:0:0:0:
64,192,59231,1,2,0:0:0:0:
448,192,59231,1,0,0:0:0:0:
192,192,59288,1,0,0:0:0:0:
320,192,59344,1,0,0:0:0:0:
64,192,59458,1,0,0:0:0:0:
64,192,59571,1,2,0:0:0:0:
448,192,59571,1,0,0:0:0:0:
192,192,59684,1,0,0:0:0:0:
448,192,59684,1,0,0:0:0:0:
320,192,59740,1,0,0:0:0:0:
64,192,59797,1,0,0:0:0:0:
192,192,59797,1,0,0:0:0:0:
320,192,59910,1,8,0:0:0:0:
448,192,59910,1,0,0:0:0:0:
64,192,60023,1,0,0:0:0:0:
320,192,60023,1,0,0:0:0:0:
64,192,60136,1,2,0:0:0:0:
192,192,60136,1,0,0:0:0:0:
448,192,60193,1,0,0:0:0:0:
192,192,60249,1,0,0:0:0:0:
320,192,60306,1,0,0:0:0:0:
64,192,60362,1,0,0:0:0:0:
448,192,60362,1,0,0:0:0:0:
192,192,60419,1,0,0:0:0:0:
320,192,60475,1,2,0:0:0:0:
64,192,60532,1,0,0:0:0:0:
320,192,60589,1,0,0:0:0:0:
448,192,60589,1,0,0:0:0:0:
192,192,60645,1,0,0:0:0:0:
64,192,60702,1,0,0:0:0:0:
320,192,60702,1,0,0:0:0:0:
448,192,60758,1,0,0:0:0:0:
64,192,60815,1,8,0:0:0:0:
192,192,60815,1,0,0:0:0:0:
192,192,60928,1,0,0:0:0:0:
448,192,60928,1,0,0:0:0:0:
320,192,61041,1,2,0:0:0:0:
448,192,61041,1,0,0:0:0:0:
64,192,61097,1,0,0:0:0:0:
192,192,61154,1,0,0:0:0:0:
448,192,61267,1,0,0:0:0:0:
64,192,61380,1,2,0:0:0:0:
448,192,61380,1,0,0:0:0:0:
64,192,61493,1,0,0:0:0:0:
320,192,61493,1,0,0:0:0:0:
192,192,61550,1,0,0:0:0:0:
320,192,61606,1,0,0:0:0:0:
448,192,61606,1,0,0:0:0:0:
64,192,61720,1,8,0:0:0:0:
192,192,61720,1,0,0:0:0:0:
192,192,61833,1,0,0:0:0:0:
448,192,61833,1,0,0:0:0:0:
320,192,61946,1,2,0:0:0:0:
448,192,61946,1,0,0:0:0:0:
64,192,62002,1,0,0:0:0:0:
192,192,62059,1,0,0:0:0:0:
320,192,62115,1,0,0:0:0:0:
64,192,62172,1,0,0:0:0:0:
192,192,62172,1,0,0:0:0:0:
448,192,62228,1,0,0:0:0:0:
320,192,62285,1,2,0:0:0:0:
192,192,62342,1,0,0:0:0:0:
320,192,62398,1,0,0:0:0:0:
448,192,62398,1,0,0:0:0:0:
64,192,62455,1,0,0:0:0:0:
192,192,62511,1,0,0:0:0:0:
320,192,62511,1,0,0:0:0:0:
448,192,62568,1,0,0:0:0:0:
64,192,62624,1,8,0:0:0:0:
192,192,62624,1,0,0:0:0:0:
320,192,62737,1,0,0:0:0:0:
448,192,62737,1,0,0:0:0:0:
64,192,62851,1,2,0:0:0:0:
320,192,62851,1,0,0:0:0:0:
192,192,62907,1,0,0:0:0:0:
448,192,62964,1,0,0:0:0:0:
64,192,63077,1,0,0:0:0:0:
64,192,63190,1,2,0:0:0:0:
448,192,63190,1,0,0:0:0:0:
192,192,63303,1,0,0:0:0:0:
448,192,63303,1,0,0:0:0:0:
320,192,63359,1,0,0:0:0:0:
64,192,63416,1,0,0:0:0:0:
192,192,63416,1,0,0:0:0:0:
320,192,63529,1,8,0:0:0:0:
448,192,63529,1,0,0:0:0:0:
64,192,63642,1,0,0:0:0:0:
320,192,63642,1,0,0:0:0:0:
64,192,63755,1,2,0:0:0:0:
192,192,63755,1,0,0:0:0:0:
320,192,63812,1,0,0:0:0:0:
448,192,63868,1,0,0:0:0:0:
64,192,63925,1,0,0:0:0:0:
320,192,63982,1,0,0:0:0:0:
448,192,63982,1,0,0:0:0:0:
192,192,64038,1,0,0:0:0:0:
64,192,64095,1,2,0:0:0:0:
448,192,64151,1,0,0:0:0:0:
64,192,64208,1,0,0:0:0:0:
192,192,64208,1,0,0:0:0:0:
320,192,64264,1,0,0:0:0:0:
192,192,64321,1,0,0:0:0:0:
448,192,64321,1,0,0:0:0:0:
64,192,64377,1,0,0:0:0:0:
320,192,64434,1,8,0:0:0:0:
448,192,64434,1,0,0:0:0:0:
64,192,64547,1,0,0:0:0:0:
192,192,64547,1,0,0:0:0:0:
320,192,64660,1,2,0:0:0:0:
64,192,64688,1,0,0:0:0:0:
448,192,64717,1,0,0:0:0:0:
192,192,64773,1,0,0:0:0:0:
320,192,64773,1,0,0:0:0:0:
448,192,64886,1,0,0:0:0:0:
192,192,64999,1,2,0:0:0:0:
448,192,65028,1,0,0:0:0:0:
64,192,65056,1,0,0:0:0:0:
192,192,65113,1,0,0:0:0:0:
320,192,65113,1,0,0:0:0:0:
64,192,65226,1,0,0:0:0:0:
448,192,65226,1,0,0:0:0:0:
64,192,65339,1,8,0:0:0:0:
320,192,65339,1,0,0:0:0:0:
192,192,65452,1,0,0:0:0:0:
448,192,65452,1,0,0:0:0:0:
64,192,65565,1,2,0:0:0:0:
448,192,65565,1,0,0:0:0:0:
320,192,65622,1,0,0:0:0:0:
192,192,65678,1,0,0:0:0:0:
320,192,65735,1,0,0:0:0:0:
64,192,65791,1,0,0:0:0:0:
448,192,65791,1,0,0:0:0:0:
192,192,65848,1,0,0:0:0:0:
320,192,65904,1,2,0:0:0:0:
64,192,65961,1,0,0:0:0:0:
320,192,66017,1,0,0:0:0:0:
448,192,66017,1,0,0:0:0:0:
192,192,66074,1,0,0:0:0:0:
64,192,66130,1,0,0:0:0:0:
448,192,66130,1,0,0:0:0:0:
320,192,66187,1,0,0:0:0:0:
64,192,66244,1,8,0:0:0:0:
192,192,66244,1,0,0:0:0:0:
192,192,66357,1,0,0:0:0:0:
448,192,66357,1,0,0:0:0:0:
320,192,66470,1,2,0:0:0:0:
448,192,66470,1,0,0:0:0:0:
64,192,66526,1,0,0:0:0:0:
192,192,66583,1,0,0:0:0:0:
448,192,66696,1,0,0:0:0:0:
64,192,66809,1,2,0:0:0:0:
448,192,66809,1,0,0:0:0:0:
64,192,66922,1,0,0:0:0:0:
320,192,66922,1,0,0:0:0:0:
192,192,66979,1,0,0:0:0:0:
320,192,67035,1,0,0:0:0:0:
448,192,67035,1,0,0:0:0:0:
64,192,67148,1,8,0:0:0:0:
192,192,67148,1,0,0:0:0:0:
192,192,67261,1,0,0:0:0:0:
448,192,67261,1,0,0:0:0:0:
320,192,67375,1,2,0:0:0:0:
448,192,67375,1,0,0:0:0:0:
64,192,67431,1,0,0:0:0:0:
320,192,67488,1,0,0:0:0:0:
192,192,67544,1,0,0:0:0:0:
64,192,67601,1,0,0:0:0:0:
448,192,67601,1,0,0:0:0:0:
320,192,67657,1,0,0:0:0:0:
192,192,67714,1,2,0:0:0:0:
448,192,67770,1,0,0:0:0:0:
64,192,67827,1,0,0:0:0:0:
192,192,67827,1,0,0:0:0:0:
320,192,67884,1,0,0:0:0:0:
192,192,67940,1,0,0:0:0:0:
448,192,67940,1,0,0:0:0:0:
64,192,67997,1,0,0:0:0:0:
320,192,68053,1,8,0:0:0:0:
448,192,68053,1,0,0:0:0:0:
64,192,68166,1,0,0:0:0:0:
192,192,68166,1,0,0:0:0:0:
64,192,68279,1,2,0:0:0:0:
448,192,68279,1,0,0:0:0:0:
320,192,68336,1,0,0:0:0:0:
192,192,68392,1,0,0:0:0:0:
448,192,68506,1,0,0:0:0:0:
64,192,68619,1,2,0:0:0:0:
448,192,68619,1,0,0:0:0:0:
64,192,68732,1,0,0:0:0:0:
320,192,68732,1,0,0:0:0:0:
192,192,68788,1,0,0:0:0:0:
320,192,68845,1,0,0:0:0:0:
448,192,68845,1,0,0:0:0:0:
64,192,68958,1,8,0:0:0:0:
192,192,68958,1,0,0:0:0:0:
192,192,69071,1,0,0:0:0:0:
448,192,69071,1,0,0:0:0:0:
320,192,69184,1,2,0:0:0:0:
448,192,69184,1,0,0:0:0:0:
64,192,69241,1,0,0:0:0:0:
192,192,69297,1,0,0:0:0:0:
320,192,69354,1,0,0:0:0:0:
64,192,69410,1,0,0:0:0:0:
192,192,69410,1,0,0:0:0:0:
448,192,69467,1,0,0:0:0:0:
320,192,69523,1,2,0:0:0:0:
192,192,69580,1,0,0:0:0:0:
320,192,69637,1,0,0:0:0:0:
448,192,69637,1,0,0:0:0:0:
64,192,69693,1,0,0:0:0:0:
192,192,69750,1,0,0:0:0:0:
320,192,69750,1,0,0:0:0:0:
448,192,69806,1,0,0:0:0:0:
64,192,69863,1,8,0:0:0:0:
192,192,69863,1,0,0:0:0:0:
320,192,69976,1,0,0:0:0:0:
448,192,69976,1,0,0:0:0:0:
64,192,70089,1,2,0:0:0:0:
320,192,70089,1,0,0:0:0:0:
192,192,70146,1,0,0:0:0:0:
448,192,70202,1,0,0:0:0:0:
64,192,70315,1,0,0:0:0:0:
64,192,70428,1,2,0:0:0:0:
448,192,70428,1,0,0:0:0:0:
192,192,70541,1,0,0:0:0:0:
448,192,70541,1,0,0:0:0:0:
320,192,70598,1,0,0:0:0:0:
64,192,70654,1,0,0:0:0:0:
192,192,70654,1,0,0:0:0:0:
320,192,70768,1,8,0:0:0:0:
448,192,70768,1,0,0:0:0:0:
64,192,70881,1,0,0:0:0:0:
320,192,70881,1,0,0:0:0:0:
64,192,70994,1,2,0:0:0:0:
192,192,70994,1,0,0:0:0:0:
320,192,71050,1,0,0:0:0:0:
448,192,71107,1,0,0:0:0:0:
64,192,71163,1,0,0:0:0:0:
320,192,71220,1,0,0:0:0:0:
448,192,71220,1,0,0:0:0:0:
192,192,71277,1,0,0:0:0:0:
64,192,71333,1,2,0:0:0:0:
448,192,71390,1,0,0:0:0:0:
64,192,71446,1,0,0:0:0:0:
192,192,71446,1,0,0:0:0:0:
320,192,71503,1,0,0:0:0:0:
192,192,71559,1,0,0:0:0:0:
448,192,71559,1,0,0:0:0:0:
64,192,71616,1,0,0:0:0:0:
320,192,71672,1,8,0:0:0:0:
448,192,71672,1,0,0:0:0:0:
64,192,71786,1,0,0:0:0:0:
192,192,71786,1,0,0:0:0:0:
320,192,71899,1,2,0:0:0:0:
448,192,71899,1,0,0:0:0:0:
192,192,71955,1,0,0:0:0:0:
320,192,72012,1,0,0:0:0:0:
448,192,72012,1,0,0:0:0:0:
64,192,72068,1,0,0:0:0:0:
192,192,72125,1,0,0:0:0:0:
320,192,72125,1,0,0:0:0:0:
448,192,72181,1,0,0:0:0:0:
64,192,72238,1,2,0:0:0:0:
192,192,72238,1,0,0:0:0:0:
320,192,72294,1,0,0:0:0:0:
64,192,72351,1,0,0:0:0:0:
192,192,72351,1,0,0:0:0:0:
448,192,72408,1,0,0:0:0:0:
320,192,72464,1,0,0:0:0:0:
64,192,72521,1,0,0:0:0:0:
192,192,72577,1,8,0:0:0:0:
448,192,72577,1,0,0:0:0:0:
320,192,72634,1,0,0:0:0:0:
64,192,72690,1,0,0:0:0:0:
192,192,72747,1,0,0:0:0:0:
320,192,72803,1,4,0:0:0:0:
448,192,72803,128,2,72947:0:0:0:0:
64,192,72947,128,0,73091:0:0:0:0:
192,192,73091,1,0,0:0:0:0:
320,192,73091,128,0,73235:0:0:0:0:
64,192,73235,128,0,73379:0:0:0:0:
320,192,73379,128,0,73524:0:0:0:0:
448,192,73379,1,0,0:0:0:0:
192,192,73524,128,0,73668:0:0:0:0:
64,192,73668,128,0,73983:0:0:0:0:
448,192,73668,128,0,73825:0:0:0:0:
320,192,73825,128,0,73983:0:0:0:0:
192,192,73983,128,0,74141:0:0:0:0:
448,192,73983,128,0,74615:0:0:0:0:
64,192,74141,128,0,74299:0:0:0:0:
192,192,74299,128,0,74457:0:0:0:0:
320,192,74457,128,0,74615:0:0:0:0:
64,192,74615,128,0,74912:0:0:0:0:
192,192,74615,128,0,74763:0:0:0:0:
448,192,74763,128,0,74912:0:0:0:0:
192,192,74912,1,0,0:0:0:0:
320,192,74912,128,0,75060:0:0:0:0:
64,192,75060,128,0,75209:0:0:0:0:
448,192,75060,128,0,75506:0:0:0:0:
320,192,75209,128,0,75357:0:0:0:0:
192,192,75357,128,0,75506:0:0:0:0:
64,192,75506,128,0,75966:0:0:0:0:
320,192,75506,128,0,75659:0:0:0:0:
448,192,75659,128,0,75812:0:0:0:0:
192,192,75812,128,0,75966:0:0:0:0:
320,192,75966,128,0,76119:0:0:0:0:
448,192,75966,128,0,76426:0:0:0:0:
64,192,76119,128,0,76273:0:0:0:0:
320,192,76273,128,0,76426:0:0:0:0:
64,192,76426,128,0,76574:0:0:0:0:
192,192,76426,1,0,0:0:0:0:
448,192,76574,128,0,76723:0:0:0:0:
192,192,76723,1,0,0:0:0:0:
320,192,76723,128,0,76871:0:0:0:0:
64,192,76871,128,0,77020:0:0:0:0:
192,192,77020,1,0,0:0:0:0:
448,192,77020,128,0,77168:0:0:0:0:
320,192,77168,128,0,77317:0:0:0:0:
64,192,77317,128,0,77773:0:0:0:0:
448,192,77317,128,0,77469:0:0:0:0:
192,192,77469,128,0,77621:0:0:0:0:
320,192,77621,128,0,77773:0:0:0:0:
448,192,77621,1,0,0:0:0:0:
192,192,77773,128,0,78230:0:0:0:0:
448,192,77926,128,0,78078:0:0:0:0:
320,192,78078,128,0,78230:0:0:0:0:
64,192,78230,128,0,78375:0:0:0:0:
448,192,78230,128,0,79103:0:0:0:0:
320,192,78375,128,0,78521:0:0:0:0:
64,192,78521,128,0,78666:0:0:0:0:
192,192,78666,128,0,78812:0:0:0:0:
64,192,78812,128,0,78958:0:0:0:0:
320,192,78958,128,0,79103:0:0:0:0:
64,192,79103,1,0,0:0:0:0:
192,192,79103,128,0,79262:0:0:0:0:
448,192,79262,128,0,79422:0:0:0:0:
64,192,79422,128,0,79581:0:0:0:0:
320,192,79581,128,0,79730:0:0:0:0:
448,192,79581,1,0,0:0:0:0:
192,192,79730,128,0,79879:0:0:0:0:
448,192,79879,128,0,80028:0:0:0:0:
64,192,80028,1,0,0:0:0:0:
320,192,80028,128,0,80325:0:0:0:0:
448,192,80176,128,0,80473:0:0:0:0:
64,192,80325,1,0,0:0:0:0:
192,192,80325,128,0,80473:0:0:0:0:
320,192,80473,128,0,80770:0:0:0:0:
64,192,80622,1,0,0:0:0:0:
192,192,80622,128,0,80919:0:0:0:0:
448,192,80770,128,0,80919:0:0:0:0:
64,192,80919,128,0,81216:0:0:0:0:
320,192,80919,128,0,81067:0:0:0:0:
320,192,81216,128,0,81829:0:0:0:0:
448,192,81216,128,0,81369:0:0:0:0:
192,192,81369,128,0,81676:0:0:0:0:
64,192,81829,128,0,82126:0:0:0:0:
192,192,81829,128,0,81977:0:0:0:0:
320,192,82126,128,0,82274:0:0:0:0:
448,192,82126,1,0,0:0:0:0:
192,192,82311,1,0,0:0:0:0:
64,192,82348,128,0,82720:0:0:0:0:
320,192,82423,128,0,82720:0:0:0:0:
448,192,82423,1,0,0:0:0:0:
192,192,82720,128,0,82868:0:0:0:0:
448,192,82720,128,0,83017:0:0:0:0:
64,192,83017,1,0,0:0:0:0:
192,192,83017,1,0,0:0:0:0:
192,192,83165,128,0,83480:0:0:0:0:
448,192,83165,1,0,0:0:0:0:
64,192,83322,1,0,0:0:0:0:
448,192,83322,128,0,83638:0:0:0:0:
64,192,83638,128,0,83935:0:0:0:0:
192,192,83638,128,0,83786:0:0:0:0:
320,192,83935,128,0,84083:0:0:0:0:
448,192,83935,1,0,0:0:0:0:
64,192,84083,128,0,84380:0:0:0:0:
320,192,84232,128,0,84529:0:0:0:0:
448,192,84232,1,0,0:0:0:0:
192,192,84380,128,0,84678:0:0:0:0:
64,192,84529,128,0,84678:0:0:0:0:
448,192,84529,128,0,84678:0:0:0:0:
64,192,84828,1,0,0:0:0:0:
192,192,84828,1,0,0:0:0:0:
448,192,84878,1,0,0:0:0:0:
320,192,84928,1,0,0:0:0:0:
64,192,84977,1,0,0:0:0:0:
192,192,85027,1,0,0:0:0:0:
320,192,85077,1,0,0:0:0:0:
448,192,85127,1,0,0:0:0:0:
64,192,85177,1,0,0:0:0:0:
320,192,85227,1,0,0:0:0:0:
192,192,85277,1,0,0:0:0:0:
64,192,85426,1,0,0:0:0:0:
448,192,85426,128,0,85501:0:0:0:0:
192,192,85501,128,0,85576:0:0:0:0:
448,192,85576,128,0,85726:0:0:0:0:
192,192,85651,128,0,85800:0:0:0:0:
320,192,85726,128,0,85875:0:0:0:0:
448,192,85800,128,0,85875:0:0:0:0:
64,192,85875,128,0,85950:0:0:0:0:
320,192,85950,128,0,86025:0:0:0:0:
64,192,86025,128,0,86174:0:0:0:0:
320,192,86100,128,0,86249:0:0:0:0:
192,192,86174,128,0,86324:0:0:0:0:
64,192,86249,128,0,86324:0:0:0:0:
320,192,86324,1,0,0:0:0:0:
448,192,86324,1,0,0:0:0:0:
64,192,87266,1,0,0:0:0:0:
448,192,87266,1,0,0:0:0:0:
192,192,87636,1,0,0:0:0:0:
64,192,87659,1,0,0:0:0:0:
192,192,88006,1,0,0:0:0:0:
64,192,88029,1,0,0:0:0:0:
192,192,88377,1,0,0:0:0:0:
448,192,88377,1,0,0:0:0:0:
320,192,88811,1,0,0:0:0:0:
448,192,88834,1,0,0:0:0:0:
320,192,89575,1,0,0:0:0:0:
192,192,89605,1,0,0:0:0:0:
320,192,89940,1,0,0:0:0:0:
64,192,90134,1,0,0:0:0:0:
64,192,90728,1,0,0:0:0:0:
192,192,90728,1,0,0:0:0:0:
448,192,90765,1,0,0:0:0:0:
320,192,90803,1,0,0:0:0:0:
192,192,91296,1,0,0:0:0:0:
320,192,91334,1,0,0:0:0:0:
448,192,91334,1,0,0:0:0:0:
64,192,91431,1,0,0:0:0:0:
320,192,91920,1,0,0:0:0:0:
64,192,91994,1,0,0:0:0:0:
192,192,91994,1,0,0:0:0:0:
448,192,92024,1,0,0:0:0:0:
320,192,92481,1,0,0:0:0:0:
64,192,92507,1,0,0:0:0:0:
320,192,92909,1,0,0:0:0:0:
192,192,92940,1,0,0:0:0:0:
64,192,93409,1,0,0:0:0:0:
320,192,93447,1,0,0:0:0:0:
192,192,93485,1,0,0:0:0:0:
448,192,93485,1,0,0:0:0:0:
192,192,94556,1,0,0:0:0:0:
320,192,94556,1,0,0:0:0:0:
64,192,95614,1,0,0:0:0:0:
448,192,95758,1,0,0:0:0:0:
192,192,95830,1,0,0:0:0:0:
320,192,95902,128,0,97921:0:0:0:0:
