osu file format v14

[General]
AudioFilename: audio.mp3
AudioLeadIn: 0
PreviewTime:92965
Countdown: 0
SampleSet: Soft
StackLeniency: 0.6
Mode: 0
LetterboxInBreaks: 0
WidescreenStoryboard: 1

[Editor]
Bookmarks: 13517,26758,34827,53241,56551,67310
DistanceSpacing: 1
BeatDivisor: 8
GridSize: 32
TimelineZoom: 1.1

[Metadata]
Title:Suffocation
TitleUnicode:Suffocation
Artist:bladee
ArtistUnicode:bladee
Creator:thexo
Version:normal
Source:
Tags:dg drain gang d and g d&g & gtb sg gtbsg gravity boys shield hip hop english whitearmor white armor armour cloud rap alternative hyperpop pop year0001 thaiboy digital ecco2k
BeatmapID:3429675
BeatmapSetID:1674485

[Difficulty]
HPDrainRate:2.5
CircleSize:3.8
OverallDifficulty:3.2
ApproachRate:5.5
SliderMultiplier:1
SliderTickRate:1

[Events]
//Background and Video events
0,0,"bl0zsu7zxzu61.jpg",0,0
//Break Periods
//Storyboard Layer 0 (Background)
//Storyboard Layer 1 (Fail)
//Storyboard Layer 2 (Pass)
//Storyboard Layer 3 (Foreground)
//Storyboard Layer 4 (Overlay)
//Storyboard Sound Samples

[TimingPoints]
276,413.793103448276,4,2,1,33,1,0
276,-111.111111111111,4,2,1,33,0,0
15172,-111.111111111111,4,2,1,35,0,0
26758,-111.111111111111,4,2,1,60,0,0
40000,-111.111111111111,4,2,1,45,0,0
43310,-111.111111111111,4,2,1,40,0,0
56551,-111.111111111111,4,2,1,55,0,0
78482,-111.111111111111,4,2,1,60,0,0
79724,-111.111111111111,4,2,1,32,0,0
106207,-90.9090909090909,4,2,1,60,0,0
119448,-90.9090909090909,4,2,1,45,0,0
120276,-111.111111111111,4,2,1,45,0,0
126069,-111.111111111111,4,2,1,45,0,0
132689,-111.111111111111,4,2,1,50,0,0

[Colours]
Combo1 : 242,206,174
Combo2 : 225,113,121
Combo3 : 217,174,137
Combo4 : 214,50,63
Combo5 : 244,168,168

[HitObjects]
6,86,276,6,0,P|50:70|365:28,1,359.999989013672,2|2,2:0|2:0,2:0:0:0:
421,80,2758,1,2,2:0:0:0:
458,161,3586,1,2,2:0:0:0:
347,55,4827,5,0,2:0:0:0:
328,142,5241,2,0,P|262:149|233:157,1,89.9999972534181,2|0,2:0|2:0,2:0:0:0:
224,171,5862,1,0,2:0:0:0:
211,189,6069,2,0,P|167:179|122:175,1,89.9999972534181,2|2,2:0|2:0,2:0:0:0:
103,188,6689,1,2,2:0:0:0:
89,205,6896,6,0,P|57:153|253:51,1,359.999989013672,2|2,2:0|2:0,2:0:0:0:
287,122,9379,1,2,2:0:0:0:
287,212,10207,1,2,2:0:0:0:
287,212,11448,1,2,2:0:0:0:
256,245,11862,2,0,P|271:299|276:338,1,89.9999972534181,2|0,2:0|2:0,2:0:0:0:
265,352,12482,1,0,2:0:0:0:
278,369,12689,2,0,P|325:346|389:332,1,89.9999972534181,2|2,2:0|2:0,2:0:0:0:
382,343,13310,1,2,2:0:0:0:
402,352,13517,6,0,P|421:288|414:257,1,89.9999972534181,2|2,2:0|2:0,2:0:0:0:
390,237,14138,1,2,2:0:0:0:
390,237,14344,2,0,P|396:183|408:137,1,89.9999972534181,2|2,2:0|2:0,2:0:0:0:
456,73,15172,5,2,2:0:0:0:
371,41,15586,1,2,2:0:0:0:
281,35,16000,1,2,2:0:0:0:
191,38,16413,1,2,2:0:0:0:
241,112,16827,6,0,P|232:163|228:219,1,89.9999972534181,2|2,2:0|2:0,2:0:0:0:
252,245,17448,1,2,2:0:0:0:
252,245,17655,2,0,P|264:295|267:337,1,89.9999972534181,2|2,2:0|2:0,2:0:0:0:
186,377,18482,6,0,P|134:364|91:356,1,89.9999972534181,2|2,2:0|2:0,2:0:0:0:
58,371,19103,1,0,2:0:0:0:
58,371,19310,2,0,P|49:320|50:271,1,89.9999972534181,2|0,2:0|2:0,2:0:0:0:
102,212,20138,6,0,P|90:158|74:122,1,89.9999972534181,2|2,2:0|2:0,2:0:0:0:
34,108,20758,1,2,2:0:0:0:
34,108,20965,2,0,P|49:57|86:34,1,89.9999972534181,2|2,2:0|2:0,2:0:0:0:
162,66,21793,5,2,2:0:0:0:
251,61,22207,1,2,2:0:0:0:
334,27,22620,1,2,2:0:0:0:
423,38,23034,1,2,2:0:0:0:
383,118,23448,6,0,P|374:172|371:217,1,89.9999972534181,2|2,2:0|2:0,2:0:0:0:
393,246,24069,1,2,2:0:0:0:
393,246,24276,2,0,P|381:301|375:351,1,89.9999972534181,2|2,2:0|2:0,2:0:0:0:
294,372,25103,6,0,P|230:353|189:347,1,89.9999972534181,2|2,2:0|2:0,2:0:0:0:
182,355,25724,1,0,2:0:0:0:
182,355,25931,2,0,P|148:301|153:264,1,89.9999972534181,2|2,2:0|2:0,2:0:0:0:
174,241,26551,1,2,2:0:0:0:
174,241,26758,6,0,P|170:187|162:133,1,89.9999972534181,14|0,2:1|2:0,2:0:0:0:
74,143,27586,2,0,P|77:98|82:53,1,89.9999972534181,8|10,2:0|2:1,2:0:0:0:
109,18,28207,1,0,2:0:0:0:
109,18,28413,2,0,P|160:8|231:4,1,89.9999972534181,0|8,2:0|2:1,2:0:0:0:
286,22,29241,1,10,2:0:0:0:
376,63,29655,1,0,2:0:0:0:
376,63,29862,1,0,2:0:0:0:
376,63,30069,6,0,P|428:49|455:21,1,89.9999972534181,10|0,2:1|2:0,2:0:0:0:
493,104,30896,2,0,P|482:162|478:214,1,89.9999972534181,8|10,2:0|2:1,2:0:0:0:
490,236,31517,1,0,2:0:0:0:
490,236,31724,2,0,P|432:254|396:274,1,89.9999972534181,0|8,2:0|2:1,2:0:0:0:
345,333,32551,2,0,P|297:323|272:307,2,44.999998626709,8|0|2,2:0|2:0|2:0,2:0:0:0:
383,309,33172,1,2,2:0:0:0:
383,309,33379,6,0,P|374:251|362:206,1,89.9999972534181,10|0,2:1|2:0,2:0:0:0:
290,171,34207,2,0,P|320:134|365:126,1,89.9999972534181,8|10,2:0|2:1,2:0:0:0:
400,145,34827,1,0,2:0:0:0:
400,145,35034,2,0,P|411:89|414:44,1,89.9999972534181,0|8,2:0|2:1,2:0:0:0:
337,7,35862,1,10,2:0:0:0:
254,42,36276,2,0,L|186:33,1,44.999998626709,0|0,2:0|2:0,2:0:0:0:
164,33,36689,5,0,2:0:0:0:
183,120,37103,1,0,2:0:0:0:
255,173,37517,2,0,P|240:230|233:290,1,89.9999972534181,8|10,2:0|2:1,2:0:0:0:
254,301,38138,1,0,2:0:0:0:
254,301,38344,2,0,P|206:321|168:353,1,89.9999972534181,0|0,2:0|2:0,2:0:0:0:
88,364,39172,1,8,2:0:0:0:
83,274,39586,2,0,L|67:223,1,44.999998626709,2|2,2:0|2:0,2:0:0:0:
53,188,40000,6,0,P|108:184|167:201,1,89.9999972534181,10|2,2:1|2:0,2:0:0:0:
227,161,40827,1,10,2:0:0:0:
305,116,41241,2,0,P|299:91|286:69,1,44.999998626709,10|2,2:1|2:0,2:0:0:0:
249,53,41655,2,0,P|303:30|371:27,1,89.9999972534181,2|10,2:0|2:1,2:0:0:0:
420,50,42482,1,8,2:0:0:0:
496,212,43310,6,0,P|447:222|402:242,1,89.9999972534181,2|2,2:0|2:0,2:0:0:0:
363,315,44138,2,0,P|314:304|269:284,1,89.9999972534181,10|10,2:0|2:1,2:0:0:0:
256,248,44758,1,0,2:0:0:0:
256,248,44965,2,0,P|208:270|191:310,1,89.9999972534181,2|2,2:0|2:0,2:0:0:0:
244,375,45793,1,8,2:0:0:0:
153,374,46207,2,0,L|72:369,1,44.999998626709,2|2,2:0|2:0,2:0:0:0:
63,372,46620,6,0,P|50:322|51:265,1,89.9999972534181,10|2,2:1|2:0,2:0:0:0:
123,232,47448,2,0,P|120:187|108:143,1,89.9999972534181,10|10,2:0|2:1,2:0:0:0:
69,121,48069,1,2,2:0:0:0:
69,121,48276,2,0,P|83:76|125:57,1,89.9999972534181,2|0,2:0|2:0,2:0:0:0:
203,87,49103,1,8,2:0:0:0:
287,119,49517,2,0,L|337:107,1,44.999998626709,2|2,2:0|2:0,2:0:0:0:
375,102,49931,6,0,P|361:166|357:231,1,89.9999972534181,10|2,2:1|2:0,2:0:0:0:
430,243,50758,2,0,P|444:307|448:372,1,89.9999972534181,10|10,2:0|2:1,2:0:0:0:
424,370,51379,1,0,2:0:0:0:
424,370,51586,2,0,P|361:354|316:352,1,89.9999972534181,0|0,2:0|2:0,2:0:0:0:
248,372,52413,1,10,2:0:0:0:
160,351,52827,1,2,2:0:0:0:
131,265,53241,5,2,2:0:0:0:
303,8,56551,6,0,P|283:90|280:135,1,89.9999972534181,10|0,2:1|2:0,2:0:0:0:
195,121,57379,2,0,P|215:203|218:248,1,89.9999972534181,8|10,2:0|2:1,2:0:0:0:
207,252,58000,1,0,2:0:0:0:
207,252,58207,2,0,P|250:290|287:280,1,89.9999972534181,0|8,2:0|2:1,2:0:0:0:
345,225,59034,2,0,P|372:235|396:256,2,44.999998626709,10|2|2,2:0|2:0|2:0,2:0:0:0:
278,285,59862,6,0,P|304:345|314:388,1,89.9999972534181,10|0,2:1|2:0,2:0:0:0:
399,377,60689,2,0,P|439:350|439:299,1,89.9999972534181,8|10,2:0|2:1,2:0:0:0:
408,282,61310,1,0,2:0:0:0:
408,282,61517,2,0,P|417:215|431:185,1,89.9999972534181,0|8,2:0|2:1,2:0:0:0:
495,138,62344,1,2,2:0:0:0:
451,59,62758,2,0,L|396:69,1,44.999998626709,0|0,2:0|2:0,2:0:0:0:
367,45,63172,6,0,P|311:61|267:90,1,89.9999972534181,10|0,2:1|2:0,2:0:0:0:
234,152,64000,2,0,P|178:136|134:107,1,89.9999972534181,8|10,2:0|2:1,2:0:0:0:
134,78,64620,1,0,2:0:0:0:
134,78,64827,2,0,P|117:134|111:170,1,89.9999972534181,0|0,2:0|2:0,2:0:0:0:
127,253,65655,1,8,2:0:0:0:
98,338,66069,2,0,L|46:347,1,44.999998626709,2|2,2:0|2:0,2:0:0:0:
12,351,66482,6,0,P|7:299|16:231,1,89.9999972534181,14|0,2:1|2:0,2:0:0:0:
68,192,67310,2,0,P|70:147|65:102,1,89.9999972534181,8|10,2:0|2:1,2:0:0:0:
30,74,67931,1,0,2:0:0:0:
30,74,68138,2,0,P|86:51|141:46,1,89.9999972534181,0|8,2:0|2:1,2:0:0:0:
202,68,68965,1,10,2:0:0:0:
289,46,69379,2,0,L|352:39,1,44.999998626709,0|0,2:0|2:0,2:0:0:0:
378,37,69793,6,0,P|347:104|340:161,1,89.9999972534181,10|0,2:1|2:0,2:0:0:0:
262,157,70620,2,0,P|293:224|300:281,1,89.9999972534181,8|10,2:0|2:1,2:0:0:0:
288,283,71241,1,0,2:0:0:0:
288,283,71448,2,0,P|325:257|395:240,1,89.9999972534181,0|8,2:0|2:1,2:0:0:0:
450,278,72276,1,8,2:0:0:0:
432,189,72689,2,0,L|444:128,1,44.999998626709,2|2,2:0|2:0,2:0:0:0:
464,106,73103,6,0,P|407:77|361:70,1,89.9999972534181,10|0,2:1|2:0,2:0:0:0:
302,113,73931,2,0,P|270:77|276:23,1,89.9999972534181,8|10,2:0|2:1,2:0:0:0:
303,7,74551,1,0,2:0:0:0:
303,7,74758,6,0,P|243:26|196:66,1,89.9999972534181,0|0,2:0|2:0,2:0:0:0:
168,114,75586,1,10,2:0:0:0:
188,201,76000,2,0,L|180:262,1,44.999998626709,0|0,2:0|2:0,2:0:0:0:
180,290,76413,6,0,P|121:280|66:280,1,89.9999972534181,10|0,2:1|2:0,2:0:0:0:
96,189,77241,2,0,P|37:199|-18:199,1,89.9999972534181,8|2,2:0|2:0,2:0:0:0:
6,109,78069,1,0,2:0:0:0:
72,48,78482,1,0,2:0:0:0:
269,232,79724,5,2,2:0:0:0:
269,232,82207,1,2,2:0:0:0:
269,232,84689,1,2,2:0:0:0:
447,207,85517,1,2,2:0:0:0:
354,52,86344,5,2,2:0:0:0:
435,13,86758,2,0,B|135:75|367:74|8:148,1,449.99998626709,2|2,2:0|2:0,2:0:0:0:
71,317,89655,2,0,P|66:272|58:227,1,89.9999972534181,2|2,2:0|2:0,2:0:0:0:
0,23,91310,1,2,2:0:0:0:
180,23,92138,1,2,2:0:0:0:
305,152,92965,6,0,P|336:140|372:136,1,44.999998626709,2|0,2:0|2:0,2:0:0:0:
383,165,93379,2,0,P|404:170|425:179,2,44.999998626709,0|0|10,2:0|2:0|2:1,2:0:0:0:
379,255,94207,1,10,2:1:0:0:
379,255,95448,1,2,2:0:0:0:
209,194,96276,6,0,P|178:182|142:178,1,44.999998626709,10|0,2:1|2:0,2:0:0:0:
131,207,96690,2,0,P|109:212|88:221,2,44.999998626709,2|0|0,2:0|2:0|2:0,2:0:0:0:
135,297,97518,1,10,2:1:0:0:
297,373,98344,2,0,P|293:350|286:329,1,44.999998626709,2|0,2:0|2:0,2:0:0:0:
304,287,98758,1,10,2:1:0:0:
331,109,99586,6,0,P|300:121|264:125,1,44.999998626709,10|0,2:1|2:0,2:0:0:0:
253,96,100000,2,0,P|231:90|210:81,2,44.999998626709,2|0|10,2:0|2:0|2:1,2:0:0:0:
257,6,100828,1,10,2:1:0:0:
257,6,102069,1,2,2:0:0:0:
122,124,102896,6,0,P|91:112|55:108,1,44.999998626709,2|0,2:0|2:0,2:0:0:0:
44,137,103310,2,0,P|22:142|1:151,2,44.999998626709,2|0|2,2:0|2:0|2:0,2:0:0:0:
48,227,104138,1,10,2:1:0:0:
361,6,106207,6,0,P|348:63|341:115,1,110.000003356934,14|0,2:1|2:0,2:0:0:0:
407,201,107034,2,0,P|463:182|474:132,1,110.000003356934,8|10,2:0|2:1,2:0:0:0:
409,50,107862,2,0,P|345:67|286:88,1,110.000003356934,0|8,2:0|2:1,2:0:0:0:
265,120,108482,1,8,2:1:0:0:
265,120,108689,2,0,P|202:107|139:103,1,110.000003356934,10|0,2:0|2:0,2:0:0:0:
63,156,109517,6,0,P|73:230|117:250,1,110.000003356934,10|0,2:1|2:0,2:0:0:0:
153,241,110138,1,0,2:0:0:0:
153,241,110344,1,8,2:0:0:0:
260,262,110758,2,0,P|240:315|233:368,1,110.000003356934,10|0,2:1|2:0,2:0:0:0:
343,374,111586,1,8,2:0:0:0:
380,333,111793,1,0,2:0:0:0:
380,277,112000,1,8,2:1:0:0:
347,176,112413,2,0,P|331:105|320:90,1,55.0000016784668,2|2,2:0|2:0,2:0:0:0:
288,100,112827,6,0,P|304:47|359:32,1,110.000003356934,10|0,2:1|2:0,2:0:0:0:
461,44,113655,2,0,P|468:103|442:146,1,110.000003356934,8|10,2:0|2:1,2:0:0:0:
340,185,114482,1,0,2:0:0:0:
271,99,114896,1,8,2:1:0:0:
222,73,115103,1,8,2:1:0:0:
167,65,115310,1,10,2:0:0:0:
105,163,115724,2,0,P|147:171|171:182,1,55.0000016784668,0|0,2:0|2:0,2:0:0:0:
192,218,116138,6,0,P|175:302|174:337,1,110.000003356934,2|8,2:0|2:1,2:0:0:0:
82,382,116965,1,8,2:0:0:0:
82,382,117172,1,0,2:0:0:0:
82,382,117379,2,0,P|29:349|33:306,1,110.000003356934,10|8,2:1|2:1,2:0:0:0:
107,227,118207,2,0,P|68:205|44:200,1,55.0000016784668,0|0,2:0|2:0,2:0:0:0:
4,213,118620,2,0,P|14:157|45:109,1,110.000003356934,8|0,2:0|2:0,2:0:0:0:
129,45,119448,5,14,2:1:0:0:
275,149,120276,2,0,P|339:128|400:115,2,89.9999972534181,10|10|2,2:0|2:1|2:0,2:0:0:0:
171,237,121724,1,10,2:1:0:0:
171,237,122758,2,0,P|231:257|278:287,1,89.9999972534181,2|2,2:0|2:0,2:0:0:0:
303,345,123586,1,8,2:1:0:0:
388,315,124000,1,10,2:1:0:0:
495,170,124827,6,0,P|438:149|402:138,1,89.9999972534181,2|10,2:0|2:0,2:0:0:0:
319,130,125655,1,2,2:0:0:0:
232,154,126069,1,10,2:1:0:0:
159,100,126482,2,0,P|180:43|210:31,1,89.9999972534181,2|10,2:0|2:0,2:0:0:0:
292,44,127310,1,10,2:1:0:0:
265,129,127724,2,0,P|250:212|248:261,1,89.9999972534181,2|0,2:0|2:0,2:0:0:0:
277,258,128344,1,0,2:0:0:0:
277,258,128551,1,10,2:0:0:0:
109,373,129379,6,0,P|60:339|16:325,1,89.9999972534181,10|2,2:1|2:0,2:0:0:0:
4,242,130207,1,10,2:1:0:0:
71,182,130620,2,0,P|111:232|109:273,1,89.9999972534181,10|0,2:0|2:0,2:0:0:0:
175,320,131448,1,2,2:0:0:0:
247,266,131862,2,0,P|241:194|233:159,1,89.9999972534181,10|2,2:1|2:0,2:0:0:0:
186,102,132689,1,10,2:1:0:0:
343,14,133517,6,0,P|321:69|312:115,1,89.9999972534181,8|10,2:0|2:1,2:0:0:0:
251,163,134344,2,0,P|273:218|282:264,1,89.9999972534181,0|8,2:0|2:1,2:0:0:0:
264,290,134965,1,8,2:1:0:0:
264,290,135172,1,10,2:0:0:0:
132,380,136000,6,0,P|54:345|24:339,1,89.9999972534181,10|0,2:1|2:0,2:0:0:0:
14,261,136827,1,8,2:0:0:0:
79,198,137241,2,0,P|74:131|66:85,1,89.9999972534181,10|0,2:1|2:0,2:0:0:0:
31,26,138069,1,8,2:1:0:0:
119,8,138482,1,10,2:0:0:0:
207,23,138896,1,2,2:0:0:0:
276,80,139310,5,10,2:1:0:0:
298,167,139724,2,0,P|360:153|411:145,1,89.9999972534181,0|8,2:0|2:0,2:0:0:0:
474,165,140551,1,10,2:1:0:0:
414,232,140965,2,0,P|400:303|397:353,1,89.9999972534181,0|8,2:0|2:1,2:0:0:0:
474,369,141793,1,10,2:0:0:0:
296,337,142620,6,0,P|242:350|208:369,1,89.9999972534181,10|0,2:1|2:0,2:0:0:0:
131,324,143448,1,8,2:0:0:0:
154,237,143862,1,10,2:1:0:0:
12,137,144689,6,0,P|66:124|100:105,1,89.9999972534181,2|2,2:0|2:0,2:0:0:0:
177,150,145517,1,2,2:0:0:0:
154,237,145931,1,2,2:0:0:0:
