osu file format v14

[General]
AudioFilename: audio.mp3
AudioLeadIn: 0
PreviewTime: 92965
Countdown: 0
SampleSet: Soft
StackLeniency: 0.6
Mode: 0
LetterboxInBreaks: 0
WidescreenStoryboard: 0

[Editor]
DistanceSpacing: 0.3
BeatDivisor: 4
GridSize: 32
TimelineZoom: 2.3

[Metadata]
Title:Suffocation
TitleUnicode:Suffocation
Artist:bladee
ArtistUnicode:bladee
Creator:thexo
Version:i'll be your dream
Source:
Tags:dg drain gang d and g d&g & gtb sg gtbsg gravity boys shield hip hop english whitearmor white armor armour cloud rap alternative hyperpop pop year0001 thaiboy digital ecco2k
BeatmapID:3420604
BeatmapSetID:1674485

[Difficulty]
HPDrainRate:4.6
CircleSize:4.2
OverallDifficulty:7.6
ApproachRate:9.1
SliderMultiplier:1.69
SliderTickRate:1

[Events]
//Background and Video events
0,0,"bl0zsu7zxzu61.jpg",0,0
//Break Periods
//Storyboard Layer 0 (Background)
//Storyboard Layer 1 (Fail)
//Storyboard Layer 2 (Pass)
//Storyboard Layer 3 (Foreground)
//Storyboard Layer 4 (Overlay)
//Storyboard Sound Samples

[TimingPoints]
276,413.793103448276,4,2,1,33,1,0
276,-200,4,2,1,33,0,0
1827,-200,4,2,1,5,0,0
1931,-200,4,2,1,33,0,0
6585,-200,4,2,1,5,0,0
6689,-200,4,2,1,33,0,0
6792,-200,4,2,1,5,0,0
6896,-200,4,2,1,33,0,0
13206,-200,4,2,1,5,0,0
13310,-200,4,2,1,33,0,0
13413,-200,4,2,1,5,0,0
13517,-200,4,2,1,33,0,0
15172,-333.333333333333,4,2,1,35,0,0
26758,-100,4,2,1,60,0,0
33068,-100,4,2,1,5,0,0
33172,-100,4,2,1,60,0,0
33275,-100,4,2,1,5,0,0
33379,-100,4,2,1,60,0,0
39689,-100,4,2,1,5,0,0
39793,-100,4,2,1,60,0,0
39896,-100,4,2,1,5,0,0
40000,-100,4,2,1,45,0,0
42896,-200,4,2,1,40,0,0
46310,-200,4,2,1,5,0,0
46413,-200,4,2,1,40,0,0
46516,-200,4,2,1,5,0,0
46620,-200,4,2,1,40,0,0
52930,-200,4,2,1,5,0,0
53034,-200,4,2,1,40,0,0
53137,-200,4,2,1,5,0,0
53241,-200,4,2,1,40,0,0
56551,-100,4,2,1,55,0,0
59551,-100,4,2,1,5,0,0
59655,-100,4,2,1,55,0,0
59758,-100,4,2,1,5,0,0
59862,-100,4,2,1,55,0,0
66172,-100,4,2,1,5,0,0
66276,-100,4,2,1,55,0,0
66379,-100,4,2,1,5,0,0
66482,-100,4,2,1,55,0,0
78482,-133.333333333333,4,2,1,60,0,0
79413,-133.333333333333,4,2,1,5,0,0
79517,-133.333333333333,4,2,1,60,0,0
79620,-133.333333333333,4,2,1,5,0,0
79724,-200,4,2,1,32,0,0
104965,-200,4,2,1,25,0,0
106207,-66.6666666666667,4,2,1,60,0,0
112516,-66.6666666666667,4,2,1,5,0,0
112620,-66.6666666666667,4,2,1,60,0,0
112723,-66.6666666666667,4,2,1,5,0,0
112827,-66.6666666666667,4,2,1,60,0,0
119448,-66.6666666666667,4,2,1,45,0,0
121103,-166.666666666667,4,2,1,45,0,0
125758,-166.666666666667,4,2,1,5,0,0
125862,-166.666666666667,4,2,1,45,0,0
125965,-166.666666666667,4,2,1,5,0,0
126069,-166.666666666667,4,2,1,45,0,0
132689,-111.111111111111,4,2,1,50,0,0
138999,-111.111111111111,4,2,1,5,0,0
139103,-111.111111111111,4,2,1,50,0,0
139206,-111.111111111111,4,2,1,5,0,0
139310,-111.111111111111,4,2,1,50,0,0

[Colours]
Combo1 : 242,206,174
Combo2 : 225,113,121
Combo3 : 217,174,137
Combo4 : 214,50,63
Combo5 : 244,168,168

[HitObjects]
339,155,276,6,0,P|293:61|431:89,1,316.875,2|0,2:0|2:0,2:0:0:0:
423,101,1931,1,2,2:0:0:0:
414,183,2758,1,2,2:0:0:0:
429,266,3586,1,2,2:0:0:0:
429,266,4827,1,0,2:0:0:0:
429,266,5241,5,2,2:0:0:0:
368,317,5655,2,0,P|362:349|362:367,1,42.25,0|0,2:0|2:0,2:0:0:0:
286,381,6069,1,2,2:0:0:0:
286,381,6482,2,0,L|257:376,1,21.125,2|0,2:0|2:0,2:0:0:0:
218,318,6689,2,0,L|189:323,1,21.125,2|0,2:0|2:0,2:0:0:0:
270,258,6896,6,0,B|213:118|298:172|223:11,1,253.5,2|0,2:0|2:0,2:0:0:0:
224,13,8551,5,2,2:0:0:0:
153,45,9379,1,2,2:0:0:0:
76,65,10207,1,2,2:0:0:0:
76,65,11448,5,2,2:0:0:0:
76,65,11862,1,2,2:0:0:0:
125,121,12276,2,0,P|118:153|117:168,1,42.25,0|0,2:0|2:0,2:0:0:0:
162,223,12689,1,2,2:0:0:0:
162,223,13103,2,0,L|190:218,1,21.125,2|0,2:0|2:0,2:0:0:0:
237,273,13310,2,0,L|265:278,1,21.125,2|0,2:0|2:0,2:0:0:0:
181,326,13517,5,2,2:0:0:0:
155,333,13723,1,2,2:0:0:0:
132,346,13930,1,2,2:0:0:0:
112,363,14137,1,2,2:0:0:0:
95,383,14344,1,2,2:0:0:0:
95,383,14758,1,2,2:0:0:0:
336,343,15172,6,0,L|361:348,1,25.3499992263794,2|0,2:0|2:0,2:0:0:0:
291,282,15586,2,0,L|266:287,1,25.3499992263794,2|0,2:0|2:0,2:0:0:0:
430,319,16000,1,2,2:0:0:0:
430,319,16413,1,2,2:0:0:0:
249,200,16827,5,2,2:0:0:0:
274,192,17033,1,2,2:0:0:0:
297,179,17240,1,2,2:0:0:0:
317,162,17447,1,2,2:0:0:0:
334,142,17654,1,2,2:0:0:0:
334,142,18068,1,2,2:0:0:0:
69,203,18482,6,0,L|64:228,1,25.3499992263794,2|0,2:0|2:0,2:0:0:0:
130,158,18896,2,0,L|125:133,1,25.3499992263794,2|0,2:0|2:0,2:0:0:0:
93,297,19310,5,2,2:0:0:0:
178,288,19620,5,2,2:0:0:0:
263,279,19931,5,2,2:0:0:0:
357,379,20138,5,2,2:0:0:0:
360,357,20344,1,2,2:0:0:0:
365,335,20551,1,2,2:0:0:0:
374,315,20758,1,2,2:0:0:0:
385,295,20965,1,2,2:0:0:0:
385,295,21379,1,2,2:0:0:0:
487,187,21793,5,2,2:0:0:0:
492,198,22000,1,0,2:0:0:0:
479,197,22207,1,2,2:0:0:0:
487,187,22413,1,0,2:0:0:0:
444,365,22620,1,2,2:0:0:0:
444,365,23034,1,2,2:0:0:0:
269,4,23448,5,2,2:0:0:0:
265,25,23654,1,2,2:0:0:0:
260,47,23861,1,2,2:0:0:0:
251,67,24068,1,2,2:0:0:0:
240,87,24275,1,2,2:0:0:0:
240,87,24689,1,2,2:0:0:0:
139,196,25103,5,2,2:0:0:0:
134,185,25310,1,0,2:0:0:0:
147,186,25517,1,2,2:0:0:0:
139,196,25723,1,0,2:0:0:0:
77,47,25930,1,2,2:0:0:0:
77,47,26344,2,0,P|63:52|53:60,1,25.3499992263794,2|2,2:0|2:0,2:0:0:0:
150,75,26758,6,0,P|201:61|245:57,1,84.5,14|0,2:1|2:0,2:0:0:0:
353,59,27172,1,0,2:0:0:0:
355,79,27275,1,0,2:0:0:0:
347,99,27378,1,0,2:0:0:0:
264,138,27586,1,8,2:0:0:0:
232,58,27793,1,0,2:0:0:0:
413,151,28000,2,0,L|501:142,1,84.5,10|0,2:1|2:0,2:0:0:0:
370,264,28413,5,0,2:0:0:0:
362,244,28516,1,0,2:0:0:0:
364,224,28619,1,0,2:0:0:0:
463,231,28827,1,8,2:1:0:0:
505,310,29034,1,8,2:1:0:0:
282,236,29241,1,10,2:0:0:0:
280,256,29344,1,0,2:0:0:0:
288,276,29447,1,0,2:0:0:0:
350,351,29655,1,0,2:0:0:0:
350,351,29862,1,0,2:0:0:0:
203,198,30069,6,0,P|165:206|125:234,1,84.5,10|0,2:1|2:0,2:0:0:0:
63,294,30482,1,0,2:0:0:0:
49,290,30550,5,0,2:0:0:0:
37,283,30619,5,0,2:0:0:0:
28,272,30688,5,0,2:0:0:0:
22,259,30757,5,0,2:0:0:0:
21,245,30826,5,0,2:0:0:0:
24,231,30895,5,8,2:0:0:0:
68,163,31103,1,0,2:0:0:0:
82,25,31310,5,10,2:1:0:0:
126,93,31518,1,0,2:0:0:0:
206,98,31724,1,0,2:0:0:0:
220,94,31792,5,0,2:0:0:0:
232,87,31861,5,0,2:0:0:0:
241,76,31930,5,0,2:0:0:0:
247,63,31999,5,0,2:0:0:0:
248,49,32068,5,0,2:0:0:0:
245,35,32137,5,8,2:1:0:0:
178,0,32344,1,0,2:0:0:0:
387,32,32551,5,8,2:0:0:0:
320,67,32758,1,0,2:0:0:0:
468,131,32965,6,0,L|457:80,1,42.25,2|0,2:0|2:0,2:0:0:0:
512,195,33172,2,0,L|501:246,1,42.25,2|0,2:0|2:0,2:0:0:0:
366,251,33379,6,0,P|385:213|453:223,1,84.5,10|0,2:1|2:0,2:0:0:0:
503,236,33793,1,0,2:0:0:0:
496,248,33861,5,0,2:0:0:0:
491,261,33930,5,0,2:0:0:0:
487,275,33999,5,0,2:0:0:0:
485,289,34068,5,0,2:0:0:0:
483,303,34137,5,0,2:0:0:0:
482,317,34206,5,8,2:0:0:0:
401,351,34413,1,0,2:0:0:0:
333,384,34620,5,10,2:1:0:0:
251,350,34827,1,0,2:0:0:0:
218,229,35034,5,0,2:0:0:0:
232,245,35137,1,0,2:0:0:0:
237,265,35240,1,0,2:0:0:0:
150,282,35448,1,8,2:1:0:0:
318,214,35655,1,8,2:1:0:0:
106,157,35862,5,10,2:0:0:0:
104,168,35930,5,0,2:0:0:0:
103,179,35999,5,0,2:0:0:0:
252,90,36276,5,0,2:0:0:0:
175,69,36482,1,0,2:0:0:0:
326,69,36689,6,0,P|347:130|349:169,1,84.5,0|0,2:0|2:0,2:0:0:0:
419,192,37103,1,0,2:0:0:0:
413,205,37171,5,0,2:0:0:0:
409,218,37240,5,0,2:0:0:0:
405,231,37309,5,0,2:0:0:0:
401,245,37378,5,0,2:0:0:0:
398,259,37447,5,0,2:0:0:0:
396,273,37516,5,8,2:0:0:0:
451,341,37724,1,0,2:0:0:0:
318,291,37931,2,0,P|258:304|236:318,1,84.5,10|0,2:1|2:0,2:0:0:0:
131,377,38344,1,0,2:0:0:0:
142,369,38412,5,0,2:0:0:0:
152,359,38481,5,0,2:0:0:0:
159,347,38550,5,0,2:0:0:0:
162,333,38619,5,0,2:0:0:0:
162,319,38688,5,0,2:0:0:0:
157,306,38757,5,0,2:0:0:0:
83,270,38965,1,0,2:0:0:0:
252,194,39172,5,8,2:0:0:0:
178,230,39380,1,0,2:0:0:0:
115,179,39586,2,0,L|124:129,1,42.25,2|0,2:0|2:0,2:0:0:0:
44,78,39793,2,0,L|51:119,1,42.25,2|0,2:0|2:0,2:0:0:0:
193,105,40000,5,10,2:1:0:0:
278,93,40413,1,2,2:0:0:0:
363,81,40827,1,10,2:0:0:0:
360,93,41034,1,2,2:0:0:0:
440,48,41241,1,10,2:1:0:0:
437,36,41448,1,2,2:0:0:0:
320,160,41655,5,2,2:0:0:0:
329,178,41758,1,0,2:0:0:0:
333,199,41861,1,0,2:0:0:0:
253,217,42069,1,10,2:1:0:0:
416,232,42276,1,8,2:1:0:0:
245,208,42482,2,0,L|197:216,2,42.25,8|0|0,2:0|2:0|2:0,2:0:0:0:
164,281,42896,2,0,L|143:277,2,21.125,2|0|2,2:0|2:0|2:0,2:0:0:0:
100,339,43310,6,0,P|92:283|78:248,1,84.5,2|2,2:0|2:0,2:0:0:0:
9,245,43931,1,0,2:0:0:0:
131,201,44138,2,0,P|121:161|110:147,1,42.25,10|0,2:0|2:0,2:0:0:0:
270,56,44551,2,0,P|261:75|259:96,1,42.25,10|0,2:1|2:0,2:0:0:0:
323,148,44965,6,0,L|329:108,2,21.125,2|0|0,2:0|2:0|2:0,2:0:0:0:
270,56,45379,2,0,L|274:77,2,21.125,2|0|0,2:0|2:0|2:0,2:0:0:0:
398,109,45793,1,8,2:0:0:0:
398,109,46207,2,0,L|435:104,1,21.125,2|0,2:0|2:0,2:0:0:0:
490,52,46413,2,0,L|469:49,1,21.125,2|0,2:0|2:0,2:0:0:0:
465,226,46620,6,0,P|498:191|494:162,1,63.375,10|0,2:1|2:0,2:0:0:0:
493,169,47034,1,2,2:0:0:0:
482,166,47102,5,0,2:0:0:0:
472,165,47171,5,0,2:0:0:0:
462,167,47240,5,0,2:0:0:0:
452,172,47309,5,0,2:0:0:0:
444,179,47378,5,0,2:0:0:0:
438,187,47448,5,10,2:0:0:0:
371,219,47655,1,2,2:0:0:0:
496,292,47862,2,0,P|491:335|491:351,1,42.25,10|2,2:1|2:0,2:0:0:0:
390,367,48276,2,0,P|389:357|388:347,2,21.125,2|0|0,2:0|2:0|2:0,2:0:0:0:
2,268,49103,6,0,P|0:278|0:288,2,21.125,8|0|0,2:0|2:0|2:0,2:0:0:0:
65,230,49517,2,0,P|66:219|67:209,2,21.125,2|0|2,2:0|2:0|2:0,2:0:0:0:
253,384,49931,5,10,2:1:0:0:
151,349,50138,1,8,2:1:0:0:
202,299,50344,2,0,P|195:259|188:241,1,42.25,2|0,2:0|2:0,2:0:0:0:
201,65,50758,5,10,2:0:0:0:
99,100,50965,1,2,2:0:0:0:
304,175,51172,1,10,2:1:0:0:
304,175,52413,5,10,2:0:0:0:
304,175,52827,2,0,L|343:166,1,21.125,2|0,2:0|2:0,2:0:0:0:
238,143,53034,2,0,L|217:138,1,21.125,2|0,2:0|2:0,2:0:0:0:
301,251,53241,5,2,2:0:0:0:
419,4,56551,6,0,P|410:61|412:100,1,84.5,10|0,2:1|2:0,2:0:0:0:
496,233,56965,1,0,2:0:0:0:
494,219,57033,5,0,2:0:0:0:
489,206,57102,5,0,2:0:0:0:
480,195,57171,5,0,2:0:0:0:
468,188,57240,5,0,2:0:0:0:
454,185,57309,5,0,2:0:0:0:
440,186,57379,6,0,P|387:172|347:165,1,84.5,8|0,2:0|2:0,2:0:0:0:
172,384,57793,2,0,P|224:370|264:363,1,84.5,10|0,2:1|2:0,2:0:0:0:
488,335,58207,5,0,2:0:0:0:
486,347,58276,5,0,2:0:0:0:
484,359,58344,5,0,2:0:0:0:
482,371,58413,5,0,2:0:0:0:
276,282,58620,1,8,2:1:0:0:
276,282,58827,1,0,2:0:0:0:
350,244,59034,5,10,2:0:0:0:
228,212,59241,1,2,2:0:0:0:
104,186,59448,2,0,P|99:160|85:129,1,42.25,2|0,2:0|2:0,2:0:0:0:
156,247,59655,2,0,P|149:266|145:287,1,42.25,10|0,2:1|2:0,2:0:0:0:
350,244,59862,6,0,P|362:180|383:124,1,84.5,10|0,2:1|2:0,2:0:0:0:
233,20,60276,2,0,P|244:60|251:102,1,84.5,0|0,2:0|2:0,2:0:0:0:
104,186,60689,2,0,P|117:140|173:133,1,84.5,8|0,2:0|2:0,2:0:0:0:
367,161,61103,1,10,2:1:0:0:
438,99,61310,1,0,2:0:0:0:
324,26,61517,1,0,2:0:0:0:
335,44,61620,1,0,2:0:0:0:
341,64,61723,1,0,2:0:0:0:
128,43,61931,5,8,2:1:0:0:
223,104,62138,1,8,2:1:0:0:
254,177,62344,1,2,2:0:0:0:
254,177,62758,2,0,P|240:218|234:284,1,84.5,0|0,2:0|2:0,2:0:0:0:
50,379,63172,6,0,P|3:348|7:302,1,84.5,10|0,2:1|2:0,2:0:0:0:
32,224,63586,1,0,2:0:0:0:
45,220,63656,5,0,2:0:0:0:
59,222,63725,5,0,2:0:0:0:
71,228,63794,5,0,2:0:0:0:
80,239,63863,5,0,2:0:0:0:
85,252,63932,5,0,2:0:0:0:
84,266,64001,5,8,2:0:0:0:
0,323,64207,1,0,2:0:0:0:
244,360,64413,5,10,2:1:0:0:
125,336,64619,1,0,2:0:0:0:
316,323,64827,5,0,2:0:0:0:
316,323,65241,1,0,2:0:0:0:
125,336,65655,1,8,2:0:0:0:
211,220,66069,6,0,L|222:272,1,42.25,2|0,2:0|2:0,2:0:0:0:
277,127,66276,2,0,L|266:179,1,42.25,2|0,2:0|2:0,2:0:0:0:
184,4,66482,6,0,P|211:70|212:107,1,84.5,14|0,2:1|2:0,2:0:0:0:
282,335,66896,2,0,P|290:293|310:256,1,84.5,0|0,2:0|2:0,2:0:0:0:
439,117,67310,5,8,2:0:0:0:
352,144,67517,1,0,2:0:0:0:
501,272,67724,2,0,P|494:205|475:172,1,84.5,10|0,2:1|2:0,2:0:0:0:
418,291,68138,1,0,2:0:0:0:
429,308,68241,1,0,2:0:0:0:
436,328,68344,1,0,2:0:0:0:
355,346,68551,5,8,2:1:0:0:
236,285,68758,1,8,2:1:0:0:
102,280,68965,2,0,P|86:263|87:237,2,42.25,10|0|0,2:0|2:0|2:0,2:0:0:0:
181,142,69379,2,0,P|158:200|153:231,1,84.5,0|0,2:0|2:0,2:0:0:0:
335,143,69793,6,0,P|284:101|255:102,1,84.5,10|0,2:1|2:0,2:0:0:0:
181,142,70207,1,0,2:0:0:0:
167,136,70275,5,0,2:0:0:0:
156,128,70344,5,0,2:0:0:0:
146,118,70413,5,0,2:0:0:0:
139,106,70482,5,0,2:0:0:0:
135,93,70551,5,0,2:0:0:0:
134,79,70620,5,8,2:0:0:0:
191,18,70827,1,0,2:0:0:0:
236,285,71034,2,0,P|223:338|220:371,1,84.5,10|0,0:1|0:0,0:0:0:0:
193,219,71448,2,0,L|154:229,3,28.1666666666667,0|0|0|0,2:0|2:0|2:0|2:0,2:0:0:0:
422,245,71862,5,8,2:1:0:0:
443,164,72069,1,0,2:0:0:0:
369,188,72276,5,8,2:0:0:0:
348,107,72482,1,0,2:0:0:0:
430,253,72689,5,2,2:0:0:0:
451,172,72896,1,2,2:0:0:0:
234,212,73103,6,0,P|190:199|141:191,1,84.5,10|0,2:1|2:0,2:0:0:0:
65,209,73517,1,0,2:0:0:0:
63,219,73585,5,0,2:0:0:0:
64,229,73654,5,0,2:0:0:0:
67,239,73723,5,0,2:0:0:0:
72,249,73792,5,0,2:0:0:0:
80,256,73861,5,0,2:0:0:0:
88,262,73930,5,8,2:0:0:0:
152,192,74138,1,0,2:0:0:0:
0,290,74344,2,0,P|9:329|14:377,1,84.5,10|0,2:1|2:0,2:0:0:0:
217,378,74758,6,0,L|310:363,1,84.5,0|0,2:0|2:0,2:0:0:0:
446,320,75172,2,0,L|363:307,1,84.5,0|0,2:0|2:0,2:0:0:0:
145,342,75586,1,10,2:0:0:0:
363,307,76000,2,0,L|357:277,3,28.1666666666667,0|0|0|0,2:0|2:0|2:0|2:0,2:0:0:0:
145,342,76413,5,10,2:1:0:0:
260,293,76620,1,8,2:1:0:0:
197,246,76827,2,0,L|202:216,7,21.125,0|0|0|0|0|0|0|0,2:0|2:0|2:0|2:0|2:0|2:0|2:0|2:0,2:0:0:0:
203,215,77241,1,8,2:0:0:0:
152,157,77448,1,0,2:0:0:0:
210,206,77655,1,2,2:0:0:0:
372,220,78069,5,0,2:0:0:0:
372,220,78482,2,0,P|417:230|436:238,1,63.3750024175645,0|0,2:0|2:0,2:0:0:0:
270,156,78896,2,0,P|316:154|336:156,1,63.3750024175645,8|0,2:0|2:0,2:0:0:0:
372,220,79310,2,0,P|366:240|366:260,1,31.6875012087822,2|0,2:0|2:0,2:0:0:0:
292,245,79517,2,0,P|291:265|296:285,1,31.6875012087822,2|0,2:0|2:0,2:0:0:0:
361,375,79724,6,0,B|87:183|290:206|18:0,1,507,2|2,2:0|2:0,2:0:0:0:
58,72,84689,1,2,2:0:0:0:
116,127,85517,1,2,2:0:0:0:
132,5,86344,5,2,2:0:0:0:
132,5,86758,2,0,P|187:88|325:382,1,422.5,2|2,2:0|2:0,2:0:0:0:
324,379,89655,2,0,P|310:340|268:328,1,84.5,2|2,2:0|2:0,2:0:0:0:
202,358,91310,1,2,2:0:0:0:
126,352,92138,1,2,2:0:0:0:
273,66,92965,6,0,L|281:23,3,42.25,2|0|0|0,2:0|2:0|2:0|2:0,2:0:0:0:
354,59,93793,6,0,P|311:78|272:103,1,84.5,10|10,2:1|2:1,2:0:0:0:
372,22,94620,6,0,P|358:67|351:149,1,126.75,2|0,2:0|2:0,2:0:0:0:
350,146,95448,1,2,2:0:0:0:
299,196,96069,1,8,2:1:0:0:
299,196,96276,1,10,2:1:0:0:
242,243,96689,2,0,P|256:278|273:369,1,126.75,2|0,2:0|2:0,2:0:0:0:
257,375,97517,6,0,P|269:336|380:344,1,169,10|2,2:1|2:0,2:0:0:0:
257,375,98758,1,10,2:1:0:0:
376,338,99172,1,2,2:0:0:0:
51,281,99586,5,10,2:1:0:0:
122,311,100000,2,0,P|137:288|141:227,1,84.5,2|10,2:0|2:1,2:0:0:0:
87,174,100827,1,10,2:1:0:0:
18,136,101241,2,0,P|29:91|103:71,1,126.75,2|0,2:0|2:0,2:0:0:0:
267,125,102069,1,2,2:0:0:0:
99,69,102896,5,2,2:0:0:0:
186,86,103310,1,2,2:0:0:0:
267,125,103724,1,2,2:0:0:0:
422,75,104138,5,10,2:1:0:0:
267,125,104965,5,2,2:0:0:0:
186,86,105379,1,2,2:0:0:0:
99,69,105793,1,2,2:0:0:0:
422,75,106207,6,0,P|403:126|392:210,1,126.750004835129,14|0,2:1|2:0,2:0:0:0:
509,344,106620,1,0,2:0:0:0:
501,314,106723,1,0,2:0:0:0:
473,300,106826,1,0,2:0:0:0:
378,366,107034,2,0,P|315:355|260:320,1,126.750004835129,8|0,2:0|2:0,2:0:0:0:
336,8,107448,2,0,P|355:59|366:143,1,126.750004835129,10|0,2:1|2:0,2:0:0:0:
293,208,107862,1,0,2:0:0:0:
265,194,107965,1,0,2:0:0:0:
257,165,108068,1,0,2:0:0:0:
365,130,108276,5,8,2:1:0:0:
160,80,108482,1,8,2:1:0:0:
343,263,108689,1,10,2:0:0:0:
364,239,108792,1,0,2:0:0:0:
368,209,108895,1,0,2:0:0:0:
293,208,109103,1,0,2:0:0:0:
241,262,109310,1,0,2:0:0:0:
114,209,109517,6,0,P|155:256|179:315,1,126.750004835129,10|0,2:1|2:0,2:0:0:0:
40,379,109931,1,0,2:0:0:0:
42,363,109999,5,0,2:0:0:0:
50,349,110068,5,0,2:0:0:0:
62,339,110137,5,0,2:0:0:0:
77,334,110206,5,0,2:0:0:0:
93,334,110275,5,0,2:0:0:0:
108,339,110344,5,8,2:0:0:0:
212,384,110551,1,0,2:0:0:0:
149,89,110758,2,0,P|117:164|114:215,1,126.750004835129,10|0,2:1|2:0,2:0:0:0:
243,271,111172,1,0,2:0:0:0:
243,256,111240,5,0,2:0:0:0:
241,243,111309,5,0,2:0:0:0:
234,230,111378,5,0,2:0:0:0:
225,220,111447,5,0,2:0:0:0:
213,213,111516,5,0,2:0:0:0:
199,209,111585,5,8,2:0:0:0:
105,219,111793,1,0,2:0:0:0:
266,10,112000,6,0,P|310:82|311:137,1,126.750004835129,8|0,2:1|2:0,2:0:0:0:
243,256,112413,2,0,P|219:224|226:186,1,63.3750024175645,2|0,2:0|2:0,2:0:0:0:
402,150,112620,2,0,P|386:186|349:199,1,63.3750024175645,2|0,2:0|2:0,2:0:0:0:
414,25,112827,6,0,P|472:92|462:155,1,126.750004835129,10|0,2:1|2:0,2:0:0:0:
434,230,113241,1,0,2:0:0:0:
420,221,113309,5,0,2:0:0:0:
409,209,113378,5,0,2:0:0:0:
402,196,113447,5,0,2:0:0:0:
398,180,113516,5,0,2:0:0:0:
397,165,113585,5,0,2:0:0:0:
401,149,113655,5,8,2:0:0:0:
504,187,113862,1,0,2:0:0:0:
308,290,114069,1,10,2:1:0:0:
308,290,114276,1,0,2:0:0:0:
417,369,114482,1,0,2:0:0:0:
437,345,114585,1,0,2:0:0:0:
444,314,114688,1,0,2:0:0:0:
290,167,114896,1,8,2:1:0:0:
210,360,115103,1,8,2:1:0:0:
134,292,115310,6,0,L|127:237,2,42.2500016117097,10|0|0,2:0|2:0|2:0,2:0:0:0:
134,292,115724,1,0,2:0:0:0:
64,319,115931,1,0,2:0:0:0:
0,152,116138,5,2,2:0:0:0:
251,235,116551,1,8,2:1:0:0:
64,319,116758,1,8,2:1:0:0:
160,77,116965,2,0,P|180:164|184:214,1,126.750004835129,8|0,2:0|2:0,2:0:0:0:
6,378,117379,2,0,P|13:315|29:253,1,126.750004835129,10|0,2:1|2:0,2:0:0:0:
218,15,117793,5,8,2:1:0:0:
218,15,118207,1,0,2:0:0:0:
231,13,118275,5,0,2:0:0:0:
245,14,118344,5,0,2:0:0:0:
259,18,118413,5,0,2:0:0:0:
271,25,118482,5,0,2:0:0:0:
282,35,118551,5,0,2:0:0:0:
290,46,118620,5,8,2:0:0:0:
282,125,118827,1,0,2:0:0:0:
248,142,119034,1,0,2:0:0:0:
234,137,119241,1,2,2:0:0:0:
354,4,119448,5,14,2:1:0:0:
354,4,120276,1,10,2:0:0:0:
20,72,120689,1,10,2:1:0:0:
108,120,121103,2,0,P|96:146|81:229,1,101.399996905518,2|8,2:0|2:1,2:0:0:0:
132,275,121724,1,8,2:1:0:0:
13,309,121931,2,0,L|4:343,2,25.3499992263794,10|0|0,2:0|2:0|2:0,2:0:0:0:
138,299,122344,2,0,L|129:265,2,25.3499992263794,0|0|0,2:0|2:0|2:0,2:0:0:0:
138,299,122758,6,0,P|202:279|254:278,1,101.399996905518,2|2,2:0|2:0,2:0:0:0:
394,338,123586,1,8,2:1:0:0:
288,368,124000,2,0,P|308:306|364:215,1,152.099995358276,10|0,2:1|2:0,2:0:0:0:
444,219,124827,2,0,P|456:193|451:181,2,25.3499992263794,2|0|0,2:0|2:0|2:0,2:0:0:0:
351,230,125241,1,10,2:0:0:0:
332,142,125448,1,0,2:0:0:0:
425,72,125655,6,0,P|416:102|416:107,1,25.3499992263794,2|0,2:0|2:0,2:0:0:0:
342,40,125862,2,0,P|351:70|351:75,1,25.3499992263794,2|0,2:0|2:0,2:0:0:0:
332,142,126069,2,0,P|293:127|242:117,1,76.0499976791382,10|0,2:1|2:0,2:0:0:0:
193,160,126482,2,0,P|192:168|193:176,5,16.8999994842529,2|0|0|0|0|0,2:0|2:0|2:0|2:0|2:0|2:0,2:0:0:0:
202,185,126896,1,10,2:0:0:0:
65,239,127310,5,10,2:1:0:0:
146,258,127517,1,0,2:0:0:0:
14,181,127724,2,0,L|23:147,2,25.3499992263794,2|0|0,2:0|2:0|2:0,2:0:0:0:
86,40,128551,6,0,L|93:65,2,25.3499992263794,10|0|0,2:0|2:0|2:0,2:0:0:0:
162,26,128965,2,0,L|169:2,2,25.3499992263794,0|0|0,2:0|2:0|2:0,2:0:0:0:
249,6,129379,6,0,P|242:34|239:61,1,50.6999984527588,10|0,2:1|2:0,2:0:0:0:
257,132,129793,1,2,2:0:0:0:
257,132,130207,1,10,2:1:0:0:
257,132,130620,2,0,P|264:160|267:187,1,50.6999984527588,10|0,2:0|2:0,2:0:0:0:
249,258,131448,1,2,2:0:0:0:
249,258,131862,1,10,2:1:0:0:
249,258,132276,1,2,2:0:0:0:
495,230,132689,6,0,P|471:213|413:201,1,76.0499976791383,10|0,2:1|2:0,2:0:0:0:
348,221,133103,1,0,2:0:0:0:
376,297,133310,1,0,2:0:0:0:
436,124,133517,2,0,P|430:90|412:43,1,76.0499976791383,8|0,2:0|2:0,2:0:0:0:
249,258,133931,2,0,P|255:224|273:177,1,76.0499976791383,10|0,2:1|2:0,2:0:0:0:
342,119,134344,5,0,2:0:0:0:
338,100,134447,1,0,2:0:0:0:
328,84,134550,1,0,2:0:0:0:
231,60,134758,1,8,2:1:0:0:
153,111,134965,1,8,2:1:0:0:
221,52,135172,5,10,2:0:0:0:
221,52,135586,1,0,2:0:0:0:
136,25,135793,1,0,2:0:0:0:
250,166,136000,6,0,P|222:236|220:253,1,76.0499976791383,10|0,2:1|2:0,2:0:0:0:
319,307,136413,1,0,2:0:0:0:
319,297,136481,5,0,2:0:0:0:
317,288,136550,5,0,2:0:0:0:
313,279,136619,5,0,2:0:0:0:
306,273,136688,5,0,2:0:0:0:
298,268,136757,5,0,2:0:0:0:
289,266,136826,5,8,2:0:0:0:
238,335,137034,1,0,2:0:0:0:
195,122,137241,5,10,2:1:0:0:
221,236,137448,1,0,2:0:0:0:
299,150,137655,1,0,2:0:0:0:
299,143,137723,5,0,2:0:0:0:
300,137,137792,5,0,2:0:0:0:
300,131,137861,5,0,2:0:0:0:
310,39,138069,1,8,2:1:0:0:
310,39,138276,1,0,2:0:0:0:
156,0,138482,1,10,2:0:0:0:
156,0,138896,2,0,L|117:10,1,38.0249988395691,2|2,2:0|2:0,2:0:0:0:
181,69,139103,2,0,L|217:78,1,38.0249988395691,2|0,2:0|2:0,2:0:0:0:
96,98,139310,5,10,2:1:0:0:
96,98,139724,1,0,2:0:0:0:
99,106,139792,5,0,2:0:0:0:
102,115,139861,5,0,2:0:0:0:
104,125,139930,5,0,2:0:0:0:
106,134,139999,5,0,2:0:0:0:
108,143,140068,5,0,2:0:0:0:
109,153,140137,5,8,2:0:0:0:
81,224,140344,1,0,2:0:0:0:
147,350,140551,1,10,2:1:0:0:
147,350,140758,1,0,2:0:0:0:
243,247,140965,6,0,L|232:167,2,76.0499976791383,0|0|8,2:0|2:0|2:1,2:0:0:0:
258,331,141586,1,0,2:0:0:0:
317,197,141793,2,0,L|397:186,1,76.0499976791383,10|0,2:0|2:0,2:0:0:0:
429,118,142207,2,0,L|469:126,3,25.3499992263794,0|0|0|8,2:0|2:0|2:0|2:0,2:0:0:0:
215,17,142620,5,10,2:1:0:0:
215,17,142827,1,8,2:1:0:0:
210,92,143034,1,0,2:0:0:0:
210,92,143448,1,8,2:0:0:0:
237,162,143862,1,10,2:1:0:0:
286,220,144689,1,2,2:0:0:0:
313,290,144896,1,2,2:0:0:0:
308,366,145103,1,2,2:0:0:0:
308,366,145517,1,2,2:0:0:0:
308,366,145931,1,2,2:0:0:0:
