osu file format v14

[General]
AudioFilename: audio.mp3
AudioLeadIn: 0
PreviewTime: 92965
Countdown: 0
SampleSet: Soft
StackLeniency: 0.6
Mode: 0
LetterboxInBreaks: 0
WidescreenStoryboard: 1

[Editor]
Bookmarks: 13517,26758,34827,53241,56551
DistanceSpacing: 0.3
BeatDivisor: 6
GridSize: 32
TimelineZoom: 2.3

[Metadata]
Title:Suffocation
TitleUnicode:Suffocation
Artist:bladee
ArtistUnicode:bladee
Creator:thexo
Version:hard
Source:
Tags:dg drain gang d and g d&g & gtb sg gtbsg gravity boys shield hip hop english whitearmor white armor armour cloud rap alternative hyperpop pop year0001 thaiboy digital ecco2k
BeatmapID:3429674
BeatmapSetID:1674485

[Difficulty]
HPDrainRate:3.5
CircleSize:3.9
OverallDifficulty:5.5
ApproachRate:7.5
SliderMultiplier:1.3
SliderTickRate:1

[Events]
//Background and Video events
0,0,"bl0zsu7zxzu61.jpg",0,0
//Break Periods
//Storyboard Layer 0 (Background)
//Storyboard Layer 1 (Fail)
//Storyboard Layer 2 (Pass)
//Storyboard Layer 3 (Foreground)
//Storyboard Layer 4 (Overlay)
//Storyboard Sound Samples

[TimingPoints]
276,413.793103448276,4,2,1,33,1,0
276,-153.846153846154,4,2,1,33,0,0
13517,-133.333333333333,4,2,1,33,0,0
15172,-133.333333333333,4,2,1,35,0,0
26758,-100,4,2,1,60,0,0
40000,-100,4,2,1,45,0,0
42896,-100,4,2,1,40,0,0
56551,-100,4,2,1,55,0,0
78482,-100,4,2,1,60,0,0
79724,-100,4,2,1,32,0,0
86758,-200,4,2,1,32,0,0
106207,-100,4,2,1,60,0,0
119448,-100,4,2,1,45,0,0
120276,-133.333333333333,4,2,1,45,0,0
126069,-133.333333333333,4,2,1,45,0,0
132689,-100,4,2,1,50,0,0

[Colours]
Combo1 : 242,206,174
Combo2 : 225,113,121
Combo3 : 217,174,137
Combo4 : 214,50,63
Combo5 : 244,168,168

[HitObjects]
0,123,276,6,0,B|216:80|105:157|332:103,1,337.999984527589,2|2,2:0|2:0,2:0:0:0:
395,58,2758,1,2,2:0:0:0:
472,41,3586,1,2,2:0:0:0:
472,41,4827,1,0,2:0:0:0:
333,104,5241,5,2,2:0:0:0:
370,170,5655,2,0,P|365:184|357:217,1,42.2499980659486,0|0,2:0|2:0,2:0:0:0:
358,211,6069,1,2,2:0:0:0:
310,270,6482,2,0,L|264:264,1,42.2499980659486,2|2,2:0|2:0,2:0:0:0:
128,249,6896,6,0,B|149:278|149:278|298:292|452:346,1,337.999984527589,2|2,2:0|2:0,2:0:0:0:
507,296,9379,1,2,2:0:0:0:
471,225,10207,1,2,2:0:0:0:
471,225,11448,1,2,2:0:0:0:
443,342,11862,5,2,2:0:0:0:
392,284,12276,2,0,P|387:250|389:240,1,42.2499980659486,0|0,2:0|2:0,2:0:0:0:
388,242,12689,1,2,2:0:0:0:
339,184,13103,2,0,L|288:195,1,42.2499980659486,2|2,2:0|2:0,2:0:0:0:
223,211,13517,6,0,P|211:186|210:157,1,48.750001859665,2|2,2:0|2:0,2:0:0:0:
285,74,13931,2,0,P|282:98|271:119,1,48.750001859665,2|2,2:0|2:0,2:0:0:0:
209,165,14344,2,0,P|173:153|97:142,1,97.50000371933,2|2,2:0|2:0,2:0:0:0:
0,237,15172,6,0,L|8:285,3,48.750001859665,2|0|2|0,2:0|2:0|2:0|2:0,2:0:0:0:
79,252,16000,2,0,P|63:304|58:361,1,97.50000371933,2|2,2:0|2:0,2:0:0:0:
150,378,16827,6,0,P|182:362|210:356,1,48.750001859665,2|2,2:0|2:0,2:0:0:0:
246,301,17241,2,0,P|278:317|306:323,1,48.750001859665,2|2,2:0|2:0,2:0:0:0:
366,295,17655,2,0,P|342:338|327:394,1,97.50000371933,2|2,2:0|2:0,2:0:0:0:
464,358,18482,6,0,P|473:325|468:292,1,48.750001859665,2|0,2:0|2:0,2:0:0:0:
427,249,18896,1,2,2:0:0:0:
427,249,19103,1,0,2:0:0:0:
427,249,19310,2,0,P|432:218|444:175,2,73.1250027894975,2|2|2,2:0|2:0|2:0,2:0:0:0:
511,137,20138,6,0,P|504:107|495:88,1,48.750001859665,2|2,2:0|2:0,2:0:0:0:
422,74,20551,2,0,P|429:44|438:25,1,48.750001859665,2|2,2:0|2:0,2:0:0:0:
508,0,20965,1,2,2:0:0:0:
344,97,21379,1,2,2:0:0:0:
240,15,21793,6,0,P|209:23|190:31,3,48.750001859665,2|0|2|0,2:0|2:0|2:0|2:0,2:0:0:0:
123,0,22620,2,0,P|142:42|154:104,1,97.50000371933,2|2,2:0|2:0,2:0:0:0:
73,211,23448,6,0,P|79:180|91:154,1,48.750001859665,2|2,2:0|2:0,2:0:0:0:
9,256,23862,2,0,P|17:278|21:302,1,48.750001859665,2|2,2:0|2:0,2:0:0:0:
15,380,24276,2,0,P|52:342|111:323,1,97.50000371933,2|2,2:0|2:0,2:0:0:0:
259,374,25103,6,0,P|254:338|248:323,3,48.750001859665,2|0|2|0,2:0|2:0|2:0|2:0,2:0:0:0:
192,270,25931,1,2,2:0:0:0:
326,310,26344,2,0,L|339:248,1,48.750001859665,2|2,2:0|2:0,2:0:0:0:
453,189,26758,6,0,P|419:217|405:257,1,65,14|0,2:1|2:0,2:0:0:0:
453,311,27172,1,0,2:0:0:0:
453,311,27276,1,0,2:0:0:0:
453,311,27379,1,0,2:0:0:0:
491,231,27586,2,0,P|471:193|440:190,1,65,8|0,2:0|2:0,2:0:0:0:
380,233,28000,2,0,P|327:219|312:206,1,65,10|0,2:1|2:0,2:0:0:0:
288,142,28413,6,0,P|308:122|322:116,2,32.5,0|0|0,2:0|2:0|2:0,2:0:0:0:
244,207,28827,1,8,2:1:0:0:
224,282,29034,1,8,2:1:0:0:
135,234,29241,2,0,L|167:227,2,32.5,10|0|0,2:0|2:0|2:0,2:0:0:0:
106,166,29655,1,0,2:0:0:0:
106,166,29862,1,0,2:0:0:0:
146,49,30069,6,0,P|157:79|162:112,1,65,10|0,2:1|2:0,2:0:0:0:
235,140,30482,2,0,P|249:134|264:132,5,21.6666666666667,0|0|0|0|0|0,2:0|2:0|2:0|2:0|2:0|2:0,2:0:0:0:
265,138,30896,2,0,P|306:141|343:152,1,65,8|0,2:0|2:0,2:0:0:0:
442,217,31310,2,0,P|407:244|387:242,1,65,10|0,2:1|2:0,2:0:0:0:
351,310,31724,2,0,P|345:324|343:338,5,21.6666666666667,0|0|0|0|0|0,2:0|2:0|2:0|2:0|2:0|2:0,2:0:0:0:
350,343,32138,5,8,2:1:0:0:
272,334,32344,1,0,2:0:0:0:
215,280,32551,5,8,2:0:0:0:
137,289,32757,1,0,2:0:0:0:
81,234,32965,2,0,L|-3:221,1,65,2|2,2:0|2:0,2:0:0:0:
144,186,33379,6,0,P|134:127|121:102,1,65,10|0,2:1|2:0,2:0:0:0:
183,63,33793,2,0,P|186:52|190:42,5,21.6666666666667,0|0|0|0|0|0,2:0|2:0|2:0|2:0|2:0|2:0,2:0:0:0:
201,35,34207,5,8,2:0:0:0:
256,88,34413,1,0,2:0:0:0:
366,0,34620,5,10,2:1:0:0:
292,21,34826,1,0,2:0:0:0:
373,11,35034,2,0,P|377:30|383:73,2,32.5,0|0|0,2:0|2:0|2:0,2:0:0:0:
256,88,35448,5,8,2:1:0:0:
287,159,35655,1,8,2:1:0:0:
248,224,35862,2,0,L|250:248,2,21.6666666666667,10|0|0,2:0|2:0|2:0,2:0:0:0:
146,306,36276,5,0,2:0:0:0:
68,319,36482,1,0,2:0:0:0:
30,250,36689,2,0,P|35:211|47:173,1,65,0|0,2:0|2:0,2:0:0:0:
104,139,37103,2,0,P|101:122|99:113,5,21.6666666666667,0|0|0|0|0|0,2:0|2:0|2:0|2:0|2:0|2:0,2:0:0:0:
112,149,37517,5,8,2:0:0:0:
187,127,37724,1,0,2:0:0:0:
232,63,37931,5,10,2:1:0:0:
307,85,38138,1,0,2:0:0:0:
372,43,38344,6,0,P|375:25|381:9,5,21.6666666666667,0|0|0|0|0|0,2:0|2:0|2:0|2:0|2:0|2:0,2:0:0:0:
385,15,38758,1,0,2:0:0:0:
444,65,38965,1,0,2:0:0:0:
399,129,39172,1,8,2:0:0:0:
443,192,39379,1,0,2:0:0:0:
404,260,39586,2,0,L|328:249,1,65,2|2,2:0|2:0,2:0:0:0:
468,318,40000,5,10,2:1:0:0:
360,344,40413,1,2,2:0:0:0:
269,280,40827,5,10,2:0:0:0:
161,254,41240,1,10,2:1:0:0:
110,352,41655,6,0,P|128:355|148:363,2,32.5,2|0|0,2:0|2:0|2:0,2:0:0:0:
36,364,42068,1,10,2:1:0:0:
36,364,42276,1,8,2:1:0:0:
55,288,42482,2,0,P|53:271|47:256,2,32.5,8|0|0,2:0|2:0|2:0,2:0:0:0:
100,199,42896,2,0,P|92:167|78:139,1,65,2|2,2:0|2:0,2:0:0:0:
252,186,43310,6,0,P|177:245|148:216,1,130,2|2,2:0|2:0,2:0:0:0:
193,86,44138,1,10,2:0:0:0:
327,7,44551,1,10,2:1:0:0:
424,131,44965,6,0,P|417:146|413:162,2,32.5,2|0|0,2:0|2:0|2:0,2:0:0:0:
364,237,45379,2,0,P|360:221|353:207,2,32.5,2|0|0,2:0|2:0|2:0,2:0:0:0:
429,276,45793,1,8,2:0:0:0:
230,238,46207,2,0,L|164:225,1,65,2|2,2:0|2:0,2:0:0:0:
91,250,46620,6,0,P|160:290|162:321,1,97.5,10|0,2:1|2:0,2:0:0:0:
162,311,47034,2,0,P|147:322|130:326,5,21.6666666666667,2|0|0|0|0|0,2:0|2:0|2:0|2:0|2:0|2:0,2:0:0:0:
130,323,47448,1,10,2:0:0:0:
253,211,47862,2,0,L|327:225,1,65,10|2,2:1|2:0,2:0:0:0:
384,262,48276,2,0,P|407:254|435:248,2,32.5,2|0|0,2:0|2:0|2:0,2:0:0:0:
179,153,49103,2,0,P|156:145|128:139,2,32.5,8|0|0,2:0|2:0|2:0,2:0:0:0:
259,132,49517,1,2,2:0:0:0:
259,132,49620,1,0,2:0:0:0:
259,132,49724,1,2,2:0:0:0:
179,153,49931,6,0,P|158:214|142:286,2,130,10|2|10,2:1|2:0|2:0,2:0:0:0:
198,77,50965,1,2,2:0:0:0:
141,22,51172,2,0,P|104:28|61:42,1,65,10|0,2:1|2:0,2:0:0:0:
27,95,51586,5,0,2:0:0:0:
71,231,52000,1,0,2:0:0:0:
22,112,52413,5,10,2:0:0:0:
57,220,52827,2,0,L|46:290,1,65,2|2,2:0|2:0,2:0:0:0:
32,361,53241,1,2,2:0:0:0:
503,199,56551,6,0,P|455:186|426:173,1,65,10|0,2:1|2:0,2:0:0:0:
375,223,56965,2,0,P|344:230|339:233,5,21.6666666666667,0|0|0|0|0|0,2:0|2:0|2:0|2:0|2:0|2:0,2:0:0:0:
343,232,57379,2,0,P|358:280|362:304,1,65,8|0,2:0|2:0,2:0:0:0:
266,368,57793,2,0,P|272:336|283:306,1,65,10|0,2:1|2:0,2:0:0:0:
164,365,58207,6,0,L|162:342,3,21.6666666666667,0|0|0|0,2:0|2:0|2:0|2:0,2:0:0:0:
89,294,58620,1,8,2:1:0:0:
160,262,58827,1,0,2:0:0:0:
98,216,59034,5,10,2:0:0:0:
153,267,59241,1,2,2:0:0:0:
79,291,59448,2,0,L|87:357,1,65,2|10,2:0|2:1,2:0:0:0:
172,384,59862,6,0,P|205:371|247:368,1,65,10|0,2:1|2:0,2:0:0:0:
303,321,60276,2,0,P|315:325|326:326,5,21.6666666666667,0|0|0|0|0|0,2:0|2:0|2:0|2:0|2:0|2:0,2:0:0:0:
333,318,60689,2,0,P|324:279|314:253,1,65,8|0,2:0|2:0,2:0:0:0:
399,151,61103,2,0,P|387:182|381:214,1,65,10|0,2:1|2:0,2:0:0:0:
488,193,61517,5,0,2:0:0:0:
488,193,61620,1,0,2:0:0:0:
488,193,61724,1,0,2:0:0:0:
481,115,61931,1,8,2:1:0:0:
432,54,62138,1,8,2:1:0:0:
356,35,62344,1,2,2:0:0:0:
231,129,62758,2,0,L|244:192,1,65,0|0,2:0|2:0,2:0:0:0:
190,253,63172,6,0,P|132:242|122:233,1,65,10|0,2:1|2:0,2:0:0:0:
85,174,63586,2,0,P|58:183|49:184,5,21.6666666666667,0|0|0|0|0|0,2:0|2:0|2:0|2:0|2:0|2:0,2:0:0:0:
52,181,64000,2,0,P|44:213|42:245,1,65,8|0,2:0|2:0,2:0:0:0:
114,355,64413,2,0,P|112:323|104:292,1,65,10|0,2:1|2:0,2:0:0:0:
31,322,64827,5,0,2:0:0:0:
210,372,65241,1,0,2:0:0:0:
396,367,65655,1,8,2:0:0:0:
233,261,66069,2,0,P|202:252|170:248,1,65,2|2,2:0|2:0,2:0:0:0:
289,325,66482,6,0,P|328:305|339:279,1,65,14|0,2:1|2:0,2:0:0:0:
328,147,66896,2,0,P|319:178|318:211,1,65,0|0,2:0|2:0,2:0:0:0:
393,230,67310,1,8,2:0:0:0:
440,167,67517,1,0,2:0:0:0:
506,126,67724,2,0,P|504:90|496:53,1,65,10|0,2:1|2:0,2:0:0:0:
423,37,68138,6,0,P|429:12|438:-6,2,32.5,0|0|0,2:0|2:0|2:0,2:0:0:0:
362,86,68551,1,8,2:1:0:0:
297,42,68758,1,8,2:1:0:0:
234,89,68965,2,0,P|200:100|192:106,2,32.5,10|0|0,2:0|2:0|2:0,2:0:0:0:
279,152,69379,2,0,P|259:211|258:226,1,65,0|0,2:0|2:0,2:0:0:0:
321,340,69793,6,0,P|314:308|301:279,1,65,10|0,2:1|2:0,2:0:0:0:
226,304,70207,2,0,P|199:289|196:283,5,21.6666666666667,0|0|0|0|0|0,2:0|2:0|2:0|2:0|2:0|2:0,2:0:0:0:
202,286,70620,2,0,P|159:296|132:309,1,65,8|0,2:0|2:0,2:0:0:0:
32,220,71034,2,0,P|63:232|95:239,1,65,10|0,2:1|2:0,2:0:0:0:
143,177,71448,6,0,L|140:155,3,21.6666666666667,0|0|0|0,2:0|2:0|2:0|2:0,2:0:0:0:
144,77,71862,2,0,P|182:82|221:98,1,65,8|0,2:1|2:0,2:0:0:0:
268,166,72276,2,0,P|306:161|345:145,1,65,8|0,2:0|2:0,2:0:0:0:
364,81,72689,2,0,L|441:74,1,65,2|2,2:0|2:0,2:0:0:0:
488,138,73103,6,0,P|470:189|463:251,1,97.5,10|0,2:1|2:0,2:0:0:0:
468,244,73517,2,0,P|453:249|438:259,5,21.6666666666667,0|0|0|0|0|0,2:0|2:0|2:0|2:0|2:0|2:0,2:0:0:0:
440,260,73931,2,0,P|456:299|464:324,1,65,8|0,2:0|2:0,2:0:0:0:
406,374,74344,2,0,P|364:347|357:330,1,65,10|0,2:1|2:0,2:0:0:0:
339,262,74758,5,0,2:0:0:0:
339,262,74965,1,0,2:0:0:0:
264,284,75172,2,0,P|222:274|194:262,1,65,0|0,2:0|2:0,2:0:0:0:
166,188,75586,1,10,2:0:0:0:
175,341,76000,2,0,P|137:355|114:370,1,65,0|0,2:0|2:0,2:0:0:0:
0,295,76413,5,10,2:1:0:0:
0,295,76620,1,8,2:1:0:0:
58,234,76827,2,0,P|55:223|52:213,5,21.6666666666667,0|0|0|0|0|0,2:0|2:0|2:0|2:0|2:0|2:0,2:0:0:0:
43,208,77241,6,0,P|62:186|95:169,1,65,8|0,2:0|2:0,2:0:0:0:
120,96,77655,2,0,P|157:104|173:132,1,65,2|0,2:0|2:0,2:0:0:0:
166,203,78069,5,0,2:0:0:0:
215,59,78482,2,0,L|296:42,1,65,0|0,2:0|2:0,2:0:0:0:
350,14,78896,2,0,L|431:31,1,65,8|0,2:0|2:0,2:0:0:0:
464,87,79310,2,0,L|443:157,1,65,2|2,2:0|2:0,2:0:0:0:
419,230,79724,5,2,2:0:0:0:
200,333,82207,5,2,2:0:0:0:
84,205,84689,5,2,2:0:0:0:
177,180,85517,1,2,2:0:0:0:
6,93,86344,5,2,2:0:0:0:
6,93,86758,2,0,B|210:111|126:163|317:179,1,325,2|2,2:0|2:0,2:0:0:0:
315,178,89655,2,0,P|320:210|322:243,1,65,2|2,2:0|2:0,2:0:0:0:
320,315,91310,5,2,2:0:0:0:
449,287,92138,1,2,2:0:0:0:
272,32,92965,6,0,P|285:19|304:9,1,32.5,2|0,2:0|2:0,2:0:0:0:
380,62,93379,2,0,P|363:63|348:67,1,32.5,0|0,2:0|2:0,2:0:0:0:
395,135,93793,2,0,P|412:140|430:151,1,32.5,10|0,2:1|2:0,2:0:0:0:
384,212,94207,1,10,2:1:0:0:
449,287,95448,1,2,2:0:0:0:
265,220,96069,5,8,2:1:0:0:
265,220,96276,2,0,P|244:230|235:239,1,32.5,10|0,2:1|2:0,2:0:0:0:
172,202,96689,2,0,P|177:187|188:175,1,32.5,2|0,2:0|2:0,2:0:0:0:
97,173,97103,2,0,P|95:190|98:206,1,32.5,0|0,2:0|2:0,2:0:0:0:
19,204,97517,1,10,2:1:0:0:
144,334,98344,6,0,P|168:325|180:323,1,32.5,2|0,2:0|2:0,2:0:0:0:
245,359,98758,1,10,2:1:0:0:
56,180,99586,6,0,P|33:169|22:167,1,32.5,10|0,2:1|2:0,2:0:0:0:
126,149,100000,2,0,P|113:126|105:118,1,32.5,2|0,2:0|2:0,2:0:0:0:
201,163,100413,2,0,P|203:137|201:126,1,32.5,10|0,2:1|2:0,2:0:0:0:
268,197,100827,1,10,2:1:0:0:
268,197,102069,1,2,2:0:0:0:
387,14,102689,5,0,2:0:0:0:
387,14,102896,2,0,P|374:34|372:44,1,32.5,2|0,2:0|2:0,2:0:0:0:
475,57,103310,2,0,P|451:61|443:67,1,32.5,2|0,2:0|2:0,2:0:0:0:
506,149,103724,2,0,P|485:136|475:134,1,32.5,2|0,2:0|2:0,2:0:0:0:
465,212,104138,1,10,2:1:0:0:
3,252,105793,6,0,L|10:212,1,32.5,2|0,2:0|2:0,2:0:0:0:
26,329,106207,6,0,P|67:336|103:352,1,65,14|0,2:1|2:0,2:0:0:0:
178,331,106620,1,0,2:0:0:0:
178,331,106724,1,0,2:0:0:0:
178,331,106827,1,0,2:0:0:0:
122,267,107034,2,0,P|124:234|135:204,1,65,8|0,2:0|2:0,2:0:0:0:
199,105,107448,2,0,P|210:135|212:168,1,65,10|0,2:1|2:0,2:0:0:0:
217,252,107862,6,0,P|231:259|246:264,2,32.5,0|0|0,2:0|2:0|2:0,2:0:0:0:
212,168,108276,1,8,2:1:0:0:
289,134,108482,1,8,2:1:0:0:
373,136,108689,6,0,P|376:153|377:173,2,32.5,10|0|0,2:0|2:0|2:0,2:0:0:0:
327,64,109103,2,0,P|360:56|404:52,1,65,0|0,2:0|2:0,2:0:0:0:
500,82,109517,6,0,P|479:106|448:114,1,65,10|0,2:1|2:0,2:0:0:0:
390,52,109931,2,0,P|411:40|425:36,5,21.6666666666667,0|0|0|0|0|0,2:0|2:0|2:0|2:0|2:0|2:0,2:0:0:0:
421,43,110344,1,8,2:0:0:0:
433,126,110551,1,0,2:0:0:0:
370,182,110758,2,0,P|357:218|353:252,1,65,10|0,2:1|2:0,2:0:0:0:
407,309,111172,6,0,P|430:302|445:297,5,21.6666666666667,0|0|0|0|0|0,2:0|2:0|2:0|2:0|2:0|2:0,2:0:0:0:
442,306,111586,1,8,2:0:0:0:
411,384,111793,1,0,2:0:0:0:
327,368,112000,2,0,P|324:328|334:296,1,65,8|0,2:1|2:0,2:0:0:0:
270,244,112413,2,0,L|189:259,1,65,2|2,2:0|2:0,2:0:0:0:
113,236,112827,6,0,P|131:276|140:312,1,65,10|0,2:1|2:0,2:0:0:0:
149,380,113241,2,0,P|159:374|170:360,5,21.6666666666667,0|0|0|0|0|0,2:0|2:0|2:0|2:0|2:0|2:0,2:0:0:0:
181,367,113655,2,0,P|227:370|249:376,1,65,8|0,2:0|2:0,2:0:0:0:
370,307,114069,2,0,P|338:313|305:316,1,65,10|0,2:1|2:0,2:0:0:0:
258,258,114482,5,0,2:0:0:0:
258,258,114586,1,0,2:0:0:0:
258,258,114689,1,0,2:0:0:0:
297,184,114896,2,0,P|287:141|272:103,1,65,8|8,2:1|2:1,2:0:0:0:
220,61,115310,2,0,P|219:43|221:31,2,21.6666666666667,10|0|0,2:0|2:0|2:0,2:0:0:0:
366,11,115724,5,0,2:0:0:0:
389,92,115931,1,0,2:0:0:0:
356,170,116138,2,0,P|367:204|380:272,1,97.5,2|0,2:0|2:0,2:0:0:0:
373,276,116551,1,8,2:1:0:0:
413,350,116758,1,8,2:1:0:0:
487,310,116965,2,0,P|477:270|464:242,1,65,8|0,2:0|2:0,2:0:0:0:
373,276,117379,2,0,P|317:271|303:266,1,65,10|0,2:1|2:0,2:0:0:0:
234,229,117793,1,8,2:1:0:0:
35,292,118207,2,0,P|41:267|45:258,5,21.6666666666667,0|0|0|0|0|0,2:0|2:0|2:0|2:0|2:0|2:0,2:0:0:0:
48,259,118620,6,0,P|76:265|115:277,1,65,8|0,2:0|2:0,2:0:0:0:
180,174,119034,2,0,P|149:182|118:190,1,65,0|2,2:0|2:0,2:0:0:0:
34,170,119448,5,14,2:1:0:0:
169,4,120276,6,0,P|188:49|200:110,2,97.50000371933,10|10|2,2:0|2:1|2:0,2:0:0:0:
3,16,121517,1,8,2:1:0:0:
3,16,121724,1,8,2:1:0:0:
53,69,121931,2,0,L|49:93,2,24.3750009298325,10|0|0,2:0|2:0|2:0,2:0:0:0:
6,152,122344,2,0,L|12:176,2,24.3750009298325,0|0|0,2:0|2:0|2:0,2:0:0:0:
59,231,122758,6,0,P|93:214|168:198,1,97.50000371933,2|2,2:0|2:0,2:0:0:0:
282,263,123586,1,8,2:1:0:0:
358,138,124000,2,0,P|265:147|228:212,1,170.625006508827,10|0,2:1|2:0,2:0:0:0:
238,203,124827,2,0,P|265:197|278:198,2,24.3750009298325,2|0|0,2:0|2:0|2:0,2:0:0:0:
211,273,125241,1,10,2:0:0:0:
211,273,125448,1,0,2:0:0:0:
260,326,125655,2,0,L|321:316,1,48.750001859665,2|2,2:0|2:0,2:0:0:0:
380,305,126069,5,10,2:1:0:0:
446,139,126482,2,0,P|457:134|467:131,5,16.2500006198883,2|0|0|0|0|0,2:0|2:0|2:0|2:0|2:0|2:0,2:0:0:0:
475,138,126896,2,0,P|470:111|463:90,1,48.750001859665,10|0,2:0|2:0,2:0:0:0:
395,61,127310,2,0,P|400:34|407:13,1,48.750001859665,10|0,2:1|2:0,2:0:0:0:
479,5,127724,1,2,2:0:0:0:
317,71,128344,1,0,2:0:0:0:
257,27,128551,2,0,L|223:33,2,24.3750009298325,10|0|0,2:0|2:0|2:0,2:0:0:0:
160,82,128965,2,0,L|185:87,2,24.3750009298325,0|0|0,2:0|2:0|2:0,2:0:0:0:
101,37,129379,5,10,2:1:0:0:
54,120,129793,1,2,2:0:0:0:
88,207,130207,1,10,2:1:0:0:
44,294,130620,1,10,2:0:0:0:
44,294,131448,5,2,2:0:0:0:
88,207,131861,1,10,2:1:0:0:
54,120,132275,1,2,2:0:0:0:
92,30,132689,6,0,P|126:35|174:50,1,65,10|0,2:1|2:0,2:0:0:0:
202,105,133103,2,0,P|236:100|284:85,1,65,0|0,2:0|2:0,2:0:0:0:
309,26,133517,1,8,2:0:0:0:
261,174,133931,1,10,2:1:0:0:
352,300,134344,6,0,L|391:303,2,32.5,0|0|0,2:0|2:0|2:0,2:0:0:0:
273,298,134758,2,0,P|260:335|257:368,1,65,8|8,2:1|2:1,2:0:0:0:
180,375,135172,1,10,2:0:0:0:
15,335,135586,1,0,2:0:0:0:
15,335,135793,1,0,2:0:0:0:
81,293,136000,6,0,P|63:245|38:209,1,65,10|0,2:1|2:0,2:0:0:0:
105,173,136413,2,0,P|110:155|119:138,5,21.6666666666667,0|0|0|0|0|0,2:0|2:0|2:0|2:0|2:0|2:0,2:0:0:0:
122,142,136827,2,0,P|115:112|102:79,1,65,8|0,2:0|2:0,2:0:0:0:
199,2,137241,2,0,P|187:32|179:64,1,65,10|0,2:1|2:0,2:0:0:0:
246,104,137655,6,0,L|272:97,3,21.6666666666667,0|0|0|0,2:0|2:0|2:0|2:0,2:0:0:0:
351,189,138069,2,0,P|348:156|339:126,1,65,8|0,2:1|2:0,2:0:0:0:
425,38,138482,2,0,P|415:69|413:102,1,65,10|0,2:0|2:0,2:0:0:0:
482,137,138896,2,0,L|474:210,1,65,2|2,2:0|2:0,2:0:0:0:
463,284,139310,5,10,2:1:0:0:
321,372,139724,2,0,P|324:351|330:339,5,21.6666666666667,0|0|0|0|0|0,2:0|2:0|2:0|2:0|2:0|2:0,2:0:0:0:
332,341,140138,6,0,P|299:328|251:317,1,65,8|0,2:0|2:0,2:0:0:0:
221,259,140551,2,0,P|188:272|140:283,1,65,10|0,2:1|2:0,2:0:0:0:
90,252,140965,1,0,2:0:0:0:
90,252,141172,1,0,2:0:0:0:
126,184,141379,1,8,2:1:0:0:
126,184,141586,1,0,2:0:0:0:
86,117,141793,2,0,P|91:86|103:53,1,65,10|0,2:0|2:0,2:0:0:0:
174,23,142207,2,0,P|197:29|207:33,5,21.6666666666667,0|0|0|8|0|0,2:0|2:0|2:0|2:0|2:0|2:0,2:0:0:0:
202,38,142620,5,10,2:1:0:0:
313,63,143034,1,0,2:0:0:0:
396,139,143448,1,8,2:0:0:0:
448,240,143862,1,10,2:1:0:0:
202,38,144689,5,2,2:0:0:0:
396,139,145103,1,2,2:0:0:0:
313,63,145517,1,2,2:0:0:0:
448,240,145931,1,2,2:0:0:0:
