osu file format v14

[General]
AudioFilename: audio.mp3
AudioLeadIn: 0
PreviewTime: 72030
Countdown: 0
SampleSet: Normal
StackLeniency: 0.7
Mode: 1
LetterboxInBreaks: 0
WidescreenStoryboard: 1

[Editor]
DistanceSpacing: 0.5
BeatDivisor: 4
GridSize: 32
TimelineZoom: 2.1

[Metadata]
Title:Reality Surf
TitleUnicode:Reality Surf
Artist:bladee
ArtistUnicode:bladee
Creator:Metzo
Version:futsuu
Source:
Tags:i just want to show you something new english hip-hop hiphop hip hop drain gang furry cloud rap whitearmor gud 333 trap year0001
BeatmapID:3985952
BeatmapSetID:1922969

[Difficulty]
HPDrainRate:7
CircleSize:5
OverallDifficulty:3
ApproachRate:5
SliderMultiplier:1.8
SliderTickRate:1

[Events]
//Background and Video events
0,0,"FlYb0gsXgAEeCWD.jpg",0,-80
//Break Periods
//Storyboard Layer 0 (Background)
//Storyboard Layer 1 (Fail)
//Storyboard Layer 2 (Pass)
//Storyboard Layer 3 (Foreground)
//Storyboard Layer 4 (Overlay)
//Storyboard Sound Samples

[TimingPoints]
-720,375,4,1,0,25,1,0
780,375,4,1,0,25,1,0
780,-133.333333333333,4,1,0,25,0,0
12686,-133.333333333333,4,1,0,40,0,0
34436,-133.333333333333,4,1,0,5,0,0
35186,-133.333333333333,4,1,0,40,0,0
35936,-133.333333333333,4,1,0,5,0,0
36686,-133.333333333333,4,1,0,40,0,0
48780,-133.333333333333,4,1,0,40,0,0
48967,-133.333333333333,4,1,0,40,0,0
49155,-133.333333333333,4,1,0,40,0,0
49342,-133.333333333333,4,1,0,40,0,0
49530,-133.333333333333,4,1,0,40,0,0
49717,-133.333333333333,4,1,0,40,0,0
49905,-133.333333333333,4,1,0,40,0,0
50092,-133.333333333333,4,1,0,40,0,0
50280,-133.333333333333,4,1,0,40,0,0
51030,-133.333333333333,4,1,0,40,0,0
51123,-133.333333333333,4,1,0,40,0,0
51217,-133.333333333333,4,1,0,40,0,0
51311,-133.333333333333,4,1,0,40,0,0
51405,-133.333333333333,4,1,0,40,0,0
51592,-133.333333333333,4,1,0,40,0,0
51780,-133.333333333333,4,1,0,40,0,0
52155,-133.333333333333,4,1,0,40,0,0
52248,-133.333333333333,4,1,0,40,0,0
52342,-133.333333333333,4,1,0,40,0,0
52530,-133.333333333333,4,1,0,40,0,0
52905,-133.333333333333,4,1,0,40,0,0
53093,-133.333333333333,4,1,0,40,0,0
53280,-133.333333333333,4,1,0,40,0,0
71186,-133.333333333333,4,1,0,5,0,0
72030,-133.333333333333,4,1,0,5,0,1
72686,-133.333333333333,4,1,0,40,0,1
72780,-133.333333333333,4,1,0,40,0,0
108780,-133.333333333333,4,1,0,40,0,0
109342,-133.333333333333,4,1,0,39,0,0
109530,-133.333333333333,4,1,0,38,0,0
109905,-133.333333333333,4,1,0,37,0,0
110468,-133.333333333333,4,1,0,36,0,0
111030,-133.333333333333,4,1,0,35,0,0
111593,-133.333333333333,4,1,0,34,0,0
111780,-133.333333333333,4,1,0,33,0,0
112155,-133.333333333333,4,1,0,32,0,0
112342,-133.333333333333,4,1,0,32,0,0
112530,-133.333333333333,4,1,0,31,0,0
112718,-133.333333333333,4,1,0,31,0,0
112905,-133.333333333333,4,1,0,31,0,0
113092,-133.333333333333,4,1,0,30,0,0
113280,-133.333333333333,4,1,0,30,0,0
113842,-133.333333333333,4,1,0,28,0,0
114030,-133.333333333333,4,1,0,28,0,0
114405,-133.333333333333,4,1,0,27,0,0
114780,-133.333333333333,4,1,0,26,0,0
114968,-133.333333333333,4,1,0,26,0,0
115342,-133.333333333333,4,1,0,25,0,0
115530,-133.333333333333,4,1,0,25,0,0
115905,-133.333333333333,4,1,0,24,0,0
116093,-133.333333333333,4,1,0,23,0,0
116655,-133.333333333333,4,1,0,22,0,0
117030,-133.333333333333,4,1,0,21,0,0
117218,-133.333333333333,4,1,0,21,0,0
117780,-133.333333333333,4,1,0,19,0,0
118342,-133.333333333333,4,1,0,18,0,0
118530,-133.333333333333,4,1,0,18,0,0
118905,-133.333333333333,4,1,0,17,0,0
119092,-133.333333333333,4,1,0,16,0,0
119468,-133.333333333333,4,1,0,16,0,0
119842,-133.333333333333,4,1,0,15,0,0
120030,-133.333333333333,4,1,0,14,0,0
120593,-133.333333333333,4,1,0,13,0,0
120780,-133.333333333333,4,1,0,13,0,0
121155,-133.333333333333,4,1,0,12,0,0
121342,-133.333333333333,4,1,0,11,0,0
121530,-133.333333333333,4,1,0,11,0,0
121718,-133.333333333333,4,1,0,10,0,0
121905,-133.333333333333,4,1,0,10,0,0

[HitObjects]
256,192,780,5,0,0:0:0:0:
256,192,1155,1,0,0:0:0:0:
256,192,1530,1,8,0:0:0:0:
256,192,2280,1,0,0:0:0:0:
256,192,3030,1,8,0:0:0:0:
256,192,3405,1,0,0:0:0:0:
256,192,3780,1,8,0:0:0:0:
256,192,4530,1,8,0:0:0:0:
256,192,4905,1,8,0:0:0:0:
256,192,5280,1,8,0:0:0:0:
256,192,5655,1,8,0:0:0:0:
256,192,6030,1,8,0:0:0:0:
256,192,6780,1,0,0:0:0:0:
256,192,7155,1,0,0:0:0:0:
256,192,7530,1,8,0:0:0:0:
256,192,8280,1,0,0:0:0:0:
256,192,9030,1,8,0:0:0:0:
256,192,9780,1,0,0:0:0:0:
256,192,10155,1,0,0:0:0:0:
256,192,10530,1,8,0:0:0:0:
256,192,10905,1,0,0:0:0:0:
256,192,11280,1,0,0:0:0:0:
256,192,12030,1,8,0:0:0:0:
256,192,12780,1,0,0:0:0:0:
256,192,13155,1,0,0:0:0:0:
256,192,13342,1,0,0:0:0:0:
256,192,13530,1,8,0:0:0:0:
256,192,13905,1,0,0:0:0:0:
256,192,14092,1,8,0:0:0:0:
256,192,14280,1,0,0:0:0:0:
256,192,14655,1,8,0:0:0:0:
256,192,14842,1,0,0:0:0:0:
256,192,15030,1,8,0:0:0:0:
256,192,15780,1,0,0:0:0:0:
256,192,16155,1,8,0:0:0:0:
256,192,16530,1,0,0:0:0:0:
256,192,16905,1,8,0:0:0:0:
256,192,17092,1,8,0:0:0:0:
256,192,17280,1,0,0:0:0:0:
256,192,17655,1,0,0:0:0:0:
256,192,17842,1,8,0:0:0:0:
256,192,18030,1,0,0:0:0:0:
256,192,18405,1,8,0:0:0:0:
256,192,18592,1,0,0:0:0:0:
256,192,18780,1,8,0:0:0:0:
256,192,19530,1,8,0:0:0:0:
256,192,19905,1,0,0:0:0:0:
256,192,20092,1,0,0:0:0:0:
256,192,20280,1,8,0:0:0:0:
256,192,20467,1,8,0:0:0:0:
256,192,20655,1,0,0:0:0:0:
256,192,21030,1,8,0:0:0:0:
256,192,21780,1,8,0:0:0:0:
256,192,22155,1,0,0:0:0:0:
256,192,22342,1,8,0:0:0:0:
256,192,22530,1,0,0:0:0:0:
256,192,22905,1,8,0:0:0:0:
256,192,23092,1,8,0:0:0:0:
256,192,23280,1,0,0:0:0:0:
256,192,23655,1,8,0:0:0:0:
256,192,23842,1,0,0:0:0:0:
256,192,24030,1,8,0:0:0:0:
256,192,24405,1,8,0:0:0:0:
256,192,24592,1,8,0:0:0:0:
256,192,24780,1,0,0:0:0:0:
256,192,25530,1,8,0:0:0:0:
256,192,25905,1,0,0:0:0:0:
256,192,26092,1,0,0:0:0:0:
256,192,26280,1,8,0:0:0:0:
256,192,26467,1,0,0:0:0:0:
256,192,26655,1,8,0:0:0:0:
256,192,27030,1,0,0:0:0:0:
256,192,27780,1,8,0:0:0:0:
256,192,28530,1,8,0:0:0:0:
256,192,28905,1,8,0:0:0:0:
256,192,29092,1,0,0:0:0:0:
256,192,29280,1,8,0:0:0:0:
256,192,29655,1,0,0:0:0:0:
256,192,30030,1,0,0:0:0:0:
256,192,30217,1,0,0:0:0:0:
256,192,30405,1,8,0:0:0:0:
256,192,30592,1,0,0:0:0:0:
256,192,30780,1,8,0:0:0:0:
256,192,31530,1,0,0:0:0:0:
256,192,31717,1,0,0:0:0:0:
256,192,31905,1,8,0:0:0:0:
256,192,32092,1,0,0:0:0:0:
256,192,32280,1,8,0:0:0:0:
256,192,33030,1,0,0:0:0:0:
256,192,33217,1,0,0:0:0:0:
256,192,33405,1,8,0:0:0:0:
256,192,33592,1,0,0:0:0:0:
256,192,33780,1,8,0:0:0:0:
256,192,35280,1,0,0:0:0:0:
256,192,35467,1,8,0:0:0:0:
256,192,35655,1,0,0:0:0:0:
256,192,35842,1,8,0:0:0:0:
256,192,36780,1,0,0:0:0:0:
256,192,37155,1,0,0:0:0:0:
256,192,37342,1,0,0:0:0:0:
256,192,37530,1,8,0:0:0:0:
256,192,37905,1,8,0:0:0:0:
256,192,38280,1,8,0:0:0:0:
256,192,38467,1,8,0:0:0:0:
256,192,38655,1,0,0:0:0:0:
256,192,38842,1,8,0:0:0:0:
256,192,39030,1,0,0:0:0:0:
256,192,39405,1,8,0:0:0:0:
256,192,39780,1,0,0:0:0:0:
256,192,40530,1,8,0:0:0:0:
256,192,41280,1,0,0:0:0:0:
256,192,41467,1,8,0:0:0:0:
256,192,41655,1,8,0:0:0:0:
256,192,41842,1,0,0:0:0:0:
256,192,42030,1,8,0:0:0:0:
256,192,42405,1,0,0:0:0:0:
256,192,42592,1,8,0:0:0:0:
256,192,42780,1,0,0:0:0:0:
256,192,43530,1,8,0:0:0:0:
256,192,43905,1,0,0:0:0:0:
256,192,44280,1,8,0:0:0:0:
256,192,44467,1,8,0:0:0:0:
256,192,44655,1,0,0:0:0:0:
256,192,44842,1,0,0:0:0:0:
256,192,45030,1,8,0:0:0:0:
256,192,45405,1,0,0:0:0:0:
256,192,45780,1,8,0:0:0:0:
256,192,46530,1,0,0:0:0:0:
256,192,46905,1,8,0:0:0:0:
256,192,47280,1,0,0:0:0:0:
256,192,47467,1,8,0:0:0:0:
256,192,47655,1,0,0:0:0:0:
256,192,47842,1,0,0:0:0:0:
256,192,48030,1,8,0:0:0:0:
256,192,48405,1,0,0:0:0:0:
256,192,48592,1,8,0:0:0:0:
256,192,48780,1,0,0:0:0:0:
256,192,49155,1,0,0:0:0:0:
256,192,49342,1,0,0:0:0:0:
256,192,49530,1,8,0:0:0:0:
256,192,49905,1,8,0:0:0:0:
256,192,51030,1,0,0:0:0:0:
256,192,51217,1,8,0:0:0:0:
256,192,51405,1,0,0:0:0:0:
256,192,52155,1,8,0:0:0:0:
256,192,52342,1,0,0:0:0:0:
256,192,52530,1,8,0:0:0:0:
256,192,52905,1,8,0:0:0:0:
256,192,53280,1,0,0:0:0:0:
256,192,53467,1,0,0:0:0:0:
256,192,53655,1,8,0:0:0:0:
256,192,54030,1,8,0:0:0:0:
256,192,54217,1,0,0:0:0:0:
256,192,54405,1,8,0:0:0:0:
256,192,54592,1,8,0:0:0:0:
256,192,54780,1,0,0:0:0:0:
256,192,55530,1,8,0:0:0:0:
256,192,56280,1,0,0:0:0:0:
256,192,56467,1,0,0:0:0:0:
256,192,56655,1,8,0:0:0:0:
256,192,56842,1,8,0:0:0:0:
256,192,57030,1,0,0:0:0:0:
256,192,57405,1,8,0:0:0:0:
256,192,57780,1,0,0:0:0:0:
256,192,58530,1,8,0:0:0:0:
256,192,58717,1,8,0:0:0:0:
256,192,58905,1,0,0:0:0:0:
256,192,59280,1,8,0:0:0:0:
256,192,59467,1,8,0:0:0:0:
256,192,59655,1,0,0:0:0:0:
256,192,60030,1,8,0:0:0:0:
256,192,60405,1,0,0:0:0:0:
256,192,60592,1,8,0:0:0:0:
256,192,60780,1,0,0:0:0:0:
256,192,61530,1,8,0:0:0:0:
256,192,61905,1,0,0:0:0:0:
256,192,62280,1,0,0:0:0:0:
256,192,62467,1,0,0:0:0:0:
256,192,62655,1,8,0:0:0:0:
256,192,62842,1,0,0:0:0:0:
256,192,63030,1,8,0:0:0:0:
256,192,63405,1,8,0:0:0:0:
256,192,63592,1,8,0:0:0:0:
256,192,63780,1,0,0:0:0:0:
256,192,64530,1,0,0:0:0:0:
256,192,64905,1,8,0:0:0:0:
256,192,65280,1,0,0:0:0:0:
256,192,65467,1,0,0:0:0:0:
256,192,65655,1,8,0:0:0:0:
256,192,65842,1,0,0:0:0:0:
256,192,66030,1,8,0:0:0:0:
256,192,66405,1,8,0:0:0:0:
256,192,66592,1,8,0:0:0:0:
256,192,66780,1,0,0:0:0:0:
256,192,67530,1,8,0:0:0:0:
256,192,67905,1,0,0:0:0:0:
256,192,68280,1,8,0:0:0:0:
256,192,68467,1,0,0:0:0:0:
256,192,68655,1,0,0:0:0:0:
256,192,68842,1,0,0:0:0:0:
256,192,69030,1,8,0:0:0:0:
256,192,69405,1,0,0:0:0:0:
256,192,69592,1,8,0:0:0:0:
256,192,69780,1,0,0:0:0:0:
256,192,70530,1,8,0:0:0:0:
256,192,70905,1,8,0:0:0:0:
256,192,71092,1,0,0:0:0:0:
256,192,72030,1,8,0:0:0:0:
256,192,72780,1,0,0:0:0:0:
256,192,73155,1,0,0:0:0:0:
256,192,73342,1,0,0:0:0:0:
256,192,73530,1,8,0:0:0:0:
256,192,73905,1,0,0:0:0:0:
256,192,74092,1,8,0:0:0:0:
256,192,74280,1,0,0:0:0:0:
256,192,74467,1,8,0:0:0:0:
256,192,74655,1,0,0:0:0:0:
256,192,75030,1,8,0:0:0:0:
256,192,75405,1,8,0:0:0:0:
256,192,75780,1,0,0:0:0:0:
256,192,76530,1,8,0:0:0:0:
256,192,77280,1,8,0:0:0:0:
256,192,77467,1,8,0:0:0:0:
256,192,77655,1,0,0:0:0:0:
256,192,78030,1,0,0:0:0:0:
256,192,78217,1,0,0:0:0:0:
256,192,78405,1,8,0:0:0:0:
256,192,78592,1,8,0:0:0:0:
256,192,78780,1,0,0:0:0:0:
256,192,79530,1,8,0:0:0:0:
256,192,80280,1,0,0:0:0:0:
256,192,80467,1,8,0:0:0:0:
256,192,80655,1,0,0:0:0:0:
256,192,81030,1,8,0:0:0:0:
256,192,81217,1,0,0:0:0:0:
256,192,81405,1,0,0:0:0:0:
256,192,81592,1,0,0:0:0:0:
256,192,81780,1,8,0:0:0:0:
256,192,82530,1,8,0:0:0:0:
256,192,82717,1,8,0:0:0:0:
256,192,82905,1,0,0:0:0:0:
256,192,83280,1,8,0:0:0:0:
256,192,83467,1,8,0:0:0:0:
256,192,83655,1,0,0:0:0:0:
256,192,84030,1,0,0:0:0:0:
256,192,84217,1,8,0:0:0:0:
256,192,84405,1,0,0:0:0:0:
256,192,84592,1,8,0:0:0:0:
256,192,84780,1,0,0:0:0:0:
256,192,85530,1,8,0:0:0:0:
256,192,85905,1,0,0:0:0:0:
256,192,86280,1,0,0:0:0:0:
256,192,87030,1,0,0:0:0:0:
256,192,87405,1,0,0:0:0:0:
256,192,87780,1,8,0:0:0:0:
256,192,88530,1,8,0:0:0:0:
256,192,88905,1,8,0:0:0:0:
256,192,89280,1,8,0:0:0:0:
256,192,89655,1,8,0:0:0:0:
256,192,90030,1,8,0:0:0:0:
256,192,90780,1,0,0:0:0:0:
256,192,91530,1,8,0:0:0:0:
256,192,91905,1,8,0:0:0:0:
256,192,92280,1,0,0:0:0:0:
256,192,92655,1,0,0:0:0:0:
256,192,93030,1,8,0:0:0:0:
256,192,93780,1,8,0:0:0:0:
256,192,94155,1,8,0:0:0:0:
256,192,94530,1,0,0:0:0:0:
256,192,95280,1,0,0:0:0:0:
256,192,95655,1,0,0:0:0:0:
256,192,96030,1,0,0:0:0:0:
256,192,96405,1,0,0:0:0:0:
256,192,96780,1,8,0:0:0:0:
256,192,97530,1,8,0:0:0:0:
256,192,97905,1,0,0:0:0:0:
256,192,98280,1,8,0:0:0:0:
256,192,98467,1,0,0:0:0:0:
256,192,98655,1,8,0:0:0:0:
256,192,98842,1,0,0:0:0:0:
256,192,99030,1,8,0:0:0:0:
256,192,99405,1,0,0:0:0:0:
256,192,99780,1,0,0:0:0:0:
256,192,100530,1,8,0:0:0:0:
256,192,100905,1,0,0:0:0:0:
256,192,101280,1,8,0:0:0:0:
256,192,101467,1,0,0:0:0:0:
256,192,101655,1,8,0:0:0:0:
256,192,101842,1,0,0:0:0:0:
256,192,102030,1,8,0:0:0:0:
256,192,102405,1,8,0:0:0:0:
256,192,102780,1,0,0:0:0:0:
256,192,103905,1,0,0:0:0:0:
256,192,104280,1,8,0:0:0:0:
256,192,104467,1,0,0:0:0:0:
256,192,104655,1,8,0:0:0:0:
256,192,104842,1,0,0:0:0:0:
256,192,105030,1,8,0:0:0:0:
256,192,105405,1,8,0:0:0:0:
256,192,105780,1,0,0:0:0:0:
256,192,106530,1,8,0:0:0:0:
256,192,106905,1,0,0:0:0:0:
256,192,107280,1,0,0:0:0:0:
256,192,107467,1,8,0:0:0:0:
256,192,107655,1,0,0:0:0:0:
256,192,107842,1,8,0:0:0:0:
256,192,108030,1,0,0:0:0:0:
256,192,108405,1,8,0:0:0:0:
256,192,108592,1,8,0:0:0:0:
256,192,108780,1,0,0:0:0:0:
256,192,109342,1,0,0:0:0:0:
256,192,109530,1,8,0:0:0:0:
256,192,109905,1,0,0:0:0:0:
256,192,111030,1,8,0:0:0:0:
256,192,111780,1,0,0:0:0:0:
256,192,112342,1,0,0:0:0:0:
256,192,112530,1,8,0:0:0:0:
256,192,112905,1,8,0:0:0:0:
256,192,113092,1,0,0:0:0:0:
256,192,113842,1,0,0:0:0:0:
256,192,114030,1,8,0:0:0:0:
256,192,114780,1,8,0:0:0:0:
256,192,115342,1,0,0:0:0:0:
256,192,115530,1,8,0:0:0:0:
256,192,115905,1,0,0:0:0:0:
256,192,117030,1,8,0:0:0:0:
256,192,117780,1,8,0:0:0:0:
256,192,118342,1,0,0:0:0:0:
256,192,118530,1,8,0:0:0:0:
256,192,118905,1,8,0:0:0:0:
256,192,119092,1,0,0:0:0:0:
256,192,119842,1,0,0:0:0:0:
256,192,120030,1,8,0:0:0:0:
256,192,120780,1,8,0:0:0:0:
256,192,121342,1,0,0:0:0:0:
256,192,121530,1,8,0:0:0:0:
256,192,121905,1,0,0:0:0:0:
